  0
SECTION
  2
HEADER
  9
$ACADVER
  1
AC1027
  9
$ACADMAINTVER
 70
    55
  9
$DWGCODEPAGE
  3
ANSI_1252
  9
$LASTSAVEDBY
  1
bzakrzew
  9
$REQUIREDVERSIONS
160
                 0
  9
$INSBASE
 10
0.0
 20
0.0
 30
0.0
  9
$EXTMIN
 10
7.388251122184101
 20
-1.232303517099257
 30
0.0
  9
$EXTMAX
 10
23.83511010979375
 20
9.38820927038618
 30
0.0
  9
$LIMMIN
 10
0.0
 20
0.0
  9
$LIMMAX
 10
12.0
 20
9.0
  9
$ORTHOMODE
 70
     0
  9
$REGENMODE
 70
     1
  9
$FILLMODE
 70
     1
  9
$QTEXTMODE
 70
     0
  9
$MIRRTEXT
 70
     1
  9
$LTSCALE
 40
1.0
  9
$ATTMODE
 70
     1
  9
$TEXTSIZE
 40
0.2
  9
$TRACEWID
 40
0.05
  9
$TEXTSTYLE
  7
Standard
  9
$CLAYER
  8
BORDER
  9
$CELTYPE
  6
ByLayer
  9
$CECOLOR
 62
     7
  9
$CELTSCALE
 40
1.0
  9
$DISPSILH
 70
     0
  9
$DIMSCALE
 40
2.0
  9
$DIMASZ
 40
0.12
  9
$DIMEXO
 40
0.05
  9
$DIMDLI
 40
0.5
  9
$DIMRND
 40
0.0
  9
$DIMDLE
 40
0.0
  9
$DIMEXE
 40
0.1
  9
$DIMTP
 40
0.1
  9
$DIMTM
 40
0.1
  9
$DIMTXT
 40
0.12
  9
$DIMCEN
 40
0.0
  9
$DIMTSZ
 40
0.0
  9
$DIMTOL
 70
     0
  9
$DIMLIM
 70
     0
  9
$DIMTIH
 70
     1
  9
$DIMTOH
 70
     1
  9
$DIMSE1
 70
     0
  9
$DIMSE2
 70
     0
  9
$DIMTAD
 70
     0
  9
$DIMZIN
 70
     7
  9
$DIMBLK
  1

  9
$DIMASO
 70
     1
  9
$DIMSHO
 70
     1
  9
$DIMPOST
  1

  9
$DIMAPOST
  1
mm
  9
$DIMALT
 70
     0
  9
$DIMALTD
 70
     2
  9
$DIMALTF
 40
25.4
  9
$DIMLFAC
 40
1.0
  9
$DIMTOFL
 70
     0
  9
$DIMTVP
 40
0.0
  9
$DIMTIX
 70
     0
  9
$DIMSOXD
 70
     0
  9
$DIMSAH
 70
     0
  9
$DIMBLK1
  1

  9
$DIMBLK2
  1

  9
$DIMSTYLE
  2
AM_ANSI
  9
$DIMCLRD
 70
   256
  9
$DIMCLRE
 70
   256
  9
$DIMCLRT
 70
   140
  9
$DIMTFAC
 40
0.71
  9
$DIMGAP
 40
0.06
  9
$DIMJUST
 70
     0
  9
$DIMSD1
 70
     0
  9
$DIMSD2
 70
     0
  9
$DIMTOLJ
 70
     1
  9
$DIMTZIN
 70
     7
  9
$DIMALTZ
 70
     0
  9
$DIMALTTZ
 70
     0
  9
$DIMUPT
 70
     0
  9
$DIMDEC
 70
     2
  9
$DIMTDEC
 70
     2
  9
$DIMALTU
 70
     2
  9
$DIMALTTD
 70
     2
  9
$DIMTXSTY
  7
Standard
  9
$DIMAUNIT
 70
     0
  9
$DIMADEC
 70
     0
  9
$DIMALTRND
 40
0.0
  9
$DIMAZIN
 70
     2
  9
$DIMDSEP
 70
    46
  9
$DIMATFIT
 70
     3
  9
$DIMFRAC
 70
     0
  9
$DIMLDRBLK
  1

  9
$DIMLUNIT
 70
     2
  9
$DIMLWD
 70
    -1
  9
$DIMLWE
 70
    -1
  9
$DIMTMOVE
 70
     0
  9
$DIMFXL
 40
1.0
  9
$DIMFXLON
 70
     0
  9
$DIMJOGANG
 40
0.7853981633974483
  9
$DIMTFILL
 70
     0
  9
$DIMTFILLCLR
 70
     0
  9
$DIMARCSYM
 70
     1
  9
$DIMLTYPE
  6
ByBlock
  9
$DIMLTEX1
  6
ByBlock
  9
$DIMLTEX2
  6
ByBlock
  9
$DIMTXTDIRECTION
 70
     0
  9
$LUNITS
 70
     2
  9
$LUPREC
 70
     4
  9
$SKETCHINC
 40
0.1
  9
$FILLETRAD
 40
0.5
  9
$AUNITS
 70
     0
  9
$AUPREC
 70
     0
  9
$MENU
  1
.
  9
$ELEVATION
 40
0.0
  9
$PELEVATION
 40
0.0
  9
$THICKNESS
 40
0.0
  9
$LIMCHECK
 70
     0
  9
$CHAMFERA
 40
0.5
  9
$CHAMFERB
 40
0.5
  9
$CHAMFERC
 40
1.0
  9
$CHAMFERD
 40
0.0
  9
$SKPOLY
 70
     0
  9
$TDCREATE
 40
2456520.525147616
  9
$TDUCREATE
 40
2456520.733480949
  9
$TDUPDATE
 40
2456791.593002917
  9
$TDUUPDATE
 40
2456791.801336250
  9
$TDINDWG
 40
0.0082366667
  9
$TDUSRTIMER
 40
0.0082365972
  9
$USRTIMER
 70
     1
  9
$ANGBASE
 50
0.0
  9
$ANGDIR
 70
     0
  9
$PDMODE
 70
     0
  9
$PDSIZE
 40
0.0
  9
$PLINEWID
 40
0.0
  9
$SPLFRAME
 70
     0
  9
$SPLINETYPE
 70
     6
  9
$SPLINESEGS
 70
     8
  9
$HANDSEED
  5
1585
  9
$SURFTAB1
 70
     6
  9
$SURFTAB2
 70
     6
  9
$SURFTYPE
 70
     6
  9
$SURFU
 70
     6
  9
$SURFV
 70
     6
  9
$UCSBASE
  2

  9
$UCSNAME
  2

  9
$UCSORG
 10
0.0
 20
0.0
 30
0.0
  9
$UCSXDIR
 10
1.0
 20
0.0
 30
0.0
  9
$UCSYDIR
 10
0.0
 20
1.0
 30
0.0
  9
$UCSORTHOREF
  2

  9
$UCSORTHOVIEW
 70
     0
  9
$UCSORGTOP
 10
0.0
 20
0.0
 30
0.0
  9
$UCSORGBOTTOM
 10
0.0
 20
0.0
 30
0.0
  9
$UCSORGLEFT
 10
0.0
 20
0.0
 30
0.0
  9
$UCSORGRIGHT
 10
0.0
 20
0.0
 30
0.0
  9
$UCSORGFRONT
 10
0.0
 20
0.0
 30
0.0
  9
$UCSORGBACK
 10
0.0
 20
0.0
 30
0.0
  9
$PUCSBASE
  2

  9
$PUCSNAME
  2

  9
$PUCSORG
 10
0.0
 20
0.0
 30
0.0
  9
$PUCSXDIR
 10
1.0
 20
0.0
 30
0.0
  9
$PUCSYDIR
 10
0.0
 20
1.0
 30
0.0
  9
$PUCSORTHOREF
  2

  9
$PUCSORTHOVIEW
 70
     0
  9
$PUCSORGTOP
 10
0.0
 20
0.0
 30
0.0
  9
$PUCSORGBOTTOM
 10
0.0
 20
0.0
 30
0.0
  9
$PUCSORGLEFT
 10
0.0
 20
0.0
 30
0.0
  9
$PUCSORGRIGHT
 10
0.0
 20
0.0
 30
0.0
  9
$PUCSORGFRONT
 10
0.0
 20
0.0
 30
0.0
  9
$PUCSORGBACK
 10
0.0
 20
0.0
 30
0.0
  9
$USERI1
 70
     0
  9
$USERI2
 70
     0
  9
$USERI3
 70
     0
  9
$USERI4
 70
     0
  9
$USERI5
 70
     0
  9
$USERR1
 40
0.0
  9
$USERR2
 40
0.0
  9
$USERR3
 40
0.0
  9
$USERR4
 40
0.0
  9
$USERR5
 40
0.0
  9
$WORLDVIEW
 70
     1
  9
$SHADEDGE
 70
     3
  9
$SHADEDIF
 70
    70
  9
$TILEMODE
 70
     0
  9
$MAXACTVP
 70
    64
  9
$PINSBASE
 10
0.0
 20
0.0
 30
0.0
  9
$PLIMCHECK
 70
     0
  9
$PEXTMIN
 10
-0.0198943027781198
 20
-0.0263761004692498
 30
-0.0000000000112498
  9
$PEXTMAX
 10
15.98112906941578
 20
9.974120379626974
 30
0.0000000000002956
  9
$PLIMMIN
 10
-0.2699182000122087
 20
-0.2769722290964413
  9
$PLIMMAX
 10
16.23115288981076
 20
12.47385534929694
  9
$UNITMODE
 70
     0
  9
$VISRETAIN
 70
     1
  9
$PLINEGEN
 70
     0
  9
$PSLTSCALE
 70
     1
  9
$TREEDEPTH
 70
  3020
  9
$CMLSTYLE
  2
Standard
  9
$CMLJUST
 70
     0
  9
$CMLSCALE
 40
1.0
  9
$PROXYGRAPHICS
 70
     1
  9
$MEASUREMENT
 70
     0
  9
$CELWEIGHT
370
    -1
  9
$ENDCAPS
280
     0
  9
$JOINSTYLE
280
     0
  9
$LWDISPLAY
290
     0
  9
$INSUNITS
 70
     1
  9
$HYPERLINKBASE
  1

  9
$STYLESHEET
  1

  9
$XEDIT
290
     1
  9
$CEPSNTYPE
380
     0
  9
$PSTYLEMODE
290
     1
  9
$FINGERPRINTGUID
  2
{9322BFC9-9B72-42FA-9E0E-A865586A42CA}
  9
$VERSIONGUID
  2
{F55499FA-0122-4B2A-B52C-197BBA0B213B}
  9
$EXTNAMES
290
     1
  9
$PSVPSCALE
 40
0.0
  9
$OLESTARTUP
290
     0
  9
$SORTENTS
280
   127
  9
$INDEXCTL
280
     0
  9
$HIDETEXT
280
     1
  9
$XCLIPFRAME
280
     0
  9
$HALOGAP
280
     0
  9
$OBSCOLOR
 70
   257
  9
$OBSLTYPE
280
     0
  9
$INTERSECTIONDISPLAY
280
     0
  9
$INTERSECTIONCOLOR
 70
   257
  9
$DIMASSOC
280
     2
  9
$PROJECTNAME
  1

  9
$CAMERADISPLAY
290
     0
  9
$LENSLENGTH
 40
50.0
  9
$CAMERAHEIGHT
 40
0.0
  9
$STEPSPERSEC
 40
2.0
  9
$STEPSIZE
 40
6.0
  9
$3DDWFPREC
 40
2.0
  9
$PSOLWIDTH
 40
0.25
  9
$PSOLHEIGHT
 40
4.0
  9
$LOFTANG1
 40
1.570796326794896
  9
$LOFTANG2
 40
1.570796326794896
  9
$LOFTMAG1
 40
0.0
  9
$LOFTMAG2
 40
0.0
  9
$LOFTPARAM
 70
     7
  9
$LOFTNORMALS
280
     1
  9
$LATITUDE
 40
37.795
  9
$LONGITUDE
 40
-122.394
  9
$NORTHDIRECTION
 40
0.0
  9
$TIMEZONE
 70
 -8000
  9
$LIGHTGLYPHDISPLAY
280
     1
  9
$TILEMODELIGHTSYNCH
280
     1
  9
$CMATERIAL
347
628
  9
$SOLIDHIST
280
     1
  9
$SHOWHIST
280
     1
  9
$DWFFRAME
280
     2
  9
$DGNFRAME
280
     0
  9
$REALWORLDSCALE
290
     1
  9
$INTERFERECOLOR
 62
     1
  9
$INTERFEREOBJVS
345
635
  9
$INTERFEREVPVS
346
632
  9
$CSHADOW
280
     0
  9
$SHADOWPLANELOCATION
 40
0.0
  0
ENDSEC
  0
SECTION
  2
CLASSES
  0
CLASS
  1
ACDBDICTIONARYWDFLT
  2
AcDbDictionaryWithDefault
  3
ObjectDBX Classes
 90
        0
 91
        1
280
     0
281
     0
  0
CLASS
  1
ACDBPLACEHOLDER
  2
AcDbPlaceHolder
  3
ObjectDBX Classes
 90
        0
 91
        1
280
     0
281
     0
  0
CLASS
  1
LAYOUT
  2
AcDbLayout
  3
ObjectDBX Classes
 90
        0
 91
        2
280
     0
281
     0
  0
CLASS
  1
PLOTSETTINGS
  2
AcDbPlotSettings
  3
ObjectDBX Classes
 90
        0
 91
        1
280
     0
281
     0
  0
CLASS
  1
DICTIONARYVAR
  2
AcDbDictionaryVar
  3
ObjectDBX Classes
 90
        0
 91
       11
280
     0
281
     0
  0
CLASS
  1
DIMASSOC
  2
AcDbDimAssoc
  3
"AcDbDimAssoc|Product Desc:     AcDim ARX App For Dimension|Company:          Autodesk, Inc.|WEB Address:      www.autodesk.com"
 90
        0
 91
        0
280
     0
281
     0
  0
CLASS
  1
MATERIAL
  2
AcDbMaterial
  3
ObjectDBX Classes
 90
     1153
 91
        3
280
     0
281
     0
  0
CLASS
  1
VISUALSTYLE
  2
AcDbVisualStyle
  3
ObjectDBX Classes
 90
     4095
 91
       26
280
     0
281
     0
  0
CLASS
  1
TABLESTYLE
  2
AcDbTableStyle
  3
ObjectDBX Classes
 90
     4095
 91
        1
280
     0
281
     0
  0
CLASS
  1
SORTENTSTABLE
  2
AcDbSortentsTable
  3
ObjectDBX Classes
 90
        0
 91
        1
280
     0
281
     0
  0
CLASS
  1
SCALE
  2
AcDbScale
  3
ObjectDBX Classes
 90
     1153
 91
       17
280
     0
281
     0
  0
CLASS
  1
MLEADERSTYLE
  2
AcDbMLeaderStyle
  3
ACDB_MLEADERSTYLE_CLASS
 90
     4095
 91
        1
280
     0
281
     0
  0
CLASS
  1
ACDBSECTIONVIEWSTYLE
  2
AcDbSectionViewStyle
  3
ObjectDBX Classes
 90
     1025
 91
        1
280
     0
281
     0
  0
CLASS
  1
ACDBDETAILVIEWSTYLE
  2
AcDbDetailViewStyle
  3
ObjectDBX Classes
 90
     1025
 91
        1
280
     0
281
     0
  0
CLASS
  1
ACME_DOCUMENT
  2
AcMeDbDoc
  3
AcMeServices
 90
     1024
 91
        0
280
     0
281
     0
  0
CLASS
  1
AMGSETTINGSOBJ
  2
AmgSettingsObj
  3
"AcadM|Product Description: AutoCAD Mechanical|Company: Autodesk, Inc."
 90
     1024
 91
        2
280
     0
281
     0
  0
CLASS
  1
ACMESCOPE
  2
AcMeScope
  3
AcMeServices
 90
     1024
 91
        1
280
     0
281
     0
  0
CLASS
  1
ACMECOMMANDHISTORY
  2
AcMeCommandHistory
  3
AcMeServices
 90
     1024
 91
        1
280
     0
281
     0
  0
CLASS
  1
ACIMSYSVARMAN
  2
AcImSysVarManager
  3
AcMeServices
 90
     1024
 91
        3
280
     0
281
     0
  0
CLASS
  1
ACIMINTSYSVAR
  2
AcImIntSysVar
  3
AcMeServices
 90
     1024
 91
        3
280
     0
281
     0
  0
CLASS
  1
ACMESTATEMGR
  2
AcMeStateMgr
  3
AcMeServices
 90
     1024
 91
        1
280
     0
281
     0
  0
CLASS
  1
ACDBENTITYCACHE
  2
AcMeEntityCache
  3
AcMeServices
 90
     1024
 91
        0
280
     0
281
     0
  0
CLASS
  1
ACGREFMASTER
  2
AcGrefMaster
  3
AcAttribServices
 90
     1024
 91
        1
280
     0
281
     0
  0
CLASS
  1
ACME_DATABASE
  2
AcMeDbDatabase
  3
AcMeServices
 90
     1024
 91
        0
280
     0
281
     0
  0
CLASS
  1
ACRFINSADJUSTERMGR
  2
AcRfInsAdjusterMgr
  3
AcMeServices
 90
     1024
 91
        0
280
     0
281
     0
  0
CLASS
  1
ACGREFACADMASTER
  2
AcGrefacadMaster
  3
AcGrefServices
 90
     1024
 91
        1
280
     0
281
     0
  0
CLASS
  1
AMDTMENUSTATEMGR
  2
AmdtMenuStateMgr
  3
McadcomServices
 90
     1024
 91
        0
280
     0
281
     0
  0
CLASS
  1
AMDTMCOMMENUSTATE
  2
AmdtMcomMenuState
  3
McadcomServices
 90
     1024
 91
        0
280
     0
281
     0
  0
CLASS
  1
AMIMASTER
  2
AmiMaster
  3
AmiServices
 90
     1024
 91
        1
280
     0
281
     0
  0
CLASS
  1
MAPIAMMOUDLE
  2
MApiAmModule
  3
MApiAmServices
 90
     1024
 91
        0
280
     0
281
     0
  0
CLASS
  1
ACIMSTRSYSVAR
  2
AcImStrSysVar
  3
AcMeServices
 90
     1024
 91
        5
280
     0
281
     0
  0
CLASS
  1
AMDTAMMENUSTATE
  2
AmdtAmMenuState
  3
DesignerAssemblies
 90
     1024
 91
        0
280
     0
281
     0
  0
CLASS
  1
ACAMPROJECT
  2
AcAmProject
  3
DesignerAssemblies
 90
     1024
 91
        1
280
     0
281
     0
  0
CLASS
  1
ACAMGRCOMPDEF
  2
AcAmGrCompDef
  3
DesignerAssemblies
 90
     1024
 91
        1
280
     0
281
     0
  0
CLASS
  1
ACAMCOMPDEF
  2
AcAmCompDef
  3
DesignerAssemblies
 90
     1024
 91
        1
280
     0
281
     0
  0
CLASS
  1
ACAMCOMPDEFMGR
  2
AcAmCompDefMgr
  3
DesignerAssemblies
 90
     1024
 91
        1
280
     0
281
     0
  0
CLASS
  1
AMCONTEXTMGR
  2
AcAmContextMgr
  3
DesignerAssemblies
 90
     1024
 91
        1
280
     0
281
     0
  0
CLASS
  1
ACAMCONTEXTMODELER
  2
AcAmContextModeler
  3
DesignerAssemblies
 90
     1024
 91
        1
280
     0
281
     0
  0
CLASS
  1
ACMDATADICTIONARY
  2
AcmDataDictionary
  3
"AcmSymBB|Product Description: AutoCAD Mechanical|Company: Autodesk, Inc."
 90
     1024
 91
        1
280
     0
281
     0
  0
CLASS
  1
ACMSTANDARDANSI
  2
AcmStandardANSI
  3
"Amdt_StdImp|Product Description: AutoCAD Mechanical|Company: Autodesk, Inc."
 90
     1024
 91
        1
280
     0
281
     0
  0
CLASS
  1
ACMSURFSTANDARDANSI
  2
AcmSurfTextStdANSI
  3
"Amdt_StdImp|Product Description: AutoCAD Mechanical|Company: Autodesk, Inc."
 90
     1024
 91
        1
280
     0
281
     0
  0
CLASS
  1
ACMFCFSTANDARDANSI
  2
AcmFCFStdANSI
  3
"Amdt_StdImp|Product Description: AutoCAD Mechanical|Company: Autodesk, Inc."
 90
     1024
 91
        1
280
     0
281
     0
  0
CLASS
  1
ACMWELDSTANDARDANSI
  2
AcmWeldingStdANSI
  3
"Amdt_StdImp|Product Description: AutoCAD Mechanical|Company: Autodesk, Inc."
 90
     1024
 91
        1
280
     0
281
     0
  0
CLASS
  1
ACMIDSTANDARDANSI
  2
AcmIdStdANSI
  3
"Amdt_StdImp|Product Description: AutoCAD Mechanical|Company: Autodesk, Inc."
 90
     1024
 91
        1
280
     0
281
     0
  0
CLASS
  1
ACMDATUMSTANDARDANSI
  2
AcmDatumStdANSI
  3
"Amdt_StdImp|Product Description: AutoCAD Mechanical|Company: Autodesk, Inc."
 90
     1024
 91
        1
280
     0
281
     0
  0
CLASS
  1
ACMBOMSTANDARDANSI
  2
AcmBOMStdANSI
  3
"Amdt_StdImp|Product Description: AutoCAD Mechanical|Company: Autodesk, Inc."
 90
     1024
 91
        1
280
     0
281
     0
  0
CLASS
  1
ACMDETAILSTANDARDANSI
  2
AmdtDetailSymStdANSI
  3
"Amdt_StdImp|Product Description: AutoCAD Mechanical|Company: Autodesk, Inc."
 90
     1024
 91
        1
280
     0
281
     0
  0
CLASS
  1
ACMSECTIONSTANDARDANSI
  2
AmdtSectionSymStdANSI
  3
"Amdt_StdImp|Product Description: AutoCAD Mechanical|Company: Autodesk, Inc."
 90
     1024
 91
        1
280
     0
281
     0
  0
CLASS
  1
ACMCENTERLINESTANDARDANSI
  2
AmdtCenterLineStdANSI
  3
"Amdt_StdImp|Product Description: AutoCAD Mechanical|Company: Autodesk, Inc."
 90
     1024
 91
        1
280
     0
281
     0
  0
CLASS
  1
ACMTHREADLINESTANDARDANSI
  2
AmdtThreadLineStdANSI
  3
"Amdt_StdImp|Product Description: AutoCAD Mechanical|Company: Autodesk, Inc."
 90
     1024
 91
        1
280
     0
281
     0
  0
CLASS
  1
ACMNOTESTANDARDANSI
  2
AmdtNoteStdANSI
  3
"Amdt_StdImp|Product Description: AutoCAD Mechanical|Company: Autodesk, Inc."
 90
     1024
 91
        1
280
     0
281
     0
  0
CLASS
  1
ACMTAPERSTANDARDANSI
  2
AcmTaperStdANSI
  3
"Amdt_StdImp|Product Description: AutoCAD Mechanical|Company: Autodesk, Inc."
 90
     1024
 91
        1
280
     0
281
     0
  0
CLASS
  1
ACMANOOTATIONVIEWSTANDARDANSI
  2
AmdtAnViewStdANSI
  3
"Amdt_StdImp|Product Description: AutoCAD Mechanical|Company: Autodesk, Inc."
 90
     1024
 91
        1
280
     0
281
     0
  0
CLASS
  1
ACAMGLAYSTD
  2
AcAmgLayStd
  3
"AmgLay|Product Description: AutoCAD Mechanical|Company: Autodesk, Inc."
 90
     1024
 91
        1
280
     0
281
     0
  0
CLASS
  1
ACAMGDIMSTD
  2
AcAmgDimStd
  3
"AmgDim|Product Description: AutoCAD Mechanical|Company: Autodesk, Inc."
 90
     1024
 91
        1
280
     0
281
     0
  0
CLASS
  1
AMGOBJPROPCFG
  2
AmgObjPropCfg
  3
"AmgLay|Product Description: AutoCAD Mechanical|Company: Autodesk, Inc."
 90
     1024
 91
        1
280
     0
281
     0
  0
CLASS
  1
ACAMGHOLECHARTSTDANSI
  2
AcAmgHoleChartStdANSI
  3
AmgDim|Product Description: AutoCAD Mechanical|Company: Autodesk, Inc.
 90
     1024
 91
        1
280
     0
281
     0
  0
CLASS
  1
ACAMGTITLESTD
  2
AcAmgTitleStd
  3
"AmgTitle|Product Description: AutoCAD Mechanical|Company: Autodesk, Inc."
 90
     1024
 91
        1
280
     0
281
     0
  0
CLASS
  1
AMDTNOTETEMPLATEDB
  2
AmdtNoteTemplateDB
  3
AcmSymBB|Product Description: AutoCAD Mechanical|Company: Autodesk, Inc.
 90
     1024
 91
        6
280
     0
281
     0
  0
CLASS
  1
ACAMGRCOMPDEFSET
  2
AcAmGrCompDefSet
  3
DesignerAssemblies
 90
     1024
 91
        0
280
     0
281
     0
  0
CLASS
  1
AMDTBROWSERDBTAB
  2
AmdtBrowserDbTab
  3
McadcomServices
 90
     1024
 91
        0
280
     0
281
     0
  0
CLASS
  1
CBROWSERAPPOBJECT
  2
CBrowserAppObject
  3
McadcomServices
 90
     1024
 91
        0
280
     0
281
     0
  0
CLASS
  1
DM_PLACEHOLDER
  2
AcDmSelsetPlaceholder
  3
McadcomServices
 90
     1024
 91
        0
280
     0
281
     0
  0
CLASS
  1
EXACXREFPANELOBJECT
  2
ExAcXREFPanelObject
  3
EXAC_ESW
 90
     1025
 91
        1
280
     0
281
     0
  0
CLASS
  1
NPOCOLLECTION
  2
AcDbImpNonPersistentObjectsCollection
  3
ObjectDBX Classes
 90
     1153
 91
        1
280
     0
281
     0
  0
CLASS
  1
ACAMGFILTERDAT
  2
AcAmgFilterDat
  3
"AcadM|Product Description: AutoCAD Mechanical|Company: Autodesk, Inc."
 90
     1024
 91
        6
280
     0
281
     0
  0
CLASS
  1
ACDBLINERES
  2
AcDbLineRes
  3
AcGrefServices
 90
     1024
 91
        0
280
     0
281
     0
  0
CLASS
  1
AMDTNOTE
  2
AmdtNote
  3
"AcmSymBB|Product Description: AutoCAD Mechanical|Company: Autodesk, Inc."
 90
     1024
 91
        1
280
     0
281
     1
  0
CLASS
  1
AMDTFORMULAUPDATEDISPATCHER
  2
AmdtFormulaUpdateDispatcher
  3
AcMeServices
 90
     1024
 91
        0
280
     0
281
     0
  0
CLASS
  1
CAMSSTRUCTBTNSTATE
  2
StructBtnState
  3
DesignerAssemblies
 90
     1024
 91
        1
280
     0
281
     0
  0
CLASS
  1
CELLSTYLEMAP
  2
AcDbCellStyleMap
  3
ObjectDBX Classes
 90
     1152
 91
        2
280
     0
281
     0
  0
ENDSEC
  0
SECTION
  2
TABLES
  0
TABLE
  2
VPORT
  5
8
330
0
100
AcDbSymbolTable
 70
     1
  0
VPORT
  5
613
330
8
100
AcDbSymbolTableRecord
100
AcDbViewportTableRecord
  2
*Active
 70
     0
 10
0.0
 20
0.0
 11
1.0
 21
1.0
 12
5.478994462029852
 22
8.849407616959467
 13
0.0
 23
0.0
 14
0.5
 24
0.5
 15
0.5
 25
0.5
 16
0.0
 26
0.0
 36
1.0
 17
0.0
 27
0.0
 37
0.0
 40
27.35430530698454
 41
1.895768833849329
 42
50.0
 43
0.0
 44
0.0
 50
0.0
 51
0.0
 71
     0
 72
   100
 73
     1
 74
     2
 75
     0
 76
     0
 77
     0
 78
     0
281
     0
 65
     1
110
0.0
120
0.0
130
0.0
111
1.0
121
0.0
131
0.0
112
0.0
122
1.0
132
0.0
 79
     0
146
0.0
348
631
 60
     3
 61
     5
292
     1
282
     1
141
0.0
142
0.0
 63
   250
421
  3355443
1001
ACAD_NAV_VCDISPLAY
1070
     3
  0
ENDTAB
  0
TABLE
  2
LTYPE
  5
5
330
0
100
AcDbSymbolTable
 70
     8
  0
LTYPE
  5
14
330
5
100
AcDbSymbolTableRecord
100
AcDbLinetypeTableRecord
  2
ByBlock
 70
     0
  3

 72
    65
 73
     0
 40
0.0
  0
LTYPE
  5
15
330
5
100
AcDbSymbolTableRecord
100
AcDbLinetypeTableRecord
  2
ByLayer
 70
     0
  3

 72
    65
 73
     0
 40
0.0
  0
LTYPE
  5
16
330
5
100
AcDbSymbolTableRecord
100
AcDbLinetypeTableRecord
  2
Continuous
 70
     0
  3
Solid line
 72
    65
 73
     0
 40
0.0
  0
LTYPE
  5
570
330
5
100
AcDbSymbolTableRecord
100
AcDbLinetypeTableRecord
  2
CENTER
 70
     0
  3
Center ____ _ ____ _ ____ _ ____ _ ____ _ ____
 72
    65
 73
     4
 40
2.0
 49
1.25
 74
     0
 49
-0.25
 74
     0
 49
0.25
 74
     0
 49
-0.25
 74
     0
  0
LTYPE
  5
571
330
5
100
AcDbSymbolTableRecord
100
AcDbLinetypeTableRecord
  2
HIDDEN
 70
     0
  3
Hidden __ __ __ __ __ __ __ __ __ __ __ __ __ _
 72
    65
 73
     2
 40
0.375
 49
0.25
 74
     0
 49
-0.125
 74
     0
  0
LTYPE
  5
11B8
330
5
100
AcDbSymbolTableRecord
100
AcDbLinetypeTableRecord
  2
PHANTOM2
 70
     0
  3
Phantom (.5x) ___ _ _ ___ _ _ ___ _ _ ___ _ _
 72
    65
 73
     6
 40
1.25
 49
0.625
 74
     0
 49
-0.125
 74
     0
 49
0.125
 74
     0
 49
-0.125
 74
     0
 49
0.125
 74
     0
 49
-0.125
 74
     0
  0
LTYPE
  5
1205
330
5
100
AcDbSymbolTableRecord
100
AcDbLinetypeTableRecord
  2
CENTER2
 70
     0
  3
Center (.5x) ___ _ ___ _ ___ _ ___ _ ___ _ ___
 72
    65
 73
     4
 40
1.125
 49
0.75
 74
     0
 49
-0.125
 74
     0
 49
0.125
 74
     0
 49
-0.125
 74
     0
  0
LTYPE
  5
1206
330
5
100
AcDbSymbolTableRecord
100
AcDbLinetypeTableRecord
  2
HIDDEN2
 70
     0
  3
Hidden (.5x) _ _ _ _ _ _ _ _ _ _ _ _ _ _ _ _ _
 72
    65
 73
     2
 40
0.1875
 49
0.125
 74
     0
 49
-0.0625
 74
     0
  0
LTYPE
  5
1214
330
5
100
AcDbSymbolTableRecord
100
AcDbLinetypeTableRecord
  2
ACANSTGB
 70
     0
  3
__ . . __ . .
 72
    65
 73
     6
 40
0.35433070866
 49
0.15748031496
 74
     0
 49
-0.03937007874
 74
     0
 49
0.03937007874
 74
     0
 49
-0.03937007874
 74
     0
 49
0.03937007874
 74
     0
 49
-0.03937007874
 74
     0
  0
LTYPE
  5
1215
330
5
100
AcDbSymbolTableRecord
100
AcDbLinetypeTableRecord
  2
ACANSTGL
 70
     0
  3
_ _ _ _ _
 72
    65
 73
     2
 40
0.11811023622
 49
0.07874015748
 74
     0
 49
-0.03937007874
 74
     0
  0
ENDTAB
  0
TABLE
  2
LAYER
  5
2
102
{ACAD_XDICTIONARY
360
65A
102
}
330
0
100
AcDbSymbolTable
 70
     7
  0
LAYER
  5
10
102
{ACAD_XDICTIONARY
360
14A9
102
}
330
2
100
AcDbSymbolTableRecord
100
AcDbLayerTableRecord
  2
0
 70
     0
 62
     7
  6
Continuous
370
    30
390
F
347
62A
348
0
  0
LAYER
  5
274
102
{ACAD_XDICTIONARY
360
14AB
102
}
330
2
100
AcDbSymbolTableRecord
100
AcDbLayerTableRecord
  2
BORDER
 70
     0
 62
     7
  6
Continuous
370
    30
390
F
347
62A
348
0
  0
LAYER
  5
573
102
{ACAD_XDICTIONARY
360
14AD
102
}
330
2
100
AcDbSymbolTableRecord
100
AcDbLayerTableRecord
  2
VIEWPORT
 70
     0
 62
    -7
  6
Continuous
290
     0
370
    30
390
F
347
62A
348
0
  0
LAYER
  5
57D
330
2
100
AcDbSymbolTableRecord
100
AcDbLayerTableRecord
  2
Defpoints
 70
     0
 62
     7
  6
Continuous
290
     0
370
    30
390
F
347
62A
348
0
  0
LAYER
  5
125A
102
{ACAD_XDICTIONARY
360
14AF
102
}
330
2
100
AcDbSymbolTableRecord
100
AcDbLayerTableRecord
  2
Dimension (ANSI)
 70
     0
 62
     7
  6
Continuous
370
    30
390
F
347
62A
348
0
  0
LAYER
  5
125B
102
{ACAD_XDICTIONARY
360
14B1
102
}
330
2
100
AcDbSymbolTableRecord
100
AcDbLayerTableRecord
  2
Symbol (ANSI)
 70
     0
 62
     7
  6
Continuous
370
    30
390
F
347
62A
348
0
  0
LAYER
  5
13FB
102
{ACAD_XDICTIONARY
360
14B3
102
}
330
2
100
AcDbSymbolTableRecord
100
AcDbLayerTableRecord
  2
AM_5
 70
     0
 62
     7
  6
Continuous
370
    30
390
F
347
62A
348
0
1001
AcAecLayerStandard
1000

1000

  0
ENDTAB
  0
TABLE
  2
STYLE
  5
3
330
0
100
AcDbSymbolTable
 70
     3
  0
STYLE
  5
11
330
3
100
AcDbSymbolTableRecord
100
AcDbTextStyleTableRecord
  2
Standard
 70
     0
 40
0.0
 41
1.0
 50
0.0
 71
     0
 42
0.2
  3
txt
  4

  0
STYLE
  5
1213
330
3
100
AcDbSymbolTableRecord
100
AcDbTextStyleTableRecord
  2
ACANSGDT
 70
     0
 40
0.0
 41
1.0
 50
0.0
 71
     0
 42
0.2
  3
amgdt.shx
  4

  0
STYLE
  5
125C
330
3
100
AcDbSymbolTableRecord
100
AcDbTextStyleTableRecord
  2
Note Text (ANSI)
 70
     0
 40
0.0
 41
1.0
 50
0.0
 71
     0
 42
0.2
  3
tahoma.ttf
  4

1001
ACAD
1000
Tahoma
1071
      256
  0
ENDTAB
  0
TABLE
  2
VIEW
  5
6
330
0
100
AcDbSymbolTable
 70
     1
  0
ENDTAB
  0
TABLE
  2
UCS
  5
7
330
0
100
AcDbSymbolTable
 70
     0
  0
ENDTAB
  0
TABLE
  2
APPID
  5
9
330
0
100
AcDbSymbolTable
 70
    21
  0
APPID
  5
12
330
9
100
AcDbSymbolTableRecord
100
AcDbRegAppTableRecord
  2
ACAD
 70
     0
  0
APPID
  5
277
330
9
100
AcDbSymbolTableRecord
100
AcDbRegAppTableRecord
  2
MASTER_SIZING
 70
     0
  0
APPID
  5
278
330
9
100
AcDbSymbolTableRecord
100
AcDbRegAppTableRecord
  2
PAPERSPACE
 70
     0
  0
APPID
  5
47E
330
9
100
AcDbSymbolTableRecord
100
AcDbRegAppTableRecord
  2
MASTER-TITLE
 70
     0
  0
APPID
  5
5A1
330
9
100
AcDbSymbolTableRecord
100
AcDbRegAppTableRecord
  2
ACAD_DIMASSOC_CALC_DIMLFAC
 70
     0
  0
APPID
  5
5A2
330
9
100
AcDbSymbolTableRecord
100
AcDbRegAppTableRecord
  2
ACAD_DIMASSOC_DIMLFAC
 70
     0
  0
APPID
  5
5A3
330
9
100
AcDbSymbolTableRecord
100
AcDbRegAppTableRecord
  2
ACAD_DIMASSOC_OVERRIDDEN_DIMLFAC
 70
     0
  0
APPID
  5
1182
330
9
100
AcDbSymbolTableRecord
100
AcDbRegAppTableRecord
  2
AcAecLayerStandard
 70
     0
  0
APPID
  5
11CA
330
9
100
AcDbSymbolTableRecord
100
AcDbRegAppTableRecord
  2
MCAD_NO_VIS
 70
     0
  0
APPID
  5
11CB
330
9
100
AcDbSymbolTableRecord
100
AcDbRegAppTableRecord
  2
ACAD_TEMP_GRAPHIC
 70
     0
  0
APPID
  5
11D5
330
9
100
AcDbSymbolTableRecord
100
AcDbRegAppTableRecord
  2
ACATTRIBSERVICES
 70
     0
  0
APPID
  5
11ED
330
9
100
AcDbSymbolTableRecord
100
AcDbRegAppTableRecord
  2
DESIGNERASSEMBLIES
 70
     0
  0
APPID
  5
1202
330
9
100
AcDbSymbolTableRecord
100
AcDbRegAppTableRecord
  2
ACAD_DSTYLE_DIMJAG
 70
     0
  0
APPID
  5
1203
330
9
100
AcDbSymbolTableRecord
100
AcDbRegAppTableRecord
  2
ACAD_DSTYLE_DIMBREAK
 70
     0
  0
APPID
  5
125E
330
9
100
AcDbSymbolTableRecord
100
AcDbRegAppTableRecord
  2
ACAD_NAV_VCDISPLAY
 70
     0
  0
APPID
  5
125F
330
9
100
AcDbSymbolTableRecord
100
AcDbRegAppTableRecord
  2
ACAD_PSEXT
 70
     0
  0
APPID
  5
13D9
330
9
100
AcDbSymbolTableRecord
100
AcDbRegAppTableRecord
  2
ACAD_DSTYLE_DIMTALN
 70
     0
  0
APPID
  5
1401
330
9
100
AcDbSymbolTableRecord
100
AcDbRegAppTableRecord
  2
ACAD_EXEMPT_FROM_CAD_STANDARDS
 70
     0
  0
APPID
  5
140F
330
9
100
AcDbSymbolTableRecord
100
AcDbRegAppTableRecord
  2
GENIUS_GENSCREG_15
 70
     0
  0
APPID
  5
1410
330
9
100
AcDbSymbolTableRecord
100
AcDbRegAppTableRecord
  2
GENIUS_GENODEF_13
 70
     0
  0
APPID
  5
1411
330
9
100
AcDbSymbolTableRecord
100
AcDbRegAppTableRecord
  2
GENIUS_GENOBJ-N-SDF_13
 70
     0
  0
ENDTAB
  0
TABLE
  2
DIMSTYLE
  5
A
330
0
100
AcDbSymbolTable
 70
     7
100
AcDbDimStyleTable
 71
     2
340
1201
340
27
  0
DIMSTYLE
105
27
330
A
100
AcDbSymbolTableRecord
100
AcDbDimStyleTableRecord
  2
Standard
 70
     0
 78
     4
 79
     1
271
     2
272
     2
340
11
  0
DIMSTYLE
105
1201
102
{ACAD_REACTORS
330
11F1
330
133E
330
133D
330
133C
102
}
330
A
100
AcDbSymbolTableRecord
100
AcDbDimStyleTableRecord
  2
AM_ANSI
 70
     0
  4
mm
 41
0.12
 42
0.05
 43
0.5
 44
0.1
 47
0.1
 48
0.1
 78
     7
 79
     2
 90
     1
140
0.12
141
0.0
146
0.71
147
0.06
176
   256
177
   256
178
   140
274
     4
284
     7
340
11
345
14
346
14
347
14
371
    -1
372
    -1
1001
ACAD_DSTYLE_DIMJAG
1070
   388
1040
1.5
1001
ACAD_DSTYLE_DIMBREAK
1070
   391
1040
0.125
  0
DIMSTYLE
105
1207
330
A
100
AcDbSymbolTableRecord
100
AcDbDimStyleTableRecord
  2
AM_ANSI$3
 70
     0
  4
mm
 41
0.12
 42
0.05
 43
0.5
 44
0.1
 47
0.1
 48
0.1
 78
     7
 79
     2
 90
     1
140
0.12
141
0.0
146
0.71
147
0.06
176
   256
177
   256
178
   140
274
     4
284
     7
288
     1
289
     0
340
11
345
14
346
14
347
14
371
    -1
372
    -1
1001
ACAD_DSTYLE_DIMBREAK
1070
   391
1040
0.125
1001
ACAD_DSTYLE_DIMJAG
1070
   388
1040
1.5
  0
DIMSTYLE
105
1208
330
A
100
AcDbSymbolTableRecord
100
AcDbDimStyleTableRecord
  2
AM_ANSI$4
 70
     0
  4
mm
 41
0.12
 42
0.05
 43
0.5
 44
0.1
 47
0.1
 48
0.1
 78
     7
 79
     2
 90
     1
140
0.12
141
0.0
146
0.71
147
0.06
176
   256
177
   256
178
   140
274
     4
284
     7
288
     1
289
     0
340
11
345
14
346
14
347
14
371
    -1
372
    -1
1001
ACAD_DSTYLE_DIMBREAK
1070
   391
1040
0.125
1001
ACAD_DSTYLE_DIMJAG
1070
   388
1040
1.5
  0
DIMSTYLE
105
1209
330
A
100
AcDbSymbolTableRecord
100
AcDbDimStyleTableRecord
  2
AM_ANSI$7
 70
     0
  4
mm
 41
0.12
 42
0.05
 43
0.5
 44
0.1
 47
0.1
 48
0.1
 78
     7
 79
     2
 90
     1
140
0.12
141
0.0
146
0.71
147
0.06
176
   256
177
   256
178
   140
274
     4
284
     7
340
11
345
14
346
14
347
14
371
    -1
372
    -1
1001
ACAD_DSTYLE_DIMBREAK
1070
   391
1040
0.125
1001
ACAD_DSTYLE_DIMJAG
1070
   388
1040
1.5
  0
DIMSTYLE
105
120A
330
A
100
AcDbSymbolTableRecord
100
AcDbDimStyleTableRecord
  2
AM_ANSI$SF
 70
     0
  4
mm
 41
0.12
 42
0.05
 43
0.5
 44
0.1
 47
0.1
 48
0.1
 75
     1
 76
     1
 78
     7
 79
     2
 90
     1
140
0.12
141
0.0
146
0.71
147
0.06
176
   256
177
   256
178
   140
274
     4
284
     7
340
11
345
14
346
14
347
14
371
    -1
372
    -1
1001
ACAD_DSTYLE_DIMBREAK
1070
   391
1040
0.125
1001
ACAD_DSTYLE_DIMJAG
1070
   388
1040
1.5
  0
DIMSTYLE
105
120F
330
A
100
AcDbSymbolTableRecord
100
AcDbDimStyleTableRecord
  2
AM_ANSI$SH
 70
     0
  4
mm
 41
0.12
 42
0.05
 43
0.5
 44
0.1
 47
0.1
 48
0.1
 75
     1
 76
     1
 78
     7
 79
     2
 90
     1
140
0.12
141
0.0
146
0.71
147
0.06
173
     1
176
   256
177
   256
178
   140
274
     4
284
     7
340
11
343
120B
345
14
346
14
347
14
371
    -1
372
    -1
1001
ACAD_DSTYLE_DIMBREAK
1070
   391
1040
0.125
1001
ACAD_DSTYLE_DIMJAG
1070
   388
1040
1.5
  0
ENDTAB
  0
TABLE
  2
BLOCK_RECORD
  5
1
330
0
100
AcDbSymbolTable
 70
     7
  0
BLOCK_RECORD
  5
1F
330
1
100
AcDbSymbolTableRecord
100
AcDbBlockTableRecord
  2
*Model_Space
340
22
 70
     0
280
     1
281
     0
  0
BLOCK_RECORD
  5
1B
102
{ACAD_XDICTIONARY
360
B46
102
}
330
1
100
AcDbSymbolTableRecord
100
AcDbBlockTableRecord
  2
*Paper_Space
340
1E
 70
     0
280
     1
281
     0
  0
BLOCK_RECORD
  5
52A
330
1
100
AcDbSymbolTableRecord
100
AcDbBlockTableRecord
  2
REVISE12
340
0
102
{BLKREFS
331
1042
331
1048
331
104E
331
1054
331
105A
331
1060
331
114B
331
1151
331
1157
331
115D
331
1163
331
1169
102
}
 70
     0
280
     1
281
     0
  0
BLOCK_RECORD
  5
1017
330
1
100
AcDbSymbolTableRecord
100
AcDbBlockTableRecord
  2
A$C04876F98
340
0
102
{BLKREFS
331
1128
102
}
 70
     1
280
     1
281
     0
  0
BLOCK_RECORD
  5
11E5
330
1
100
AcDbSymbolTableRecord
100
AcDbBlockTableRecord
  2
*U2
340
0
 70
     0
280
     1
281
     0
  0
BLOCK_RECORD
  5
120B
330
1
100
AcDbSymbolTableRecord
100
AcDbBlockTableRecord
  2
GENAXEH
340
0
 70
     0
280
     1
281
     0
  0
BLOCK_RECORD
  5
1358
330
1
100
AcDbSymbolTableRecord
100
AcDbBlockTableRecord
  2
*D4
340
0
 70
     0
280
     1
281
     0
  0
BLOCK_RECORD
  5
1365
330
1
100
AcDbSymbolTableRecord
100
AcDbBlockTableRecord
  2
*D5
340
0
 70
     0
280
     1
281
     0
  0
BLOCK_RECORD
  5
1372
330
1
100
AcDbSymbolTableRecord
100
AcDbBlockTableRecord
  2
*D6
340
0
 70
     0
280
     1
281
     0
  0
ENDTAB
  0
ENDSEC
  0
SECTION
  2
BLOCKS
  0
BLOCK
  5
20
330
1F
100
AcDbEntity
  8
0
100
AcDbBlockBegin
  2
*Model_Space
 70
     0
 10
0.0
 20
0.0
 30
0.0
  3
*Model_Space
  1

  0
ENDBLK
  5
21
330
1F
100
AcDbEntity
  8
0
100
AcDbBlockEnd
  0
BLOCK
  5
1C
330
1B
100
AcDbEntity
 67
     1
  8
0
100
AcDbBlockBegin
  2
*Paper_Space
 70
     0
 10
0.0
 20
0.0
 30
0.0
  3
*Paper_Space
  1

  0
ENDBLK
  5
1D
330
1B
100
AcDbEntity
 67
     1
  8
0
100
AcDbBlockEnd
  0
BLOCK
  5
533
330
52A
100
AcDbEntity
  8
0
100
AcDbBlockBegin
  2
REVISE12
 70
     2
 10
0.0
 20
0.0
 30
0.0
  3
REVISE12
  1

  0
ATTDEF
  5
52B
330
52A
100
AcDbEntity
  8
0
100
AcDbText
 10
0.03125
 20
0.0625000000000009
 30
0.0
 40
0.125
  1

 41
0.9
 72
     5
 11
0.21875
 21
0.0625000000000009
 31
0.0
100
AcDbAttributeDefinition
280
     0
  3
REVISION NO.
  2
NO
 70
     8
280
     0
  0
ATTDEF
  5
52C
330
52A
100
AcDbEntity
  8
0
100
AcDbText
 10
0.3125
 20
0.0625000000000009
 30
0.0
 40
0.125
  1

100
AcDbAttributeDefinition
280
     0
  3
REVISION
  2
REV
 70
     8
280
     0
  0
ATTDEF
  5
52D
330
52A
100
AcDbEntity
  8
0
100
AcDbText
 10
2.8125
 20
0.0625000000000009
 30
0.0
 40
0.125
  1

 41
1.125
 72
     5
 11
3.46875
 21
0.0625000000000009
 31
0.0
100
AcDbAttributeDefinition
280
     0
  3
REVISION DATE
  2
RDATE
 70
     8
280
     0
  0
ATTDEF
  5
52E
330
52A
100
AcDbEntity
  8
0
100
AcDbText
 10
3.53125
 20
0.0625000000000009
 30
0.0
 40
0.125
  1

100
AcDbAttributeDefinition
280
     0
  3
REVISION BY
  2
BY
 70
     8
280
     0
  0
LINE
  5
52F
330
52A
100
AcDbEntity
  8
0
100
AcDbLine
 10
0.0
 20
0.0
 30
0.0
 11
0.0
 21
0.2500000000000009
 31
0.0
  0
LINE
  5
530
330
52A
100
AcDbEntity
  8
0
100
AcDbLine
 10
0.25
 20
0.2500000000000009
 30
0.0
 11
0.25
 21
0.0000000000000009
 31
0.0
  0
LINE
  5
531
330
52A
100
AcDbEntity
  8
0
100
AcDbLine
 10
2.75
 20
0.2500000000000009
 30
0.0
 11
2.75
 21
0.0000000000000009
 31
0.0
  0
LINE
  5
532
330
52A
100
AcDbEntity
  8
0
100
AcDbLine
 10
3.5
 20
0.2500000000000009
 30
0.0
 11
3.5
 21
0.0000000000000009
 31
0.0
  0
ENDBLK
  5
534
330
52A
100
AcDbEntity
  8
0
100
AcDbBlockEnd
  0
BLOCK
  5
107A
330
1017
100
AcDbEntity
  8
0
 62
     7
100
AcDbBlockBegin
  2
A$C04876F98
 70
     2
 10
0.0
 20
0.0
 30
0.0
  3
A$C04876F98
  1

  0
LINE
  5
1018
330
1017
100
AcDbEntity
  8
0
100
AcDbLine
 10
8.7499999810043
 20
1.749999994680436
 30
0.0
 11
-0.0000000189956992
 21
1.749999994680436
 31
0.0
  0
LINE
  5
1019
330
1017
100
AcDbEntity
  8
0
100
AcDbLine
 10
-0.0000000189956992
 20
-0.0000000053195635
 30
0.0
 11
-0.0000000189956992
 21
1.749999994680436
 31
0.0
  0
LINE
  5
101A
330
1017
100
AcDbEntity
  8
0
100
AcDbLine
 10
4.9999999810043
 20
-0.0000000053195635
 30
0.0
 11
4.9999999810043
 21
1.749999994680436
 31
0.0
  0
LINE
  5
101B
330
1017
100
AcDbEntity
  8
0
100
AcDbLine
 10
3.9999999810043
 20
-0.0000000053195635
 30
0.0
 11
3.9999999810043
 21
1.749999994680436
 31
0.0
  0
LINE
  5
101C
330
1017
100
AcDbEntity
  8
0
100
AcDbLine
 10
8.7499999810043
 20
1.249999994680436
 30
0.0
 11
4.9999999810043
 21
1.249999994680436
 31
0.0
  0
LINE
  5
101D
330
1017
100
AcDbEntity
  8
0
100
AcDbLine
 10
8.7499999810043
 20
0.4999999946804366
 30
0.0
 11
4.9999999810043
 21
0.4999999946804366
 31
0.0
  0
LINE
  5
101E
330
1017
100
AcDbEntity
  8
0
100
AcDbLine
 10
6.9999999810043
 20
0.2499999946804365
 30
0.0
 11
4.9999999810043
 21
0.2499999946804365
 31
0.0
  0
LINE
  5
101F
330
1017
100
AcDbEntity
  8
0
100
AcDbLine
 10
5.9999999810043
 20
-0.0000000053195635
 30
0.0
 11
5.9999999810043
 21
0.4999999946804366
 31
0.0
  0
LINE
  5
1020
330
1017
100
AcDbEntity
  8
0
100
AcDbLine
 10
6.9999999810043
 20
-0.0000000053195635
 30
0.0
 11
6.9999999810043
 21
0.4999999946804366
 31
0.0
  0
LINE
  5
1021
330
1017
100
AcDbEntity
  8
0
100
AcDbLine
 10
-0.0000000189956992
 20
0.2499999946804365
 30
0.0
 11
3.9999999810043
 21
0.2499999946804365
 31
0.0
  0
LINE
  5
1022
330
1017
100
AcDbEntity
  8
0
100
AcDbLine
 10
-0.0000000189956992
 20
0.4999999946804366
 30
0.0
 11
3.9999999810043
 21
0.4999999946804366
 31
0.0
  0
LINE
  5
1023
330
1017
100
AcDbEntity
  8
0
100
AcDbLine
 10
-0.0000000189956992
 20
0.7499999946804366
 30
0.0
 11
3.9999999810043
 21
0.7499999946804366
 31
0.0
  0
LINE
  5
1024
330
1017
100
AcDbEntity
  8
0
100
AcDbLine
 10
-0.0000000189956992
 20
0.9999999946804365
 30
0.0
 11
3.9999999810043
 21
0.9999999946804365
 31
0.0
  0
LINE
  5
1025
330
1017
100
AcDbEntity
  8
0
100
AcDbLine
 10
-0.0000000189956992
 20
1.249999994680436
 30
0.0
 11
3.9999999810043
 21
1.249999994680436
 31
0.0
  0
LINE
  5
1026
330
1017
100
AcDbEntity
  8
0
100
AcDbLine
 10
-0.0000000189956992
 20
1.499999994680436
 30
0.0
 11
3.9999999810043
 21
1.499999994680436
 31
0.0
  0
LINE
  5
1027
330
1017
100
AcDbEntity
  8
0
100
AcDbLine
 10
0.2499999810043008
 20
-0.0000000053195635
 30
0.0
 11
0.2499999810043008
 21
0.2499999946804365
 31
0.0
  0
LINE
  5
1028
330
1017
100
AcDbEntity
  8
0
100
AcDbLine
 10
3.4999999810043
 20
-0.0000000053195635
 30
0.0
 11
3.4999999810043
 21
0.2499999946804365
 31
0.0
  0
LINE
  5
1029
330
1017
100
AcDbEntity
  8
0
100
AcDbLine
 10
2.7499999810043
 20
-0.0000000053195635
 30
0.0
 11
2.7499999810043
 21
0.2499999946804365
 31
0.0
  0
TEXT
  5
102A
330
1017
100
AcDbEntity
  8
0
100
AcDbText
 10
6.6874999810043
 20
1.499999994680436
 30
0.0
 40
0.125
  1
7878 N. 86th STREET
 41
0.8
100
AcDbText
  0
TEXT
  5
102B
330
1017
100
AcDbEntity
  8
0
100
AcDbText
 10
6.6874999810043
 20
1.312499994680436
 30
0.0
 40
0.125
  1
MILWAUKEE, WI 53224
 41
0.8
100
AcDbText
  0
TEXT
  5
102C
330
1017
100
AcDbEntity
  8
0
100
AcDbText
 10
5.0312499810043
 20
0.4062499946804366
 30
0.0
 40
0.0625
  1
DRN. BY
 41
0.8
100
AcDbText
  0
TEXT
  5
102D
330
1017
100
AcDbEntity
  8
0
100
AcDbText
 10
6.0312499810043
 20
0.4062499946804366
 30
0.0
 40
0.0625
  1
DATE
 41
0.8
100
AcDbText
  0
TEXT
  5
102E
330
1017
100
AcDbEntity
  8
0
100
AcDbText
 10
7.0312499810043
 20
0.4062499946804366
 30
0.0
 40
0.0625
  1
DWG. NO.
 41
0.8
100
AcDbText
  0
TEXT
  5
102F
330
1017
100
AcDbEntity
  8
0
100
AcDbText
 10
6.0312499810043
 20
0.1562499946804365
 30
0.0
 40
0.0625
  1
APRVD.
 41
0.8
100
AcDbText
  0
TEXT
  5
1030
330
1017
100
AcDbEntity
  8
0
100
AcDbText
 10
5.0312499810043
 20
0.1562499946804365
 30
0.0
 40
0.0625
  1
SCALE
 41
0.8
100
AcDbText
  0
TEXT
  5
1031
330
1017
100
AcDbEntity
  8
0
100
AcDbText
 10
4.1562499810043
 20
1.624999994680436
 30
0.0
 40
0.09
  1
TOLERANCES
 41
0.8
100
AcDbText
  0
TEXT
  5
1032
330
1017
100
AcDbEntity
  8
0
100
AcDbText
 10
4.0312499810043
 20
1.374999994680436
 30
0.0
 40
0.0625
  1
DECIMAL
 41
0.8
100
AcDbText
  0
TEXT
  5
1033
330
1017
100
AcDbEntity
  8
0
100
AcDbText
 10
4.0312499810043
 20
0.6562499946804366
 30
0.0
 40
0.0625
  1
FRACTIONAL
 41
0.8
100
AcDbText
  0
TEXT
  5
1034
330
1017
100
AcDbEntity
  8
0
100
AcDbText
 10
4.0312499810043
 20
0.2812499946804365
 30
0.0
 40
0.0625
  1
ANGULAR
 41
0.8
100
AcDbText
  0
LINE
  5
1035
330
1017
100
AcDbEntity
  8
0
100
AcDbLine
 10
3.9999999810043
 20
1.468749994680436
 30
0.0
 11
4.9999999810043
 21
1.468749994680436
 31
0.0
  0
TEXT
  5
1036
330
1017
100
AcDbEntity
  8
0
100
AcDbText
 10
4.1249999810043
 20
1.499999994680436
 30
0.0
 40
0.0625
  1
(EXCEPT AS NOTED)
 41
0.8
100
AcDbText
  0
LINE
  5
1037
330
1017
100
AcDbEntity
  8
0
100
AcDbLine
 10
3.9999999810043
 20
0.3749999946804365
 30
0.0
 11
4.9999999810043
 21
0.3749999946804365
 31
0.0
  0
LINE
  5
1038
330
1017
100
AcDbEntity
  8
0
100
AcDbLine
 10
3.9999999810043
 20
0.7499999946804366
 30
0.0
 11
4.9999999810043
 21
0.7499999946804366
 31
0.0
  0
TEXT
  5
1039
330
1017
100
AcDbEntity
  8
0
100
AcDbText
 10
4.0624999810043
 20
1.093749994680436
 30
0.0
 40
0.125
  1
.XX %%p
 41
0.8
100
AcDbText
  0
TEXT
  5
103A
330
1017
100
AcDbEntity
  8
0
100
AcDbText
 10
4.0624999810043
 20
0.8437499946804365
 30
0.0
 40
0.125
  1
.XXX%%p
 41
0.8
100
AcDbText
  0
TEXT
  5
103B
330
1017
100
AcDbEntity
  8
0
100
AcDbText
 10
4.1249999810043
 20
0.4687499946804366
 30
0.0
 40
0.125
  1
%%p
 41
0.8
100
AcDbText
  0
TEXT
  5
103C
330
1017
100
AcDbEntity
  8
0
100
AcDbText
 10
4.1249999810043
 20
0.0937499946804366
 30
0.0
 40
0.125
  1
%%p
 41
0.8
100
AcDbText
  0
TEXT
  5
103D
330
1017
100
AcDbEntity
  8
0
100
AcDbText
 10
3.6562499810043
 20
0.0624999946804366
 30
0.0
 40
0.125
  1
BY
 41
0.8
100
AcDbText
  0
TEXT
  5
103E
330
1017
100
AcDbEntity
  8
0
100
AcDbText
 10
0.0312499810043008
 20
0.0624999946804366
 30
0.0
 40
0.125
  1
NO
 41
0.8
100
AcDbText
  0
TEXT
  5
103F
330
1017
100
AcDbEntity
  8
0
100
AcDbText
 10
1.2187499810043
 20
0.0624999946804366
 30
0.0
 40
0.125
  1
REVISION
 41
0.8
100
AcDbText
  0
TEXT
  5
1040
330
1017
100
AcDbEntity
  8
0
100
AcDbText
 10
2.9374999810043
 20
0.0624999946804366
 30
0.0
 40
0.125
  1
DATE
 41
0.8
100
AcDbText
  0
TEXT
  5
1041
330
1017
100
AcDbEntity
  8
0
100
AcDbText
 10
7.8124999810043
 20
0.0312499946804366
 30
0.0
 40
0.09
  1
SHT.    OF
 41
0.8
100
AcDbText
  0
INSERT
  5
1042
330
1017
100
AcDbEntity
  8
BORDER
100
AcDbBlockReference
 66
     1
  2
REVISE12
 10
-0.0000000189956992
 20
0.2499999946804365
 30
0.0
  0
ATTRIB
  5
1043
330
1042
100
AcDbEntity
  8
0
100
AcDbText
 10
0.0312499810043008
 20
0.3124999946804365
 30
0.0
 40
0.125
  1

 41
0.9
 72
     5
 11
0.2187499810043008
 21
0.3124999946804365
 31
0.0
100
AcDbAttribute
280
     0
  2
NO
 70
     8
280
     0
  0
ATTRIB
  5
1044
330
1042
100
AcDbEntity
  8
0
100
AcDbText
 10
0.3124999810043008
 20
0.3124999946804365
 30
0.0
 40
0.125
  1

100
AcDbAttribute
280
     0
  2
REV
 70
     8
280
     0
  0
ATTRIB
  5
1045
330
1042
100
AcDbEntity
  8
0
100
AcDbText
 10
2.8124999810043
 20
0.3124999946804365
 30
0.0
 40
0.125
  1

 41
1.125
 72
     5
 11
3.4687499810043
 21
0.3124999946804365
 31
0.0
100
AcDbAttribute
280
     0
  2
RDATE
 70
     8
280
     0
  0
ATTRIB
  5
1046
330
1042
100
AcDbEntity
  8
0
100
AcDbText
 10
3.5312499810043
 20
0.3124999946804365
 30
0.0
 40
0.125
  1

100
AcDbAttribute
280
     0
  2
BY
 70
     8
280
     0
  0
SEQEND
  5
1047
330
1042
100
AcDbEntity
  8
BORDER
  0
INSERT
  5
1048
330
1017
100
AcDbEntity
  8
BORDER
100
AcDbBlockReference
 66
     1
  2
REVISE12
 10
-0.0000000189956992
 20
0.4999999946804366
 30
0.0
  0
ATTRIB
  5
1049
330
1048
100
AcDbEntity
  8
0
100
AcDbText
 10
0.0312499810043008
 20
0.5624999946804366
 30
0.0
 40
0.125
  1

 41
0.9
 72
     5
 11
0.2187499810043008
 21
0.5624999946804366
 31
0.0
100
AcDbAttribute
280
     0
  2
NO
 70
     8
280
     0
  0
ATTRIB
  5
104A
330
1048
100
AcDbEntity
  8
0
100
AcDbText
 10
0.3124999810043008
 20
0.5624999946804366
 30
0.0
 40
0.125
  1

100
AcDbAttribute
280
     0
  2
REV
 70
     8
280
     0
  0
ATTRIB
  5
104B
330
1048
100
AcDbEntity
  8
0
100
AcDbText
 10
2.8124999810043
 20
0.5624999946804366
 30
0.0
 40
0.125
  1

 41
1.125
 72
     5
 11
3.4687499810043
 21
0.5624999946804366
 31
0.0
100
AcDbAttribute
280
     0
  2
RDATE
 70
     8
280
     0
  0
ATTRIB
  5
104C
330
1048
100
AcDbEntity
  8
0
100
AcDbText
 10
3.5312499810043
 20
0.5624999946804366
 30
0.0
 40
0.125
  1

100
AcDbAttribute
280
     0
  2
BY
 70
     8
280
     0
  0
SEQEND
  5
104D
330
1048
100
AcDbEntity
  8
BORDER
  0
INSERT
  5
104E
330
1017
100
AcDbEntity
  8
BORDER
100
AcDbBlockReference
 66
     1
  2
REVISE12
 10
-0.0000000189956992
 20
0.7499999946804366
 30
0.0
  0
ATTRIB
  5
104F
330
104E
100
AcDbEntity
  8
0
100
AcDbText
 10
0.0312499810043008
 20
0.8124999946804365
 30
0.0
 40
0.125
  1

 41
0.9
 72
     5
 11
0.2187499810043008
 21
0.8124999946804365
 31
0.0
100
AcDbAttribute
280
     0
  2
NO
 70
     8
280
     0
  0
ATTRIB
  5
1050
330
104E
100
AcDbEntity
  8
0
100
AcDbText
 10
0.3124999810043008
 20
0.8124999946804365
 30
0.0
 40
0.125
  1

100
AcDbAttribute
280
     0
  2
REV
 70
     8
280
     0
  0
ATTRIB
  5
1051
330
104E
100
AcDbEntity
  8
0
100
AcDbText
 10
2.8124999810043
 20
0.8124999946804365
 30
0.0
 40
0.125
  1

 41
1.125
 72
     5
 11
3.4687499810043
 21
0.8124999946804365
 31
0.0
100
AcDbAttribute
280
     0
  2
RDATE
 70
     8
280
     0
  0
ATTRIB
  5
1052
330
104E
100
AcDbEntity
  8
0
100
AcDbText
 10
3.5312499810043
 20
0.8124999946804365
 30
0.0
 40
0.125
  1

100
AcDbAttribute
280
     0
  2
BY
 70
     8
280
     0
  0
SEQEND
  5
1053
330
104E
100
AcDbEntity
  8
BORDER
  0
INSERT
  5
1054
330
1017
100
AcDbEntity
  8
BORDER
100
AcDbBlockReference
 66
     1
  2
REVISE12
 10
-0.0000000189956992
 20
0.9999999946804365
 30
0.0
  0
ATTRIB
  5
1055
330
1054
100
AcDbEntity
  8
0
100
AcDbText
 10
0.0312499810043008
 20
1.062499994680436
 30
0.0
 40
0.125
  1

 41
0.9
 72
     5
 11
0.2187499810043008
 21
1.062499994680436
 31
0.0
100
AcDbAttribute
280
     0
  2
NO
 70
     8
280
     0
  0
ATTRIB
  5
1056
330
1054
100
AcDbEntity
  8
0
100
AcDbText
 10
0.3124999810043008
 20
1.062499994680436
 30
0.0
 40
0.125
  1

100
AcDbAttribute
280
     0
  2
REV
 70
     8
280
     0
  0
ATTRIB
  5
1057
330
1054
100
AcDbEntity
  8
0
100
AcDbText
 10
2.8124999810043
 20
1.062499994680436
 30
0.0
 40
0.125
  1

 41
1.125
 72
     5
 11
3.4687499810043
 21
1.062499994680436
 31
0.0
100
AcDbAttribute
280
     0
  2
RDATE
 70
     8
280
     0
  0
ATTRIB
  5
1058
330
1054
100
AcDbEntity
  8
0
100
AcDbText
 10
3.5312499810043
 20
1.062499994680436
 30
0.0
 40
0.125
  1

100
AcDbAttribute
280
     0
  2
BY
 70
     8
280
     0
  0
SEQEND
  5
1059
330
1054
100
AcDbEntity
  8
BORDER
  0
INSERT
  5
105A
330
1017
100
AcDbEntity
  8
BORDER
100
AcDbBlockReference
 66
     1
  2
REVISE12
 10
-0.0000000189956992
 20
1.249999994680436
 30
0.0
  0
ATTRIB
  5
105B
330
105A
100
AcDbEntity
  8
0
100
AcDbText
 10
0.0312499810043008
 20
1.312499994680436
 30
0.0
 40
0.125
  1

 41
0.9
 72
     5
 11
0.2187499810043008
 21
1.312499994680436
 31
0.0
100
AcDbAttribute
280
     0
  2
NO
 70
     8
280
     0
  0
ATTRIB
  5
105C
330
105A
100
AcDbEntity
  8
0
100
AcDbText
 10
0.3124999810043008
 20
1.312499994680436
 30
0.0
 40
0.125
  1

100
AcDbAttribute
280
     0
  2
REV
 70
     8
280
     0
  0
ATTRIB
  5
105D
330
105A
100
AcDbEntity
  8
0
100
AcDbText
 10
2.8124999810043
 20
1.312499994680436
 30
0.0
 40
0.125
  1

 41
1.125
 72
     5
 11
3.4687499810043
 21
1.312499994680436
 31
0.0
100
AcDbAttribute
280
     0
  2
RDATE
 70
     8
280
     0
  0
ATTRIB
  5
105E
330
105A
100
AcDbEntity
  8
0
100
AcDbText
 10
3.5312499810043
 20
1.312499994680436
 30
0.0
 40
0.125
  1

100
AcDbAttribute
280
     0
  2
BY
 70
     8
280
     0
  0
SEQEND
  5
105F
330
105A
100
AcDbEntity
  8
BORDER
  0
INSERT
  5
1060
330
1017
100
AcDbEntity
  8
BORDER
100
AcDbBlockReference
 66
     1
  2
REVISE12
 10
-0.0000000189956992
 20
1.499999994680436
 30
0.0
  0
ATTRIB
  5
1061
330
1060
100
AcDbEntity
  8
0
100
AcDbText
 10
0.0312499810043008
 20
1.562499994680436
 30
0.0
 40
0.125
  1

 41
0.9
 72
     5
 11
0.2187499810043008
 21
1.562499994680436
 31
0.0
100
AcDbAttribute
280
     0
  2
NO
 70
     8
280
     0
  0
ATTRIB
  5
1062
330
1060
100
AcDbEntity
  8
0
100
AcDbText
 10
0.3124999810043008
 20
1.562499994680436
 30
0.0
 40
0.125
  1

100
AcDbAttribute
280
     0
  2
REV
 70
     8
280
     0
  0
ATTRIB
  5
1063
330
1060
100
AcDbEntity
  8
0
100
AcDbText
 10
2.8124999810043
 20
1.562499994680436
 30
0.0
 40
0.125
  1

 41
1.125
 72
     5
 11
3.4687499810043
 21
1.562499994680436
 31
0.0
100
AcDbAttribute
280
     0
  2
RDATE
 70
     8
280
     0
  0
ATTRIB
  5
1064
330
1060
100
AcDbEntity
  8
0
100
AcDbText
 10
3.5312499810043
 20
1.562499994680436
 30
0.0
 40
0.125
  1

100
AcDbAttribute
280
     0
  2
BY
 70
     8
280
     0
  0
SEQEND
  5
1065
330
1060
100
AcDbEntity
  8
BORDER
  0
LINE
  5
1066
330
1017
100
AcDbEntity
  8
BORDER
100
AcDbLine
 10
-0.0000000189956992
 20
0.4999999946804366
 30
0.0
 11
-0.0000000189956992
 21
1.749999994680436
 31
0.0
  0
LINE
  5
1067
330
1017
100
AcDbEntity
  8
BORDER
100
AcDbLine
 10
-0.0000000189956992
 20
0.4999999946804366
 30
0.0
 11
3.9999999810043
 21
0.4999999946804366
 31
0.0
  0
LINE
  5
1068
330
1017
100
AcDbEntity
  8
BORDER
100
AcDbLine
 10
-0.0000000189956992
 20
0.7499999946804366
 30
0.0
 11
3.9999999810043
 21
0.7499999946804366
 31
0.0
  0
LINE
  5
1069
330
1017
100
AcDbEntity
  8
BORDER
100
AcDbLine
 10
-0.0000000189956992
 20
0.9999999946804365
 30
0.0
 11
3.9999999810043
 21
0.9999999946804365
 31
0.0
  0
LINE
  5
106A
330
1017
100
AcDbEntity
  8
BORDER
100
AcDbLine
 10
-0.0000000189956992
 20
1.249999994680436
 30
0.0
 11
3.9999999810043
 21
1.249999994680436
 31
0.0
  0
LINE
  5
106B
330
1017
100
AcDbEntity
  8
BORDER
100
AcDbLine
 10
-0.0000000189956992
 20
1.499999994680436
 30
0.0
 11
3.9999999810043
 21
1.499999994680436
 31
0.0
  0
ATTDEF
  5
106C
330
1017
100
AcDbEntity
  8
0
100
AcDbText
 10
7.4687499810043
 20
0.2499999946804365
 30
0.0
 40
0.1875
  1

 41
0.8
100
AcDbAttributeDefinition
280
     0
  3
DRAWING NUMBER
  2
DWGNO
 70
     0
280
     0
  0
ATTDEF
  5
106D
330
1017
100
AcDbEntity
  8
0
100
AcDbText
 10
5.4062499810043
 20
0.2812499946804365
 30
0.0
 40
0.125
  1

 41
0.8
100
AcDbAttributeDefinition
280
     0
  3
DRAWN BY
  2
DRNBY
 70
     0
280
     0
  0
ATTDEF
  5
106E
330
1017
100
AcDbEntity
  8
0
100
AcDbText
 10
6.2499999810043
 20
0.2812499946804365
 30
0.0
 40
0.125
  1

 41
1.568181818181818
 72
     5
 11
6.9687499810043
 21
0.2812499946804365
 31
0.0
100
AcDbAttributeDefinition
280
     0
  3
DRAWING DATE
  2
DATE
 70
     0
280
     0
  0
ATTDEF
  5
106F
330
1017
100
AcDbEntity
  8
0
100
AcDbText
 10
5.3437499810043
 20
0.0312499946804366
 30
0.0
 40
0.125
  1

 41
0.8
100
AcDbAttributeDefinition
280
     0
  3
SCALE
  2
SCALE
 70
     0
280
     0
  0
ATTDEF
  5
1070
330
1017
100
AcDbEntity
  8
0
100
AcDbText
 10
6.3437499810043
 20
0.0312499946804366
 30
0.0
 40
0.125
  1

 41
0.8
100
AcDbAttributeDefinition
280
     0
  3
APPROVED BY
  2
APRVD
 70
     0
280
     0
  0
ATTDEF
  5
1071
330
1017
100
AcDbEntity
  8
0
100
AcDbText
 10
8.0937499810043
 20
0.0312499946804366
 30
0.0
 40
0.125
  1

 41
0.8
100
AcDbAttributeDefinition
280
     0
  3
SHEET
  2
SHT
 70
     0
280
     0
  0
ATTDEF
  5
1072
330
1017
100
AcDbEntity
  8
0
100
AcDbText
 10
8.4687499810043
 20
0.0312499946804366
 30
0.0
 40
0.125
  1

 41
0.8
100
AcDbAttributeDefinition
280
     0
  3
OF SHEET
  2
OFSHT
 70
     0
280
     0
  0
ATTDEF
  5
1073
330
1017
100
AcDbEntity
  8
0
100
AcDbText
 10
5.1562499810043
 20
0.8749999946804365
 30
0.0
 40
0.1875
  1

 41
0.8
100
AcDbAttributeDefinition
280
     0
  3
DESCRIPTION (LINE 1 OF 2)
  2
DESC1
 70
     0
280
     0
  0
ATTDEF
  5
1074
330
1017
100
AcDbEntity
  8
0
100
AcDbText
 10
5.1562499810043
 20
0.5937499946804366
 30
0.0
 40
0.1875
  1

 41
0.8
100
AcDbAttributeDefinition
280
     0
  3
DESCRIPTION (LINE 2 OF 2)
  2
DESC2
 70
     0
280
     0
  0
ATTDEF
  5
1075
330
1017
100
AcDbEntity
  8
0
100
AcDbText
 10
4.5312499810043
 20
1.093749994680436
 30
0.0
 40
0.125
  1
.01
 41
0.8
100
AcDbAttributeDefinition
280
     0
  3
TOLERANCE .XX
  2
TOLXX
 70
     0
280
     0
  0
ATTDEF
  5
1076
330
1017
100
AcDbEntity
  8
0
100
AcDbText
 10
4.5312499810043
 20
0.8437499946804365
 30
0.0
 40
0.125
  1
.005
 41
0.8
100
AcDbAttributeDefinition
280
     0
  3
TOLERANCE .XXX
  2
TOLXXX
 70
     0
280
     0
  0
ATTDEF
  5
1077
330
1017
100
AcDbEntity
  8
0
100
AcDbText
 10
4.2812499810043
 20
0.4687499946804366
 30
0.0
 40
0.125
  1
1/32
 41
0.8
100
AcDbAttributeDefinition
280
     0
  3
TOLERANCE - FRACTIONAL
  2
TOLFRAC
 70
     0
280
     0
  0
ATTDEF
  5
1078
330
1017
100
AcDbEntity
  8
0
100
AcDbText
 10
4.2812499810043
 20
0.0937499946804366
 30
0.0
 40
0.125
  1
1/2%%d
 41
0.8
100
AcDbAttributeDefinition
280
     0
  3
TOLERANCE - ANGULAR
  2
TOLANG
 70
     0
280
     0
  0
ATTDEF
  5
1079
330
1017
100
AcDbEntity
  8
0
100
AcDbText
 10
7.1562499810043
 20
0.0937499946804366
 30
0.0
 40
0.25
  1

 41
0.8
100
AcDbAttributeDefinition
280
     0
  3

  2
DWG.SIZE
 70
     0
280
     0
  0
ENDBLK
  5
107B
330
1017
100
AcDbEntity
  8
0
 62
     7
100
AcDbBlockEnd
  0
BLOCK
  5
11E6
330
11E5
100
AcDbEntity
  8
0
 62
     7
100
AcDbBlockBegin
  2
*U2
 70
     1
 10
0.0
 20
0.0
 30
0.0
  3
*U2
  1

  0
ENDBLK
  5
11E7
330
11E5
100
AcDbEntity
  8
0
 62
     7
100
AcDbBlockEnd
  0
BLOCK
  5
120D
330
120B
100
AcDbEntity
  8
0
 62
     7
100
AcDbBlockBegin
  2
GENAXEH
 70
     0
 10
0.0
 20
0.0
 30
0.0
  3
GENAXEH
  1

  0
LINE
  5
120C
330
120B
100
AcDbEntity
  8
0
100
AcDbLine
 10
-1.0
 20
0.0
 30
0.0
 11
1.0
 21
0.0
 31
0.0
  0
ENDBLK
  5
120E
330
120B
100
AcDbEntity
  8
0
 62
     7
100
AcDbBlockEnd
  0
BLOCK
  5
1359
330
1358
100
AcDbEntity
  8
0
 62
     7
100
AcDbBlockBegin
  2
*D4
 70
     1
 10
0.0
 20
0.0
 30
0.0
  3
*D4
  1

  0
LINE
  5
149E
330
1358
100
AcDbEntity
  8
Dimension (ANSI)
  6
ByBlock
440
 16777216
100
AcDbLine
 10
10.83748188964617
 20
7.303209284763591
 30
0.0
 11
10.73748188964617
 21
7.303209284763591
 31
0.0
  0
LINE
  5
149F
330
1358
100
AcDbEntity
  8
Dimension (ANSI)
  6
ByBlock
440
 16777216
100
AcDbLine
 10
10.83748188964617
 20
3.953209284763591
 30
0.0
 11
10.73748188964617
 21
3.953209284763591
 31
0.0
  0
LINE
  5
14A0
330
1358
100
AcDbEntity
  8
Dimension (ANSI)
  6
ByBlock
440
 16777216
100
AcDbLine
 10
10.93748188964617
 20
7.063209284763591
 30
0.0
 11
10.93748188964617
 21
5.86820928476359
 31
0.0
  0
LINE
  5
14A1
330
1358
100
AcDbEntity
  8
Dimension (ANSI)
  6
ByBlock
440
 16777216
100
AcDbLine
 10
10.93748188964617
 20
4.19320928476359
 30
0.0
 11
10.93748188964617
 21
5.38820928476359
 31
0.0
  0
SOLID
  5
14A2
330
1358
100
AcDbEntity
  8
Dimension (ANSI)
440
 16777216
100
AcDbTrace
 10
10.89748188964617
 20
7.063209284763591
 30
0.0
 11
10.97748188964617
 21
7.063209284763591
 31
0.0
 12
10.93748188964617
 22
7.303209284763591
 32
0.0
 13
10.93748188964617
 23
7.303209284763591
 33
0.0
  0
SOLID
  5
14A3
330
1358
100
AcDbEntity
  8
Dimension (ANSI)
440
 16777216
100
AcDbTrace
 10
10.89748188964617
 20
4.19320928476359
 30
0.0
 11
10.97748188964617
 21
4.19320928476359
 31
0.0
 12
10.93748188964617
 22
3.953209284763591
 32
0.0
 13
10.93748188964617
 23
3.953209284763591
 33
0.0
  0
MTEXT
  5
14A4
330
1358
100
AcDbEntity
  8
Dimension (ANSI)
 62
   140
440
 16777216
100
AcDbMText
 10
10.57748188964617
 20
5.748209284763592
 30
0.0
 40
0.24
 41
0.0
 46
0.0
 71
     1
 72
     1
  1
\A1;3.35
 73
     1
 44
1.0
  0
POINT
  5
14A5
330
1358
100
AcDbEntity
  8
Defpoints
 62
     0
440
 16777216
100
AcDbPoint
 10
10.93748188964617
 20
7.303209284763591
 30
0.0
  0
POINT
  5
14A6
330
1358
100
AcDbEntity
  8
Defpoints
 62
     0
440
 16777216
100
AcDbPoint
 10
10.93748188964617
 20
3.953209284763591
 30
0.0
  0
POINT
  5
14A7
330
1358
100
AcDbEntity
  8
Defpoints
 62
     0
440
 16777216
100
AcDbPoint
 10
10.93748188964617
 20
3.953209284763591
 30
0.0
  0
ENDBLK
  5
135A
330
1358
100
AcDbEntity
  8
0
 62
     7
100
AcDbBlockEnd
  0
BLOCK
  5
1366
330
1365
100
AcDbEntity
  8
0
 62
     7
100
AcDbBlockBegin
  2
*D5
 70
     1
 10
0.0
 20
0.0
 30
0.0
  3
*D5
  1

  0
LINE
  5
1494
330
1365
100
AcDbEntity
  8
Dimension (ANSI)
  6
ByBlock
440
 16777216
100
AcDbLine
 10
8.018251122184102
 20
7.40320928476359
 30
0.0
 11
8.018251122184102
 21
8.224363121240331
 31
0.0
  0
LINE
  5
1495
330
1365
100
AcDbEntity
  8
Dimension (ANSI)
  6
ByBlock
440
 16777216
100
AcDbLine
 10
15.7382511221841
 20
7.483209284763589
 30
0.0
 11
15.7382511221841
 21
8.224363121240331
 31
0.0
  0
LINE
  5
1496
330
1365
100
AcDbEntity
  8
Dimension (ANSI)
  6
ByBlock
440
 16777216
100
AcDbLine
 10
8.258251122184102
 20
8.024363121240332
 30
0.0
 11
11.3982511221841
 21
8.024363121240332
 31
0.0
  0
LINE
  5
1497
330
1365
100
AcDbEntity
  8
Dimension (ANSI)
  6
ByBlock
440
 16777216
100
AcDbLine
 10
15.4982511221841
 20
8.024363121240332
 30
0.0
 11
12.3582511221841
 21
8.024363121240332
 31
0.0
  0
SOLID
  5
1498
330
1365
100
AcDbEntity
  8
Dimension (ANSI)
440
 16777216
100
AcDbTrace
 10
8.258251122184102
 20
8.064363121240331
 30
0.0
 11
8.258251122184102
 21
7.984363121240332
 31
0.0
 12
8.018251122184102
 22
8.024363121240332
 32
0.0
 13
8.018251122184102
 23
8.024363121240332
 33
0.0
  0
SOLID
  5
1499
330
1365
100
AcDbEntity
  8
Dimension (ANSI)
440
 16777216
100
AcDbTrace
 10
15.4982511221841
 20
8.064363121240331
 30
0.0
 11
15.4982511221841
 21
7.984363121240332
 31
0.0
 12
15.7382511221841
 22
8.024363121240332
 32
0.0
 13
15.7382511221841
 23
8.024363121240332
 33
0.0
  0
MTEXT
  5
149A
330
1365
100
AcDbEntity
  8
Dimension (ANSI)
 62
   140
440
 16777216
100
AcDbMText
 10
11.5182511221841
 20
8.144363121240331
 30
0.0
 40
0.24
 41
0.0
 46
0.0
 71
     1
 72
     1
  1
\A1;7.72
 73
     1
 44
1.0
  0
POINT
  5
149B
330
1365
100
AcDbEntity
  8
Defpoints
 62
     0
440
 16777216
100
AcDbPoint
 10
8.018251122184102
 20
7.303209284763591
 30
0.0
  0
POINT
  5
149C
330
1365
100
AcDbEntity
  8
Defpoints
 62
     0
440
 16777216
100
AcDbPoint
 10
15.7382511221841
 20
7.383209284763589
 30
0.0
  0
POINT
  5
149D
330
1365
100
AcDbEntity
  8
Defpoints
 62
     0
440
 16777216
100
AcDbPoint
 10
15.7382511221841
 20
8.024363121240332
 30
0.0
  0
ENDBLK
  5
1367
330
1365
100
AcDbEntity
  8
0
 62
     7
100
AcDbBlockEnd
  0
BLOCK
  5
1373
330
1372
100
AcDbEntity
  8
0
 62
     7
100
AcDbBlockBegin
  2
*D6
 70
     1
 10
0.0
 20
0.0
 30
0.0
  3
*D6
  1

  0
LINE
  5
148A
330
1372
100
AcDbEntity
  8
Dimension (ANSI)
  6
ByBlock
440
 16777216
100
AcDbLine
 10
17.0882511221841
 20
6.519209284763586
 30
0.0
 11
17.0882511221841
 21
9.38820927038618
 31
0.0
  0
LINE
  5
148B
330
1372
100
AcDbEntity
  8
Dimension (ANSI)
  6
ByBlock
440
 16777216
100
AcDbLine
 10
8.018251122184102
 20
7.40320928476359
 30
0.0
 11
8.018251122184102
 21
9.38820927038618
 31
0.0
  0
LINE
  5
148C
330
1372
100
AcDbEntity
  8
Dimension (ANSI)
  6
ByBlock
440
 16777216
100
AcDbLine
 10
16.8482511221841
 20
9.188209270386181
 30
0.0
 11
13.0132511221841
 21
9.188209270386181
 31
0.0
  0
LINE
  5
148D
330
1372
100
AcDbEntity
  8
Dimension (ANSI)
  6
ByBlock
440
 16777216
100
AcDbLine
 10
8.258251122184102
 20
9.188209270386181
 30
0.0
 11
12.0932511221841
 21
9.188209270386181
 31
0.0
  0
SOLID
  5
148E
330
1372
100
AcDbEntity
  8
Dimension (ANSI)
440
 16777216
100
AcDbTrace
 10
16.8482511221841
 20
9.22820927038618
 30
0.0
 11
16.8482511221841
 21
9.148209270386182
 31
0.0
 12
17.0882511221841
 22
9.188209270386181
 32
0.0
 13
17.0882511221841
 23
9.188209270386181
 33
0.0
  0
SOLID
  5
148F
330
1372
100
AcDbEntity
  8
Dimension (ANSI)
440
 16777216
100
AcDbTrace
 10
8.258251122184102
 20
9.22820927038618
 30
0.0
 11
8.258251122184102
 21
9.148209270386182
 31
0.0
 12
8.018251122184102
 22
9.188209270386181
 32
0.0
 13
8.018251122184102
 23
9.188209270386181
 33
0.0
  0
MTEXT
  5
1490
330
1372
100
AcDbEntity
  8
Dimension (ANSI)
 62
   140
440
 16777216
100
AcDbMText
 10
12.2132511221841
 20
9.30820927038618
 30
0.0
 40
0.24
 41
0.0
 46
0.0
 71
     1
 72
     1
  1
\A1;9.07
 73
     1
 44
1.0
  0
POINT
  5
1491
330
1372
100
AcDbEntity
  8
Defpoints
 62
     0
440
 16777216
100
AcDbPoint
 10
17.0882511221841
 20
6.419209284763587
 30
0.0
  0
POINT
  5
1492
330
1372
100
AcDbEntity
  8
Defpoints
 62
     0
440
 16777216
100
AcDbPoint
 10
8.018251122184102
 20
7.303209284763591
 30
0.0
  0
POINT
  5
1493
330
1372
100
AcDbEntity
  8
Defpoints
 62
     0
440
 16777216
100
AcDbPoint
 10
8.018251122184102
 20
9.188209270386181
 30
0.0
  0
ENDBLK
  5
1374
330
1372
100
AcDbEntity
  8
0
 62
     7
100
AcDbBlockEnd
  0
ENDSEC
  0
SECTION
  2
ENTITIES
  0
LINE
  5
12E0
330
1F
100
AcDbEntity
  8
0
100
AcDbLine
 10
15.6582511221841
 20
3.873209284763589
 30
0.0
 11
15.6582511221841
 21
7.383209284763589
 31
0.0
  0
LINE
  5
12E1
330
1F
100
AcDbEntity
  8
0
100
AcDbLine
 10
15.7382511221841
 20
7.383209284763589
 30
0.0
 11
15.7382511221841
 21
3.873209284763589
 31
0.0
  0
LINE
  5
12E2
330
1F
100
AcDbEntity
  8
0
100
AcDbLine
 10
15.7382511221841
 20
3.873209284763589
 30
0.0
 11
15.6582511221841
 21
3.873209284763589
 31
0.0
  0
LINE
  5
12E3
330
1F
100
AcDbEntity
  8
0
100
AcDbLine
 10
15.7382511221841
 20
7.383209284763589
 30
0.0
 11
15.6582511221841
 21
7.383209284763589
 31
0.0
  0
LINE
  5
12E4
330
1F
100
AcDbEntity
  8
0
100
AcDbLine
 10
7.388251122184103
 20
5.45220928476359
 30
0.0
 11
7.388251122184103
 21
5.80420928476359
 31
0.0
  0
LINE
  5
12E5
330
1F
100
AcDbEntity
  8
0
100
AcDbLine
 10
7.448251122184102
 20
5.864209284763591
 30
0.0
 11
7.448251122184102
 21
5.392209284763591
 31
0.0
  0
LINE
  5
12E6
330
1F
100
AcDbEntity
  8
0
100
AcDbLine
 10
7.388251122184103
 20
5.80420928476359
 30
0.0
 11
7.448251122184102
 21
5.864209284763591
 31
0.0
  0
LINE
  5
12E7
330
1F
100
AcDbEntity
  8
0
100
AcDbLine
 10
7.388251122184103
 20
5.45220928476359
 30
0.0
 11
7.448251122184102
 21
5.392209284763591
 31
0.0
  0
LINE
  5
12E8
330
1F
100
AcDbEntity
  8
0
100
AcDbLine
 10
8.018251122184102
 20
3.953209284763591
 30
0.0
 11
8.018251122184102
 21
7.303209284763591
 31
0.0
  0
LINE
  5
12E9
330
1F
100
AcDbEntity
  8
0
100
AcDbLine
 10
15.6582511221841
 20
3.953209284763589
 30
0.0
 11
8.0182511221841
 21
3.953209284763591
 31
0.0
  0
LINE
  5
12EA
330
1F
100
AcDbEntity
  8
0
100
AcDbLine
 10
15.6582511221841
 20
7.303209284763589
 30
0.0
 11
8.018251122184102
 21
7.303209284763591
 31
0.0
  0
LINE
  5
12EB
330
1F
100
AcDbEntity
  8
0
100
AcDbLine
 10
8.018251122184102
 20
5.392209284763591
 30
0.0
 11
7.448251122184102
 21
5.392209284763591
 31
0.0
  0
LINE
  5
12EC
330
1F
100
AcDbEntity
  8
0
100
AcDbLine
 10
8.018251122184102
 20
5.864209284763591
 30
0.0
 11
7.448251122184102
 21
5.864209284763591
 31
0.0
  0
LINE
  5
12ED
330
1F
100
AcDbEntity
  8
0
100
AcDbLine
 10
16.6182511221841
 20
6.339209284763589
 30
0.0
 11
16.6582511221841
 21
6.339209284763589
 31
0.0
  0
LINE
  5
12EE
330
1F
100
AcDbEntity
  8
0
100
AcDbLine
 10
16.6582511221841
 20
6.339209284763589
 30
0.0
 11
16.6582511221841
 21
5.86920928476359
 31
0.0
  0
LINE
  5
12EF
330
1F
100
AcDbEntity
  8
0
100
AcDbLine
 10
16.6582511221841
 20
5.86920928476359
 30
0.0
 11
16.6182511221841
 21
5.86920928476359
 31
0.0
  0
LINE
  5
12F0
330
1F
100
AcDbEntity
  8
0
100
AcDbLine
 10
16.6582511221841
 20
4.769209284763588
 30
0.0
 11
16.6182511221841
 21
4.769209284763588
 31
0.0
  0
LINE
  5
12F1
330
1F
100
AcDbEntity
  8
0
100
AcDbLine
 10
16.6182511221841
 20
5.239209284763589
 30
0.0
 11
16.6582511221841
 21
5.239209284763589
 31
0.0
  0
LINE
  5
12F2
330
1F
100
AcDbEntity
  8
0
100
AcDbLine
 10
16.6582511221841
 20
5.239209284763589
 30
0.0
 11
16.6582511221841
 21
4.769209284763588
 31
0.0
  0
LINE
  5
12F3
330
1F
100
AcDbEntity
  8
0
100
AcDbLine
 10
16.6582511221841
 20
5.319209284763589
 30
0.0
 11
16.6182511221841
 21
5.319209284763589
 31
0.0
  0
LINE
  5
12F4
330
1F
100
AcDbEntity
  8
0
100
AcDbLine
 10
16.6182511221841
 20
5.78920928476359
 30
0.0
 11
16.6582511221841
 21
5.78920928476359
 31
0.0
  0
LINE
  5
12F5
330
1F
100
AcDbEntity
  8
0
100
AcDbLine
 10
16.6582511221841
 20
5.78920928476359
 30
0.0
 11
16.6582511221841
 21
5.319209284763589
 31
0.0
  0
LINE
  5
12F6
330
1F
100
AcDbEntity
  8
0
100
AcDbLine
 10
17.0882511221841
 20
4.68920928476359
 30
0.0
 11
16.7397511221841
 21
4.68920928476359
 31
0.0
  0
LINE
  5
12F7
330
1F
100
AcDbEntity
  8
0
100
AcDbLine
 10
17.0882511221841
 20
6.419209284763587
 30
0.0
 11
17.0882511221841
 21
4.68920928476359
 31
0.0
  0
LINE
  5
12F8
330
1F
100
AcDbEntity
  8
0
100
AcDbLine
 10
16.7397511221841
 20
6.419209284763587
 30
0.0
 11
17.0882511221841
 21
6.419209284763587
 31
0.0
  0
LINE
  5
12F9
330
1F
100
AcDbEntity
  8
0
100
AcDbLine
 10
16.7397511221841
 20
4.68920928476359
 30
0.0
 11
16.7397511221841
 21
6.419209284763587
 31
0.0
  0
LINE
  5
12FA
330
1F
100
AcDbEntity
  8
0
100
AcDbLine
 10
15.7382511221841
 20
6.419209284763589
 30
0.0
 11
16.1182511221841
 21
6.419209284763589
 31
0.0
  0
LINE
  5
12FB
330
1F
100
AcDbEntity
  8
0
100
AcDbLine
 10
16.6182511221841
 20
6.419209284763589
 30
0.0
 11
16.7397511221841
 21
6.419209284763587
 31
0.0
  0
LINE
  5
12FC
330
1F
100
AcDbEntity
  8
0
100
AcDbLine
 10
15.7382511221841
 20
4.68920928476359
 30
0.0
 11
16.1182511221841
 21
4.68920928476359
 31
0.0
  0
LINE
  5
12FD
330
1F
100
AcDbEntity
  8
0
100
AcDbLine
 10
16.6182511221841
 20
4.68920928476359
 30
0.0
 11
16.7397511221841
 21
4.68920928476359
 31
0.0
  0
LINE
  5
12FE
330
1F
100
AcDbEntity
  8
0
100
AcDbLine
 10
16.1182511221841
 20
4.520209284763589
 30
0.0
 11
16.1182511221841
 21
6.520209284763589
 31
0.0
  0
LINE
  5
12FF
330
1F
100
AcDbEntity
  8
0
100
AcDbLine
 10
16.1182511221841
 20
6.520209284763589
 30
0.0
 11
16.6182511221841
 21
6.520209284763589
 31
0.0
  0
LINE
  5
1300
330
1F
100
AcDbEntity
  8
0
100
AcDbLine
 10
16.6182511221841
 20
6.520209284763589
 30
0.0
 11
16.6182511221841
 21
4.520209284763589
 31
0.0
  0
LINE
  5
1301
330
1F
100
AcDbEntity
  8
0
100
AcDbLine
 10
16.6182511221841
 20
4.520209284763589
 30
0.0
 11
16.1182511221841
 21
4.520209284763589
 31
0.0
  0
ARC
  5
1302
330
1F
100
AcDbEntity
  8
0
100
AcDbCircle
 10
22.08011010979375
 20
5.62820928476067
 30
0.0
 40
1.674999999999999
100
AcDbArc
 50
221.4138017452666
 51
147.8229482829015
  0
ARC
  5
1303
330
1F
100
AcDbEntity
  8
0
100
AcDbCircle
 10
22.08011010979375
 20
5.62820928476067
 30
0.0
 40
1.755
100
AcDbArc
 50
219.1489830766437
 51
149.4518611697746
  0
LINE
  5
1304
330
1F
100
AcDbEntity
  8
0
100
AcDbLine
 10
21.57861010979415
 20
4.68920928476067
 30
0.0
 11
21.23011010979405
 21
4.68920928476067
 31
0.0
  0
LINE
  5
1305
330
1F
100
AcDbEntity
  8
0
100
AcDbLine
 10
21.57861010979415
 20
6.419209284760666
 30
0.0
 11
21.57861010979415
 21
4.68920928476067
 31
0.0
  0
LINE
  5
1306
330
1F
100
AcDbEntity
  8
0
100
AcDbLine
 10
21.23011010979405
 20
6.419209284760666
 30
0.0
 11
21.57861010979415
 21
6.419209284760666
 31
0.0
  0
LINE
  5
1307
330
1F
100
AcDbEntity
  8
0
100
AcDbLine
 10
21.23011010979405
 20
4.68920928476067
 30
0.0
 11
21.23011010979405
 21
6.419209284760666
 31
0.0
  0
LINE
  5
1308
330
1F
100
AcDbEntity
  8
0
100
AcDbLine
 10
22.98011010979405
 20
4.689209284760668
 30
0.0
 11
22.63161010979415
 21
4.689209284760668
 31
0.0
  0
LINE
  5
1309
330
1F
100
AcDbEntity
  8
0
100
AcDbLine
 10
22.98011010979405
 20
6.419209284760666
 30
0.0
 11
22.98011010979405
 21
4.689209284760668
 31
0.0
  0
LINE
  5
130A
330
1F
100
AcDbEntity
  8
0
100
AcDbLine
 10
22.63161010979415
 20
6.419209284760668
 30
0.0
 11
22.98011010979405
 21
6.419209284760666
 31
0.0
  0
LINE
  5
130B
330
1F
100
AcDbEntity
  8
0
100
AcDbLine
 10
22.63161010979415
 20
4.689209284760668
 30
0.0
 11
22.63161010979415
 21
6.419209284760668
 31
0.0
  0
LINE
  5
130C
330
1F
100
AcDbEntity
  8
0
100
AcDbLine
 10
22.63161010979415
 20
4.689209284760668
 30
0.0
 11
21.57861010979415
 21
4.68920928476067
 31
0.0
  0
LINE
  5
130D
330
1F
100
AcDbEntity
  8
0
100
AcDbLine
 10
21.57861010979415
 20
6.419209284760666
 30
0.0
 11
22.63161010979415
 21
6.419209284760668
 31
0.0
  0
CIRCLE
  5
130E
330
1F
100
AcDbEntity
  8
0
100
AcDbCircle
 10
22.49811010979415
 20
6.134209284760668
 30
0.0
 40
0.0925
  0
CIRCLE
  5
130F
330
1F
100
AcDbEntity
  8
0
100
AcDbCircle
 10
21.71111010979415
 20
6.13420928476067
 30
0.0
 40
0.0925
  0
CIRCLE
  5
1310
330
1F
100
AcDbEntity
  8
0
100
AcDbCircle
 10
22.49811010979415
 20
5.554209284760666
 30
0.0
 40
0.0925
  0
CIRCLE
  5
1311
330
1F
100
AcDbEntity
  8
0
100
AcDbCircle
 10
21.71111010979415
 20
5.554209284760668
 30
0.0
 40
0.0925
  0
CIRCLE
  5
1312
330
1F
100
AcDbEntity
  8
0
100
AcDbCircle
 10
22.49811010979415
 20
4.974209284760668
 30
0.0
 40
0.0925
  0
CIRCLE
  5
1313
330
1F
100
AcDbEntity
  8
0
100
AcDbCircle
 10
21.71111010979415
 20
4.97420928476067
 30
0.0
 40
0.0925
  0
LINE
  5
1314
330
1F
100
AcDbEntity
  8
0
100
AcDbLine
 10
21.13011010979401
 20
4.520209284760669
 30
0.0
 11
21.13011010979401
 21
6.520209284760669
 31
0.0
  0
LINE
  5
1315
330
1F
100
AcDbEntity
  8
0
100
AcDbLine
 10
21.13011010979401
 20
6.520209284760669
 30
0.0
 11
20.13011010979401
 21
6.520209284760669
 31
0.0
  0
LINE
  5
1316
330
1F
100
AcDbEntity
  8
0
100
AcDbLine
 10
20.13011010979401
 20
6.520209284760669
 30
0.0
 11
20.13011010979401
 21
4.520209284760669
 31
0.0
  0
LINE
  5
1317
330
1F
100
AcDbEntity
  8
0
100
AcDbLine
 10
21.13011010979401
 20
4.520209284760669
 30
0.0
 11
20.13011010979401
 21
4.520209284760669
 31
0.0
  0
LINE
  5
1318
330
1F
100
AcDbEntity
  8
0
100
AcDbLine
 10
21.74984317060767
 20
5.470209284760668
 30
0.0
 11
21.67237704898021
 21
5.470209284760668
 31
0.0
  0
LINE
  5
1319
330
1F
100
AcDbEntity
  8
0
100
AcDbLine
 10
21.23011010979394
 20
5.470209284760668
 30
0.0
 11
21.13011010979394
 21
5.470209284760668
 31
0.0
  0
LINE
  5
131A
330
1F
100
AcDbEntity
  8
0
100
AcDbLine
 10
21.8022158176283
 20
5.57020928476067
 30
0.0
 11
21.62000440195958
 21
5.57020928476067
 31
0.0
  0
LINE
  5
131B
330
1F
100
AcDbEntity
  8
0
100
AcDbLine
 10
21.23011010979394
 20
5.57020928476067
 30
0.0
 11
21.13011010979394
 21
5.57020928476067
 31
0.0
  0
LINE
  5
131C
330
1F
100
AcDbEntity
  8
0
100
AcDbLine
 10
21.23011010979394
 20
6.031209284760668
 30
0.0
 11
21.13011010979394
 21
6.031209284760668
 31
0.0
  0
LINE
  5
131D
330
1F
100
AcDbEntity
  8
0
100
AcDbLine
 10
21.80356144834563
 20
6.13120928476067
 30
0.0
 11
21.61865877124224
 21
6.13120928476067
 31
0.0
  0
LINE
  5
131E
330
1F
100
AcDbEntity
  8
0
100
AcDbLine
 10
21.23011010979394
 20
6.13120928476067
 30
0.0
 11
21.13011010979394
 21
6.13120928476067
 31
0.0
  0
LINE
  5
131F
330
1F
100
AcDbEntity
  8
0
100
AcDbLine
 10
21.77692234269938
 20
4.909209284760668
 30
0.0
 11
21.6452978768885
 21
4.909209284760668
 31
0.0
  0
LINE
  5
1320
330
1F
100
AcDbEntity
  8
0
100
AcDbLine
 10
21.23011010979394
 20
4.909209284760668
 30
0.0
 11
21.13011010979394
 21
4.909209284760668
 31
0.0
  0
LINE
  5
1321
330
1F
100
AcDbEntity
  8
0
100
AcDbLine
 10
21.79673282874166
 20
5.009209284760668
 30
0.0
 11
21.62548739084622
 21
5.009209284760668
 31
0.0
  0
LINE
  5
1322
330
1F
100
AcDbEntity
  8
0
100
AcDbLine
 10
21.23011010979394
 20
5.009209284760668
 30
0.0
 11
21.13011010979394
 21
5.009209284760668
 31
0.0
  0
LINE
  5
1323
330
1F
100
AcDbEntity
  8
0
100
AcDbLine
 10
15.6582511221841
 20
-1.232303517099257
 30
0.0
 11
15.6582511221841
 21
2.277696482900738
 31
0.0
  0
LINE
  5
1324
330
1F
100
AcDbEntity
  8
0
100
AcDbLine
 10
15.7382511221841
 20
2.277696482900738
 30
0.0
 11
15.7382511221841
 21
-1.232303517099257
 31
0.0
  0
LINE
  5
1325
330
1F
100
AcDbEntity
  8
0
100
AcDbLine
 10
15.7382511221841
 20
-1.232303517099257
 30
0.0
 11
15.6582511221841
 21
-1.232303517099257
 31
0.0
  0
LINE
  5
1326
330
1F
100
AcDbEntity
  8
0
100
AcDbLine
 10
15.7382511221841
 20
2.277696482900738
 30
0.0
 11
15.6582511221841
 21
2.277696482900738
 31
0.0
  0
LINE
  5
1327
330
1F
100
AcDbEntity
  8
0
100
AcDbLine
 10
7.388251122184101
 20
0.3466964829007395
 30
0.0
 11
7.388251122184102
 21
0.6986964829007416
 31
0.0
  0
LINE
  5
1328
330
1F
100
AcDbEntity
  8
0
100
AcDbLine
 10
7.448251122184101
 20
0.7586964829007421
 30
0.0
 11
7.448251122184101
 21
0.2866964829007408
 31
0.0
  0
LINE
  5
1329
330
1F
100
AcDbEntity
  8
0
100
AcDbLine
 10
7.388251122184102
 20
0.6986964829007416
 30
0.0
 11
7.448251122184101
 21
0.7586964829007421
 31
0.0
  0
LINE
  5
132A
330
1F
100
AcDbEntity
  8
0
100
AcDbLine
 10
7.388251122184101
 20
0.3466964829007395
 30
0.0
 11
7.448251122184101
 21
0.2866964829007408
 31
0.0
  0
LINE
  5
132B
330
1F
100
AcDbEntity
  8
0
100
AcDbLine
 10
8.0182511221841
 20
-1.152303517099259
 30
0.0
 11
8.018251122184102
 21
2.19769648290074
 31
0.0
  0
LINE
  5
132C
330
1F
100
AcDbEntity
  8
0
100
AcDbLine
 10
15.6582511221841
 20
-1.152303517099259
 30
0.0
 11
8.0182511221841
 21
-1.152303517099259
 31
0.0
  0
LINE
  5
132D
330
1F
100
AcDbEntity
  8
0
100
AcDbLine
 10
15.6582511221841
 20
2.197696482900738
 30
0.0
 11
8.0182511221841
 21
2.19769648290074
 31
0.0
  0
LINE
  5
132E
330
1F
100
AcDbEntity
  8
0
100
AcDbLine
 10
8.018251122184102
 20
0.2866964829007408
 30
0.0
 11
7.448251122184101
 21
0.2866964829007408
 31
0.0
  0
LINE
  5
132F
330
1F
100
AcDbEntity
  8
0
100
AcDbLine
 10
8.018251122184102
 20
0.7586964829007421
 30
0.0
 11
7.448251122184101
 21
0.7586964829007421
 31
0.0
  0
LINE
  5
1330
330
1F
100
AcDbEntity
  8
0
100
AcDbLine
 10
17.08825112218409
 20
1.024196482900459
 30
0.0
 11
16.7397511221841
 21
1.37269648290046
 31
0.0
  0
LINE
  5
1331
330
1F
100
AcDbEntity
  8
0
100
AcDbLine
 10
16.7397511221841
 20
-0.3773035170995378
 30
0.0
 11
17.08825112218409
 21
-0.02880351709954
 31
0.0
  0
LINE
  5
1332
330
1F
100
AcDbEntity
  8
0
100
AcDbLine
 10
17.08825112218409
 20
-0.02880351709954
 30
0.0
 11
17.08825112218409
 21
1.024196482900459
 31
0.0
  0
LINE
  5
1333
330
1F
100
AcDbEntity
  8
0
100
AcDbLine
 10
15.7382511221841
 20
1.37269648290046
 30
0.0
 11
16.7397511221841
 21
1.37269648290046
 31
0.0
  0
LINE
  5
1334
330
1F
100
AcDbEntity
  8
0
100
AcDbLine
 10
15.7382511221841
 20
-0.3773035170995378
 30
0.0
 11
16.7397511221841
 21
-0.3773035170995378
 31
0.0
  0
LINE
  5
1335
330
1F
100
AcDbEntity
  8
0
100
AcDbLine
 10
16.1182511221841
 20
1.47269648290041
 30
0.0
 11
16.6182511221841
 21
1.47269648290041
 31
0.0
  0
LINE
  5
1336
330
1F
100
AcDbEntity
  8
0
100
AcDbLine
 10
16.1182511221841
 20
1.47269648290041
 30
0.0
 11
16.1182511221841
 21
2.47269648290041
 31
0.0
  0
LINE
  5
1337
330
1F
100
AcDbEntity
  8
0
100
AcDbLine
 10
16.6182511221841
 20
1.47269648290041
 30
0.0
 11
16.6182511221841
 21
2.47269648290041
 31
0.0
  0
LINE
  5
1338
330
1F
100
AcDbEntity
  8
0
100
AcDbLine
 10
16.6182511221841
 20
2.47269648290041
 30
0.0
 11
16.1182511221841
 21
2.47269648290041
 31
0.0
  0
LINE
  5
1339
330
1F
100
AcDbEntity
  8
0
100
AcDbLine
 10
16.31825112218409
 20
1.37269648290054
 30
0.0
 11
16.31825112218409
 21
1.47269648290054
 31
0.0
  0
LINE
  5
133A
330
1F
100
AcDbEntity
  8
0
100
AcDbLine
 10
16.4182511221841
 20
1.37269648290054
 30
0.0
 11
16.4182511221841
 21
1.47269648290054
 31
0.0
  0
MTEXT
  5
133B
330
1F
100
AcDbEntity
  8
Symbol (ANSI)
100
AcDbMText
 10
19.84978322598484
 20
0.5036180362998444
 30
0.0
 40
0.3100393559989028
 41
3.519725424098217
 46
0.0
 71
     1
 72
     1
  1
{\fTahoma|b0|i0;\H0.3100;10 KVAR ASC CAP \PTCI PART# 27607}
  7
Note Text (ANSI)
 73
     2
 44
0.9878842234611511
  0
DIMENSION
  5
133C
330
1F
100
AcDbEntity
  8
Dimension (ANSI)
 62
     3
100
AcDbDimension
280
     0
  2
*D4
 10
10.93748188964617
 20
3.953209284763591
 30
0.0
 11
10.93748188964617
 21
5.628209284763592
 31
0.0
 70
   160
  1
<>
 42
3.35
 73
     0
 74
     0
 75
     0
  3
AM_ANSI
100
AcDbAlignedDimension
 13
10.93748188964617
 23
7.303209284763591
 33
0.0
 14
10.93748188964617
 24
3.953209284763591
 34
0.0
 50
90.0
100
AcDbRotatedDimension
1001
ACAD
1000
DSTYLE
1002
{
1070
    40
1040
2.0
1070
   271
1070
     2
1070
   272
1070
     2
1070
   274
1070
     2
1002
}
  0
DIMENSION
  5
133D
330
1F
100
AcDbEntity
  8
Dimension (ANSI)
 62
     3
100
AcDbDimension
280
     0
  2
*D5
 10
15.7382511221841
 20
8.024363121240332
 30
0.0
 11
11.8782511221841
 21
8.024363121240332
 31
0.0
 70
   160
  1
<>
 42
7.719999999999998
 73
     0
 74
     0
 75
     0
  3
AM_ANSI
100
AcDbAlignedDimension
 13
8.018251122184102
 23
7.303209284763591
 33
0.0
 14
15.7382511221841
 24
7.383209284763589
 34
0.0
 50
180.0
100
AcDbRotatedDimension
1001
ACAD
1000
DSTYLE
1002
{
1070
    40
1040
2.0
1070
   271
1070
     2
1070
   272
1070
     2
1070
   274
1070
     2
1002
}
  0
DIMENSION
  5
133E
330
1F
100
AcDbEntity
  8
Dimension (ANSI)
 62
     3
100
AcDbDimension
280
     0
  2
*D6
 10
8.018251122184102
 20
9.188209270386181
 30
0.0
 11
12.5532511221841
 21
9.188209270386181
 31
0.0
 70
   160
  1
<>
 42
9.069999999999998
 73
     0
 74
     0
 75
     0
  3
AM_ANSI
100
AcDbAlignedDimension
 13
17.0882511221841
 23
6.419209284763587
 33
0.0
 14
8.018251122184102
 24
7.303209284763591
 34
0.0
 50
180.0
100
AcDbRotatedDimension
1001
ACAD
1000
DSTYLE
1002
{
1070
    40
1040
2.0
1070
   271
1070
     2
1070
   272
1070
     2
1070
   274
1070
     2
1002
}
  0
LINE
  5
1340
330
1F
100
AcDbEntity
  8
0
100
AcDbLine
 10
7.8932511221841
 20
0.7394159426594307
 30
0.0
 11
7.660251122184101
 21
0.7394159426594307
 31
0.0
  0
LINE
  5
1341
330
1F
100
AcDbEntity
  8
0
100
AcDbLine
 10
7.8932511221841
 20
0.3092942560148018
 30
0.0
 11
7.660251122184101
 21
0.3092942560148018
 31
0.0
  0
LINE
  5
1342
330
1F
100
AcDbEntity
  8
0
100
AcDbLine
 10
7.8932511221841
 20
0.092574796256109
 30
0.0
 11
7.6602511221841
 21
0.092574796256109
 31
0.0
  0
LINE
  5
1343
330
1F
100
AcDbEntity
  8
0
100
AcDbLine
 10
7.660251122184101
 20
0.3059770231420487
 30
0.0
 11
7.6602511221841
 21
0.092574796256109
 31
0.0
  0
LINE
  5
1344
330
1F
100
AcDbEntity
  8
0
100
AcDbLine
 10
7.8932511221841
 20
0.3059770231420487
 30
0.0
 11
7.660251122184101
 21
0.3059770231420487
 31
0.0
  0
LINE
  5
1345
330
1F
100
AcDbEntity
  8
0
100
AcDbLine
 10
7.660251122184101
 20
0.7360987097866812
 30
0.0
 11
7.660251122184101
 21
0.3059770231420487
 31
0.0
  0
LINE
  5
1346
330
1F
100
AcDbEntity
  8
0
100
AcDbLine
 10
7.8932511221841
 20
0.7360987097866812
 30
0.0
 11
7.660251122184101
 21
0.7360987097866812
 31
0.0
  0
LINE
  5
1347
330
1F
100
AcDbEntity
  8
0
100
AcDbLine
 10
7.660251122184101
 20
0.9528181695453703
 30
0.0
 11
7.660251122184101
 21
0.7360987097866812
 31
0.0
  0
LINE
  5
1348
330
1F
100
AcDbEntity
  8
0
100
AcDbLine
 10
7.8932511221841
 20
0.9528181695453703
 30
0.0
 11
7.660251122184101
 21
0.9528181695453703
 31
0.0
  0
LINE
  5
1349
330
1F
100
AcDbEntity
  8
0
100
AcDbLine
 10
7.8932511221841
 20
0.3059770231420487
 30
0.0
 11
7.8932511221841
 21
0.092574796256109
 31
0.0
  0
LINE
  5
134A
330
1F
100
AcDbEntity
  8
0
100
AcDbLine
 10
7.8932511221841
 20
0.7360987097866812
 30
0.0
 11
7.8932511221841
 21
0.3059770231420487
 31
0.0
  0
LINE
  5
134B
330
1F
100
AcDbEntity
  8
0
100
AcDbLine
 10
7.8932511221841
 20
0.9528181695453703
 30
0.0
 11
7.8932511221841
 21
0.7360987097866812
 31
0.0
  0
LINE
  5
134C
330
1F
100
AcDbEntity
  8
0
100
AcDbLine
 10
7.893251122184101
 20
5.844928744522279
 30
0.0
 11
7.660251122184102
 21
5.844928744522279
 31
0.0
  0
LINE
  5
134D
330
1F
100
AcDbEntity
  8
0
100
AcDbLine
 10
7.893251122184101
 20
5.41480705787765
 30
0.0
 11
7.660251122184102
 21
5.41480705787765
 31
0.0
  0
LINE
  5
134E
330
1F
100
AcDbEntity
  8
0
100
AcDbLine
 10
7.893251122184101
 20
5.198087598118958
 30
0.0
 11
7.660251122184102
 21
5.198087598118958
 31
0.0
  0
LINE
  5
134F
330
1F
100
AcDbEntity
  8
0
100
AcDbLine
 10
7.660251122184102
 20
5.411489825004897
 30
0.0
 11
7.660251122184102
 21
5.198087598118958
 31
0.0
  0
LINE
  5
1350
330
1F
100
AcDbEntity
  8
0
100
AcDbLine
 10
7.893251122184101
 20
5.411489825004897
 30
0.0
 11
7.660251122184102
 21
5.411489825004897
 31
0.0
  0
LINE
  5
1351
330
1F
100
AcDbEntity
  8
0
100
AcDbLine
 10
7.660251122184102
 20
5.84161151164953
 30
0.0
 11
7.660251122184102
 21
5.411489825004897
 31
0.0
  0
LINE
  5
1352
330
1F
100
AcDbEntity
  8
0
100
AcDbLine
 10
7.893251122184101
 20
5.84161151164953
 30
0.0
 11
7.660251122184102
 21
5.84161151164953
 31
0.0
  0
LINE
  5
1353
330
1F
100
AcDbEntity
  8
0
100
AcDbLine
 10
7.660251122184102
 20
6.058330971408219
 30
0.0
 11
7.660251122184102
 21
5.84161151164953
 31
0.0
  0
LINE
  5
1354
330
1F
100
AcDbEntity
  8
0
100
AcDbLine
 10
7.893251122184101
 20
6.058330971408219
 30
0.0
 11
7.660251122184102
 21
6.058330971408219
 31
0.0
  0
LINE
  5
1355
330
1F
100
AcDbEntity
  8
0
100
AcDbLine
 10
7.893251122184101
 20
5.411489825004897
 30
0.0
 11
7.893251122184101
 21
5.198087598118958
 31
0.0
  0
LINE
  5
1356
330
1F
100
AcDbEntity
  8
0
100
AcDbLine
 10
7.893251122184101
 20
5.84161151164953
 30
0.0
 11
7.893251122184101
 21
5.411489825004897
 31
0.0
  0
LINE
  5
1357
330
1F
100
AcDbEntity
  8
0
100
AcDbLine
 10
7.893251122184101
 20
6.058330971408219
 30
0.0
 11
7.893251122184101
 21
5.84161151164953
 31
0.0
  0
ACAD_PROXY_ENTITY
  5
13FF
330
1F
100
AcDbEntity
  8
AM_5
 62
     7
100
AcDbProxyEntity
 90
      498
 91
      567
 95
  7143453
 70
     0
160
               512
310
000200001C0000000C00000016000000070000C30C00000013000000010000000C00000016000000000000C50C00000012000000FF7F00000C00000017000000FFFFFFFF3C00000006000000020000006BAC080E9144204018280909CCCA0A4000000000000000004C271DBCD825204018280909CCCA0A4000000000000000
310
000C00000016000000070000C30C00000013000000020000000C00000016000000000000C50C00000012000000FF7F00000C00000017000000FFFFFFFF3C00000006000000020000004C271DBCD825204018280909CCCA0A400000000000000000BB7BF7979F181E401A8F8598DF52154000000000000000000C0000001600
310
0000070000C30C00000013000000030000000C00000016000000000000C50C00000012000000000000000C00000014000000010000000C00000017000000FFFFFFFF54000000070000000300000064748D8DE3041E4040C44EED654D15400000000000000000128361A25B2C1E40F559BC4359581540000000000000000038
310
86AC94C5F71D405CAD09D747C9154000000000000000000C00000016000000070000C30C00000012000000FF7F00000C00000013000000102700000C00000012000000FF7F00000C00000017000000FFFFFFFF0C00000012000000FF7F00000C00000017000000000000000C00000016000000070000C30C00000013000000
310
00000000
162
                 2
311
8C
161
              1359
310
6DC3886AC94C5F71D40172B4275D1F2455026A6A54051F8000000C8002E07A17AD46E2B8FEA1309C76F36094810018280909CCCA0A409018FFFFFFFF0E21AB25317DC75005CAD09D747C91540A8FFFFFFFF8000000000001E17E7FFFFFFFC7EFFA0226138EDE6C12902003050121399941481148C2000000000DF000438451
310
8FA2FA4B19020124796EA15A8A168152D51703D0BD6A3717C7E80A0A5C0F42F5A8DC5F1FC80A903A802800
340
11F1
340
11FC
330
0
330
0
340
0
340
0
340
0
340
11
330
0
330
0
330
0
 94
        0
  0
MTEXT
  5
1400
330
1F
100
AcDbEntity
  8
Symbol (ANSI)
100
AcDbMText
 10
8.268337290111219
 20
3.486756552733893
 30
0.0
 40
0.3100393559989028
 41
3.519725424098217
 46
0.0
 71
     1
 72
     1
  1
{\H0.99987x;M12 X 1.75 STUD}
  7
Note Text (ANSI)
 73
     2
 44
0.9878842234611511
  0
VIEWPORT
  5
2E
330
1B
100
AcDbEntity
 67
     1
  8
0
100
AcDbViewport
 10
7.980617383318832
 20
4.973872139578862
 30
0.0
 40
22.37134289803407
 41
10.07002484496363
 68
     1
 69
     1
 12
7.980617383318832
 22
4.973872139578862
 13
0.0
 23
0.0
 14
0.5
 24
0.5
 15
0.5
 25
0.5
 16
0.0
 26
0.0
 36
1.0
 17
0.0
 27
0.0
 37
0.0
 42
50.0
 43
0.0
 44
0.0
 45
10.07002484496363
 50
0.0
 51
0.0
 72
   100
 90
    32832
  1

281
     0
 71
     1
 74
     0
110
0.0
120
0.0
130
0.0
111
1.0
121
0.0
131
0.0
112
0.0
122
1.0
132
0.0
 79
     0
146
0.0
170
     0
 61
     5
348
631
292
     1
282
     1
141
0.0
142
0.0
 63
   250
421
  3355443
  0
LINE
  5
4A6
330
1B
100
AcDbEntity
 67
     1
  8
BORDER
100
AcDbLine
 10
-0.018910355572956
 20
-0.0263756575647953
 30
0.0
 11
15.98108964442704
 21
-0.0263756575647953
 31
0.0
  0
LINE
  5
4A7
330
1B
100
AcDbEntity
 67
     1
  8
BORDER
100
AcDbLine
 10
15.98108964442704
 20
-0.0263756575647953
 30
0.0
 11
15.98108964442704
 21
9.973624342435204
 31
0.0
  0
LINE
  5
4A8
330
1B
100
AcDbEntity
 67
     1
  8
BORDER
100
AcDbLine
 10
15.98108964442704
 20
9.973624342435204
 30
0.0
 11
-0.018910355572956
 21
9.973624342435204
 31
0.0
  0
LINE
  5
4A9
330
1B
100
AcDbEntity
 67
     1
  8
BORDER
100
AcDbLine
 10
-0.018910355572956
 20
9.973624342435204
 30
0.0
 11
-0.018910355572956
 21
-0.0263756575647953
 31
0.0
  0
LWPOLYLINE
  5
4BA
330
1B
100
AcDbEntity
 67
     1
  8
BORDER
100
AcDbPolyline
 90
        3
 70
     0
 43
0.0
 10
7.231089644427044
 20
-0.0263756575647953
 10
15.98108964442704
 20
-0.0263756575647953
 10
15.98108964442704
 20
1.723624342435205
  0
INSERT
  5
1128
330
1B
100
AcDbEntity
 67
     1
  8
BORDER
 62
     7
100
AcDbBlockReference
 66
     1
  2
A$C04876F98
 10
7.231089663422742
 20
-0.0263756522452321
 30
0.0
  0
ATTRIB
  5
1129
330
1128
100
AcDbEntity
 67
     1
  8
0
100
AcDbText
 10
14.69983964442704
 20
0.2236243424352045
 30
0.0
 40
0.1875
  1
27607
 41
0.8000000000000001
100
AcDbAttribute
280
     0
  2
DWGNO
 70
     0
280
     0
  0
ATTRIB
  5
112A
330
1128
100
AcDbEntity
 67
     1
  8
0
100
AcDbText
 10
12.63733964442704
 20
0.2548743424352045
 30
0.0
 40
0.125
  1
DSW
 41
0.8
100
AcDbAttribute
280
     0
  2
DRNBY
 70
     0
280
     0
  0
ATTRIB
  5
112B
330
1128
100
AcDbEntity
 67
     1
  8
0
100
AcDbText
 10
13.48108964442704
 20
0.2548743424352045
 30
0.0
 40
0.125
  1
8/15/2013
 41
0.7340425531914892
 72
     5
 11
14.19983964442704
 21
0.2548743424352045
 31
0.0
100
AcDbAttribute
280
     0
  2
DATE
 70
     0
280
     0
  0
ATTRIB
  5
112C
330
1128
100
AcDbEntity
 67
     1
  8
0
100
AcDbText
 10
12.57483964442704
 20
0.0048743424352045
 30
0.0
 40
0.125
  1
TO FIT
 41
0.8
100
AcDbAttribute
280
     0
  2
SCALE
 70
     0
280
     0
  0
ATTRIB
  5
112D
330
1128
100
AcDbEntity
 67
     1
  8
0
100
AcDbText
 10
13.57483964442704
 20
0.0048743424352045
 30
0.0
 40
0.125
  1

 41
0.8
100
AcDbAttribute
280
     0
  2
APRVD
 70
     0
280
     0
  0
ATTRIB
  5
112E
330
1128
100
AcDbEntity
 67
     1
  8
0
100
AcDbText
 10
15.32483964442704
 20
0.0048743424352045
 30
0.0
 40
0.125
  1
1
 41
0.8
100
AcDbAttribute
280
     0
  2
SHT
 70
     0
280
     0
  0
ATTRIB
  5
112F
330
1128
100
AcDbEntity
 67
     1
  8
0
100
AcDbText
 10
15.69983964442704
 20
0.0048743424352045
 30
0.0
 40
0.125
  1
1
 41
0.8
100
AcDbAttribute
280
     0
  2
OFSHT
 70
     0
280
     0
  0
ATTRIB
  5
1130
330
1128
100
AcDbEntity
 67
     1
  8
0
100
AcDbText
 10
12.38733964442704
 20
0.8486243424352045
 30
0.0
 40
0.1875
  1
10 KVAR 480V 
 41
0.8000000000000001
100
AcDbAttribute
280
     0
  2
DESC1
 70
     0
280
     0
  0
ATTRIB
  5
1131
330
1128
100
AcDbEntity
 67
     1
  8
0
100
AcDbText
 10
12.38733964442704
 20
0.5673743424352045
 30
0.0
 40
0.1875
  1
ASC CAPACITOR
 41
0.8000000000000001
100
AcDbAttribute
280
     0
  2
DESC2
 70
     0
280
     0
  0
ATTRIB
  5
1132
330
1128
100
AcDbEntity
 67
     1
  8
0
100
AcDbText
 10
11.76233964442704
 20
1.067374342435204
 30
0.0
 40
0.125
  1
.03
 41
0.8
100
AcDbAttribute
280
     0
  2
TOLXX
 70
     0
280
     0
  0
ATTRIB
  5
1133
330
1128
100
AcDbEntity
 67
     1
  8
0
100
AcDbText
 10
11.76233964442704
 20
0.8173743424352045
 30
0.0
 40
0.125
  1
.01
 41
0.8
100
AcDbAttribute
280
     0
  2
TOLXXX
 70
     0
280
     0
  0
ATTRIB
  5
1134
330
1128
100
AcDbEntity
 67
     1
  8
0
100
AcDbText
 10
11.51233964442704
 20
0.4423743424352045
 30
0.0
 40
0.125
  1
1/32
 41
0.8
100
AcDbAttribute
280
     0
  2
TOLFRAC
 70
     0
280
     0
  0
ATTRIB
  5
1135
330
1128
100
AcDbEntity
 67
     1
  8
0
100
AcDbText
 10
11.51233964442704
 20
0.0673743424352045
 30
0.0
 40
0.125
  1
1/2%%d
 41
0.8
100
AcDbAttribute
280
     0
  2
TOLANG
 70
     0
280
     0
  0
ATTRIB
  5
1136
330
1128
100
AcDbEntity
 67
     1
  8
0
100
AcDbText
 10
14.38733964442704
 20
0.0673743424352045
 30
0.0
 40
0.25
  1
B
 41
0.8
100
AcDbAttribute
280
     0
  2
DWG.SIZE
 70
     0
280
     0
  0
SEQEND
  5
1137
330
1128
100
AcDbEntity
 67
     1
  8
BORDER
 62
     7
  0
SPLINE
  5
1138
330
1B
100
AcDbEntity
 67
     1
  8
BORDER
 62
     4
100
AcDbSpline
210
0.0
220
0.0
230
1.0
 70
    24
 71
     3
 72
     8
 73
     4
 74
     0
 42
0.000000001
 43
0.0000000001
 40
2.0
 40
2.0
 40
2.0
 40
2.0
 40
3.0
 40
3.0
 40
3.0
 40
3.0
 10
13.12119120329752
 20
1.376877802685146
 30
0.0
 10
13.12119120329752
 20
1.376877802685146
 30
0.0
 10
13.12118500753788
 20
1.376877802685146
 30
0.0
 10
13.12118500753788
 20
1.376877802685146
 30
0.0
  0
SPLINE
  5
1139
330
1B
100
AcDbEntity
 67
     1
  8
BORDER
 62
     4
100
AcDbSpline
210
0.0
220
0.0
230
1.0
 70
     8
 71
     3
 72
     8
 73
     4
 74
     0
 42
0.000000001
 43
0.0000000001
 40
3.0
 40
3.0
 40
3.0
 40
3.0
 40
4.0
 40
4.0
 40
4.0
 40
4.0
 10
13.12118500753788
 20
1.376877802685146
 30
0.0
 10
13.12016270719636
 20
1.378451525635124
 30
0.0
 10
13.11925812628811
 20
1.380124380739425
 30
0.0
 10
13.11842169873595
 20
1.381846801920895
 30
0.0
  0
SPLINE
  5
113A
330
1B
100
AcDbEntity
 67
     1
  8
BORDER
 62
     4
100
AcDbSpline
210
0.0
220
0.0
230
1.0
 70
     8
 71
     3
 72
     8
 73
     4
 74
     0
 42
0.000000001
 43
0.0000000001
 40
4.0
 40
4.0
 40
4.0
 40
4.0
 40
5.0
 40
5.0
 40
5.0
 40
5.0
 10
13.11842169873595
 20
1.381846801920895
 30
0.0
 10
13.11819245562907
 20
1.38231767965396
 30
0.0
 10
13.1180065828397
 20
1.382825731944896
 30
0.0
 10
13.1177897312521
 20
1.38330900119725
 30
0.0
  0
SPLINE
  5
113B
330
1B
100
AcDbEntity
 67
     1
  8
BORDER
 62
     4
100
AcDbSpline
210
0.0
220
0.0
230
1.0
 70
     8
 71
     3
 72
     8
 73
     4
 74
     0
 42
0.000000001
 43
0.0000000001
 40
5.0
 40
5.0
 40
5.0
 40
5.0
 40
6.0
 40
6.0
 40
6.0
 40
6.0
 10
13.1177897312521
 20
1.38330900119725
 30
0.0
 10
13.11722591712436
 20
1.384597719203529
 30
0.0
 10
13.11668069027555
 20
1.385898828729099
 30
0.0
 10
13.11620981254248
 20
1.387249504331833
 30
0.0
  0
SPLINE
  5
113C
330
1B
100
AcDbEntity
 67
     1
  8
BORDER
 62
     4
100
AcDbSpline
210
0.0
220
0.0
230
1.0
 70
     8
 71
     3
 72
     8
 73
     4
 74
     0
 42
0.000000001
 43
0.0000000001
 40
6.0
 40
6.0
 40
6.0
 40
6.0
 40
7.0
 40
7.0
 40
7.0
 40
7.0
 10
13.11620981254248
 20
1.387249504331833
 30
0.0
 10
13.11599915671453
 20
1.387831905738517
 30
0.0
 10
13.11582567544446
 20
1.388439090183782
 30
0.0
 10
13.11563980265509
 20
1.389046274629048
 30
0.0
  0
SPLINE
  5
113D
330
1B
100
AcDbEntity
 67
     1
  8
BORDER
 62
     4
100
AcDbSpline
210
0.0
220
0.0
230
1.0
 70
     8
 71
     3
 72
     8
 73
     4
 74
     0
 42
0.000000001
 43
0.0000000001
 40
7.0
 40
7.0
 40
7.0
 40
7.0
 40
8.0
 40
8.0
 40
8.0
 40
8.0
 10
13.11563980265509
 20
1.389046274629048
 30
0.0
 10
13.11521849099919
 20
1.3903721671932
 30
0.0
 10
13.11482815814152
 20
1.391729038555579
 30
0.0
 10
13.11449978288031
 20
1.393116888716189
 30
0.0
  0
SPLINE
  5
113E
330
1B
100
AcDbEntity
 67
     1
  8
BORDER
 62
     4
100
AcDbSpline
210
0.0
220
0.0
230
1.0
 70
     8
 71
     3
 72
     8
 73
     4
 74
     0
 42
0.000000001
 43
0.0000000001
 40
8.0
 40
8.0
 40
8.0
 40
8.0
 40
9.0
 40
9.0
 40
9.0
 40
9.0
 10
13.11449978288031
 20
1.393116888716189
 30
0.0
 10
13.11435108464882
 20
1.393711681642162
 30
0.0
 10
13.11422097369626
 20
1.394306474568139
 30
0.0
 10
13.1140908627437
 20
1.394901267494114
 30
0.0
  0
SPLINE
  5
113F
330
1B
100
AcDbEntity
 67
     1
  8
BORDER
 62
     4
100
AcDbSpline
210
0.0
220
0.0
230
1.0
 70
     8
 71
     3
 72
     8
 73
     4
 74
     0
 42
0.000000001
 43
0.0000000001
 40
9.0
 40
9.0
 40
9.0
 40
9.0
 40
10.0
 40
10.0
 40
10.0
 40
10.0
 10
13.1140908627437
 20
1.394901267494114
 30
0.0
 10
13.11376868324213
 20
1.396400641328342
 30
0.0
 10
13.11348367829843
 20
1.397924798201152
 30
0.0
 10
13.11326063095119
 20
1.399473738112545
 30
0.0
  0
SPLINE
  5
1140
330
1B
100
AcDbEntity
 67
     1
  8
BORDER
 62
     4
100
AcDbSpline
210
0.0
220
0.0
230
1.0
 70
     8
 71
     3
 72
     8
 73
     4
 74
     0
 42
0.000000001
 43
0.0000000001
 40
10.0
 40
10.0
 40
10.0
 40
10.0
 40
11.0
 40
11.0
 40
11.0
 40
11.0
 10
13.11326063095119
 20
1.399473738112545
 30
0.0
 10
13.11318628183545
 20
1.399969398884189
 30
0.0
 10
13.11309954120041
 20
1.400465059655837
 30
0.0
 10
13.11303758360395
 20
1.40096072042748
 30
0.0
  0
SPLINE
  5
1141
330
1B
100
AcDbEntity
 67
     1
  8
BORDER
 62
     4
100
AcDbSpline
210
0.0
220
0.0
230
1.0
 70
     8
 71
     3
 72
     8
 73
     4
 74
     0
 42
0.000000001
 43
0.0000000001
 40
11.0
 40
11.0
 40
11.0
 40
11.0
 40
12.0
 40
12.0
 40
12.0
 40
12.0
 10
13.11303758360395
 20
1.40096072042748
 30
0.0
 10
13.11278975321813
 20
1.402807056801861
 30
0.0
 10
13.11260388042876
 20
1.404678176214824
 30
0.0
 10
13.1124737694762
 20
1.40657407866637
 30
0.0
  0
SPLINE
  5
1142
330
1B
100
AcDbEntity
 67
     1
  8
BORDER
 62
     4
100
AcDbSpline
210
0.0
220
0.0
230
1.0
 70
     8
 71
     3
 72
     8
 73
     4
 74
     0
 42
0.000000001
 43
0.0000000001
 40
12.0
 40
12.0
 40
12.0
 40
12.0
 40
13.0
 40
13.0
 40
13.0
 40
13.0
 10
13.1124737694762
 20
1.40657407866637
 30
0.0
 10
13.11246137795691
 20
1.40679712601361
 30
0.0
 10
13.11244279067798
 20
1.407007781841559
 30
0.0
 10
13.11242420339904
 20
1.407230829188801
 30
0.0
  0
SPLINE
  5
1143
330
1B
100
AcDbEntity
 67
     1
  8
BORDER
 62
     4
100
AcDbSpline
210
0.0
220
0.0
230
1.0
 70
     8
 71
     3
 72
     8
 73
     4
 74
     0
 42
0.000000001
 43
0.0000000001
 40
13.0
 40
13.0
 40
13.0
 40
13.0
 40
14.0
 40
14.0
 40
14.0
 40
14.0
 10
13.11242420339904
 20
1.407230829188801
 30
0.0
 10
13.11200908750279
 20
1.413996598721764
 30
0.0
 10
13.11226311364826
 20
1.421084547756295
 30
0.0
 10
13.1130437793636
 20
1.428197279829411
 30
0.0
  0
SPLINE
  5
1144
330
1B
100
AcDbEntity
 67
     1
  8
BORDER
 62
     4
100
AcDbSpline
210
0.0
220
0.0
230
1.0
 70
     8
 71
     3
 72
     8
 73
     4
 74
     0
 42
0.000000001
 43
0.0000000001
 40
14.0
 40
14.0
 40
14.0
 40
14.0
 40
15.0
 40
15.0
 40
15.0
 40
15.0
 10
13.1130437793636
 20
1.428197279829411
 30
0.0
 10
13.11681699698775
 20
1.423885031116095
 30
0.0
 10
13.11949356515464
 20
1.420824325851182
 30
0.0
 10
13.11949356515464
 20
1.420824325851182
 30
0.0
  0
SPLINE
  5
1145
330
1B
100
AcDbEntity
 67
     1
  8
BORDER
 62
     4
100
AcDbSpline
210
0.0
220
0.0
230
1.0
 70
     8
 71
     3
 72
     8
 73
     4
 74
     0
 42
0.000000001
 43
0.0000000001
 40
15.0
 40
15.0
 40
15.0
 40
15.0
 40
16.0
 40
16.0
 40
16.0
 40
16.0
 10
13.11949356515464
 20
1.420824325851182
 30
0.0
 10
13.13896683772067
 20
1.398507199607837
 30
0.0
 10
13.15816749686229
 20
1.376506057106414
 30
0.0
 10
13.17737435176356
 20
1.356022875718156
 30
0.0
  0
SPLINE
  5
1146
330
1B
100
AcDbEntity
 67
     1
  8
BORDER
 62
     4
100
AcDbSpline
210
0.0
220
0.0
230
1.0
 70
     8
 71
     3
 72
     8
 73
     4
 74
     0
 42
0.000000001
 43
0.0000000001
 40
16.0
 40
16.0
 40
16.0
 40
16.0
 40
17.0
 40
17.0
 40
17.0
 40
17.0
 10
13.17737435176356
 20
1.356022875718156
 30
0.0
 10
13.17566432210138
 20
1.355985701160282
 30
0.0
 10
13.17405342459354
 20
1.355886569005953
 30
0.0
 10
13.17230622037348
 20
1.355886569005953
 30
0.0
  0
HATCH
  5
1147
330
1B
100
AcDbEntity
 67
     1
  8
BORDER
 62
     4
100
AcDbHatch
 10
0.0
 20
0.0
 30
0.0
210
0.0
220
0.0
230
1.0
  2
SOLID
 70
     1
 71
     0
 91
        1
 92
        1
 93
        1
 72
     4
 94
        3
 73
     0
 74
     0
 95
       26
 96
       22
 40
0.0
 40
0.0
 40
0.0
 40
0.0
 40
1.0
 40
1.0
 40
1.0
 40
2.0
 40
2.0
 40
2.0
 40
3.0
 40
3.0
 40
3.0
 40
4.0
 40
4.0
 40
4.0
 40
5.0
 40
5.0
 40
5.0
 40
6.0
 40
6.0
 40
6.0
 40
7.0
 40
7.0
 40
7.0
 40
7.0
 10
12.59738309558203
 20
1.468308627774834
 10
12.65378309563566
 20
1.525978758555808
 10
12.78695475345756
 20
1.651201256752441
 10
12.88016995732517
 20
1.651201256752441
 10
12.92094425155267
 20
1.651201256752441
 10
12.95940752743238
 20
1.6305569856134
 10
12.99725122734752
 20
1.598971002940281
 10
12.99725122734752
 20
1.598971002940281
 10
13.02566498108211
 20
1.681337431668497
 10
13.02566498108211
 20
1.681337431668497
 10
13.02566498108211
 20
1.681337431668497
 10
12.48914937033355
 20
1.681337431668497
 10
12.48914937033355
 20
1.681337431668497
 10
12.48914937033355
 20
1.681337431668497
 10
12.45389549795025
 20
1.57909500599729
 10
12.45389549795025
 20
1.57909500599729
 10
12.45389549795025
 20
1.57909500599729
 10
12.59562969560233
 20
1.57909500599729
 10
12.63560473683555
 20
1.57909500599729
 10
12.63016485986674
 20
1.563308210420375
 10
12.61484274626324
 20
1.518903201040569
 10
12.59738309558203
 20
1.468308627774834
 97
        0
 97
        0
 75
     2
 76
     1
 98
        1
 10
12.12639383884502
 20
0.2113996515164602
450
        0
451
        0
460
0.0
461
0.0
452
        0
462
0.0
453
        0
470

  0
HATCH
  5
1148
330
1B
100
AcDbEntity
 67
     1
  8
BORDER
 62
     4
100
AcDbHatch
 10
0.0
 20
0.0
 30
0.0
210
0.0
220
0.0
230
1.0
  2
SOLID
 70
     1
 71
     0
 91
        1
 92
        1
 93
        1
 72
     4
 94
        3
 73
     0
 74
     0
 95
       38
 96
       34
 40
0.0
 40
0.0
 40
0.0
 40
0.0
 40
1.0
 40
1.0
 40
1.0
 40
2.0
 40
2.0
 40
2.0
 40
3.0
 40
3.0
 40
3.0
 40
4.0
 40
4.0
 40
4.0
 40
5.0
 40
5.0
 40
5.0
 40
6.0
 40
6.0
 40
6.0
 40
7.0
 40
7.0
 40
7.0
 40
8.0
 40
8.0
 40
8.0
 40
9.0
 40
9.0
 40
9.0
 40
10.0
 40
10.0
 40
10.0
 40
11.0
 40
11.0
 40
11.0
 40
11.0
 10
13.11143288185575
 20
1.479993830466382
 10
13.11143288185575
 20
1.479993830466382
 10
13.12213295876365
 20
1.467751009406734
 10
13.12213295876365
 20
1.467751009406734
 10
13.12758522725175
 20
1.483228017001372
 10
13.16911540415601
 20
1.591077605151822
 10
13.26716330054717
 20
1.591077605151822
 10
13.31934398828217
 20
1.591077605151822
 10
13.3351060008205
 20
1.576567136061896
 10
13.33947401137063
 20
1.570321810339161
 10
13.3410601258399
 20
1.56805416230888
 10
13.34589281836344
 20
1.561139694544422
 10
13.34050870323144
 20
1.546449548424776
 10
13.34050870323144
 20
1.546449548424776
 10
13.33071940299144
 20
1.519721041313784
 10
13.33071940299144
 20
1.519721041313784
 10
13.33071940299144
 20
1.519721041313784
 10
13.51370496836373
 20
1.519721041313784
 10
13.51370496836373
 20
1.519721041313784
 10
13.51370496836373
 20
1.519721041313784
 10
13.51778177821051
 20
1.534219118884417
 10
13.51778177821051
 20
1.534219118884417
 10
13.52774455972059
 20
1.569541144623818
 10
13.52327122125649
 20
1.60003667359932
 10
13.50448567801112
 20
1.624844495220184
 10
13.47218098721911
 20
1.667520887658877
 10
13.39909580643996
 20
1.689156480341209
 10
13.28728093211634
 20
1.689156480341209
 10
13.17129631155126
 20
1.689156480341209
 10
13.07479115931184
 20
1.652341276527227
 10
13.01093146464494
 20
1.587062752901493
 10
13.04436997945209
 20
1.556815054311816
 10
13.07748631475767
 20
1.518890809521277
 10
13.11143288185575
 20
1.479993830466382
 97
        0
 97
        0
 75
     2
 76
     1
 98
        1
 10
12.12639383884502
 20
0.2113996515164602
450
        0
451
        0
460
0.0
461
0.0
452
        0
462
0.0
453
        0
470

  0
HATCH
  5
1149
330
1B
100
AcDbEntity
 67
     1
  8
BORDER
 62
     4
100
AcDbHatch
 10
0.0
 20
0.0
 30
0.0
210
0.0
220
0.0
230
1.0
  2
SOLID
 70
     1
 71
     0
 91
        1
 92
        1
 93
        1
 72
     4
 94
        3
 73
     0
 74
     0
 95
       17
 96
       13
 40
0.0
 40
0.0
 40
0.0
 40
0.0
 40
1.0
 40
1.0
 40
1.0
 40
2.0
 40
2.0
 40
2.0
 40
3.0
 40
3.0
 40
3.0
 40
4.0
 40
4.0
 40
4.0
 40
4.0
 10
13.58241594283311
 20
1.670011583036395
 10
13.58241594283311
 20
1.670011583036395
 10
13.45152432456078
 20
1.314052799879059
 10
13.45152432456078
 20
1.314052799879059
 10
13.54281264717862
 20
1.370099641632893
 10
13.64822110602872
 20
1.477094214952255
 10
13.68263855085986
 20
1.513203102166643
 10
13.68263855085986
 20
1.513203102166643
 10
13.74029629012154
 20
1.670011583036395
 10
13.74029629012154
 20
1.670011583036395
 10
13.74029629012154
 20
1.670011583036395
 10
13.58241594283311
 20
1.670011583036395
 10
13.58241594283311
 20
1.670011583036395
 97
        0
 97
        0
 75
     2
 76
     1
 98
        1
 10
12.12639383884502
 20
0.2113996515164602
450
        0
451
        0
460
0.0
461
0.0
452
        0
462
0.0
453
        0
470

  0
HATCH
  5
114A
330
1B
100
AcDbEntity
 67
     1
  8
BORDER
 62
     4
100
AcDbHatch
 10
0.0
 20
0.0
 30
0.0
210
0.0
220
0.0
230
1.0
  2
SOLID
 70
     1
 71
     0
 91
        2
 92
        1
 93
      248
 72
     1
 10
13.43867431905586
 20
1.279121106997329
 11
13.43865801257705
 21
1.279116280630286
 72
     1
 10
13.43865801257704
 20
1.279116280630286
 11
13.43863883660364
 21
1.279109453514724
 72
     1
 10
13.43863883660364
 20
1.279109453514724
 11
13.43577673644782
 21
1.277705933513995
 72
     1
 10
13.43577673644782
 20
1.277705933513995
 11
13.43140411947673
 21
1.275630271404953
 72
     1
 10
13.43140411947673
 20
1.275630271404953
 11
13.42834594197092
 21
1.274230378835387
 72
     1
 10
13.42834594197092
 20
1.274230378835386
 11
13.4279561167476
 21
1.274053185552059
 72
     1
 10
13.4279561167476
 20
1.274053185552059
 11
13.41979465331961
 21
1.270531718245089
 72
     1
 10
13.41979465331961
 20
1.270531718245089
 11
13.41131529765835
 21
1.26721075819959
 72
     1
 10
13.41131529765835
 20
1.26721075819959
 11
13.40778524332778
 21
1.265941532577728
 72
     1
 10
13.40778524332778
 20
1.265941532577728
 11
13.40745000834105
 21
1.265819580225096
 72
     1
 10
13.40745000834105
 20
1.265819580225096
 11
13.40616797758721
 21
1.265371182530263
 72
     1
 10
13.40616797758721
 20
1.265371182530263
 11
13.40216612784837
 21
1.264049710835749
 72
     1
 10
13.40216612784837
 20
1.264049710835749
 11
13.39818402233834
 21
1.262822590229327
 72
     1
 10
13.39818402233834
 20
1.262822590229327
 11
13.39737794709434
 21
1.262585350568885
 72
     1
 10
13.39737794709434
 20
1.262585350568885
 11
13.39689439374253
 21
1.262442896501409
 72
     1
 10
13.39689439374253
 20
1.262442896501408
 11
13.39227637132826
 21
1.261175351168462
 72
     1
 10
13.39227637132827
 20
1.261175351168462
 11
13.38449580578814
 21
1.259339951165796
 72
     1
 10
13.38449580578814
 20
1.259339951165796
 11
13.37830860551956
 21
1.258171509408096
 72
     1
 10
13.37830860551956
 20
1.258171509408096
 11
13.37768510056555
 21
1.258070336034832
 72
     1
 10
13.37768510056555
 20
1.258070336034833
 11
13.37706201682175
 21
1.257969583871783
 72
     1
 10
13.37706201682175
 20
1.257969583871783
 11
13.37387506796266
 21
1.257508873028928
 72
     1
 10
13.37387506796266
 20
1.257508873028928
 11
13.37030574061365
 21
1.257093195384632
 72
     1
 10
13.37030574061365
 20
1.257093195384632
 11
13.36824421490233
 21
1.256897017360845
 72
     1
 10
13.36824421490233
 20
1.256897017360845
 11
13.36758734336896
 21
1.256844180516433
 72
     1
 10
13.36758734336896
 20
1.256844180516433
 11
13.36643926735647
 21
1.256758235431508
 72
     1
 10
13.36643926735648
 20
1.256758235431508
 11
13.36282017968021
 21
1.256542118202409
 72
     1
 10
13.36282017968021
 20
1.256542118202409
 11
13.35923463086729
 21
1.256447098910037
 72
     1
 10
13.35923463086729
 20
1.256447098910036
 11
13.35583591173265
 21
1.256476078380796
 72
     1
 10
13.35583591173265
 20
1.256476078380796
 11
13.35247762547416
 21
1.25660029288668
 72
     1
 10
13.35247762547416
 20
1.25660029288668
 11
13.35030330047233
 21
1.256738310389436
 72
     1
 10
13.35030330047233
 20
1.256738310389436
 11
13.34947159562434
 21
1.25682319728976
 72
     1
 10
13.34947159562434
 20
1.25682319728976
 11
13.34843462956938
 21
1.256915366382525
 72
     1
 10
13.34843462956938
 20
1.256915366382525
 11
13.34590278258841
 21
1.257136178028449
 72
     1
 10
13.34590278258841
 20
1.257136178028449
 11
13.34337414733532
 21
1.257402585680116
 72
     1
 10
13.34337414733533
 20
1.257402585680116
 11
13.34217716216463
 21
1.257567888818936
 72
     1
 10
13.34217716216463
 20
1.257567888818937
 11
13.34137170925133
 21
1.257700834259032
 72
     1
 10
13.34137170925133
 20
1.257700834259032
 11
13.33982321154057
 21
1.257932394274697
 72
     1
 10
13.33982321154056
 20
1.257932394274697
 11
13.33726305612561
 21
1.258338092086835
 72
     1
 10
13.33726305612561
 20
1.258338092086835
 11
13.33485160540261
 21
1.258771241460493
 72
     1
 10
13.33485160540262
 20
1.258771241460494
 11
13.33417426455829
 21
1.258915140378835
 72
     1
 10
13.33417426455829
 20
1.258915140378835
 11
13.33350058297771
 21
1.259068674480838
 72
     1
 10
13.33350058297771
 20
1.259068674480837
 11
13.33136124827612
 21
1.259513734630833
 72
     1
 10
13.33136124827612
 20
1.259513734630833
 11
13.32867078928342
 21
1.260127014932299
 72
     1
 10
13.32867078928342
 20
1.260127014932299
 11
13.32680775739234
 21
1.260595552920793
 72
     1
 10
13.32680775739234
 20
1.260595552920793
 11
13.32630448440646
 21
1.260736030069685
 72
     1
 10
13.32630448440646
 20
1.260736030069685
 11
13.32573351064972
 21
1.260889325165498
 72
     1
 10
13.32573351064972
 20
1.260889325165498
 11
13.32286963871927
 21
1.261674561799894
 72
     1
 10
13.32286963871927
 20
1.261674561799894
 11
13.32001166373183
 21
1.262523822386926
 72
     1
 10
13.32001166373183
 20
1.262523822386926
 11
13.31887049671301
 21
1.262883656746906
 72
     1
 10
13.31887049671301
 20
1.262883656746905
 11
13.3185381038889
 21
1.262997724772096
 72
     1
 10
13.3185381038889
 20
1.262997724772096
 11
13.31731669090955
 21
1.26340121467688
 72
     1
 10
13.31731669090955
 20
1.26340121467688
 11
13.3142912293525
 21
1.264431763592877
 72
     1
 10
13.3142912293525
 20
1.264431763592877
 11
13.31127048008473
 21
1.265531496286639
 72
     1
 10
13.31127048008474
 20
1.265531496286639
 11
13.31104423578884
 21
1.265619229289599
 72
     1
 10
13.31104423578883
 20
1.265619229289598
 11
13.31087012526192
 21
1.265689435983455
 72
     1
 10
13.31087012526192
 20
1.265689435983455
 11
13.30879985993423
 21
1.266496288176122
 72
     1
 10
13.30879985993423
 20
1.266496288176122
 11
13.30563961022291
 21
1.267783994622902
 72
     1
 10
13.30563961022291
 20
1.267783994622902
 11
13.3033776981196
 21
1.268751910898801
 72
     1
 10
13.3033776981196
 20
1.268751910898801
 11
13.30323534065997
 21
1.268811226506981
 72
     1
 10
13.30323534065997
 20
1.268811226506981
 11
13.30020155770954
 21
1.27016856708363
 72
     1
 10
13.30020155770954
 20
1.270168567083631
 11
13.29696644685903
 21
1.271694283466344
 72
     1
 10
13.29696644685904
 20
1.271694283466344
 11
13.29562913738628
 21
1.272344882119965
 72
     1
 10
13.29562913738628
 20
1.272344882119964
 11
13.29562491940716
 21
1.272352274391436
 72
     1
 10
13.29562491940716
 20
1.272352274391437
 11
13.30782575229811
 21
1.275369082824584
 72
     1
 10
13.30782575229811
 20
1.275369082824583
 11
13.35478625907091
 21
1.291044202067537
 72
     1
 10
13.35478625907091
 20
1.291044202067537
 11
13.39484673703716
 21
1.311573611081131
 72
     1
 10
13.39484673703716
 20
1.311573611081131
 11
13.4033179725123
 21
1.317141248955308
 72
     1
 10
13.40331797251231
 20
1.317141248955308
 11
13.40822945211595
 21
1.320625096433074
 72
     1
 10
13.40822945211595
 20
1.320625096433075
 11
13.41043825453264
 21
1.322257656825222
 72
     1
 10
13.41043825453265
 20
1.322257656825222
 11
13.41044449342718
 21
1.322264991131985
 72
     1
 10
13.41044449342718
 20
1.322264991131985
 11
13.41118242363162
 21
1.322821576146951
 72
     1
 10
13.41118242363162
 20
1.322821576146951
 11
13.41494139745827
 21
1.325731550791301
 72
     1
 10
13.41494139745827
 20
1.325731550791301
 11
13.41860623080193
 21
1.328702074404016
 72
     1
 10
13.41860623080193
 20
1.328702074404016
 11
13.41936988665984
 21
1.329339902325956
 72
     1
 10
13.41936988665984
 20
1.329339902325955
 11
13.41960188742665
 21
1.329532976087744
 72
     1
 10
13.41960188742665
 20
1.329532976087745
 11
13.42145308314695
 21
1.331103455719509
 72
     1
 10
13.42145308314695
 20
1.331103455719509
 11
13.42489248618451
 21
1.334127336812427
 72
     1
 10
13.42489248618451
 20
1.334127336812427
 11
13.42776992275487
 21
1.336772650499366
 72
     1
 10
13.42776992275487
 20
1.336772650499367
 11
13.42790310717863
 21
1.336899276337124
 72
     1
 10
13.42790310717862
 20
1.336899276337124
 11
13.42803989821484
 21
1.33702590217488
 72
     1
 10
13.42803989821485
 20
1.33702590217488
 11
13.43344550704665
 21
1.342313273090995
 72
     1
 10
13.43344550704665
 20
1.342313273090995
 11
13.43982733188299
 21
1.349140376819872
 72
     1
 10
13.43982733188299
 20
1.349140376819873
 11
13.44327475193459
 21
1.353141002650294
 72
     1
 10
13.44327475193459
 20
1.353141002650293
 11
13.44350937061305
 21
1.353433056706705
 72
     1
 10
13.44350937061305
 20
1.353433056706705
 11
13.4439782625744
 21
1.354001697759133
 72
     1
 10
13.4439782625744
 20
1.354001697759134
 11
13.44645895505611
 21
1.357076571211136
 72
     1
 10
13.44645895505611
 20
1.357076571211135
 11
13.44886867361665
 21
1.360197356576539
 72
     1
 10
13.44886867361665
 20
1.360197356576539
 11
13.45003625092283
 21
1.361771783340534
 72
     1
 10
13.45003625092283
 20
1.361771783340534
 11
13.45079413711081
 21
1.362835987612841
 72
     1
 10
13.45079413711081
 20
1.362835987612841
 11
13.45195460494652
 21
1.3644573744972
 72
     1
 10
13.45195460494652
 20
1.3644573744972
 11
13.45368162040391
 21
1.366928880417946
 72
     1
 10
13.45368162040391
 20
1.366928880417946
 11
13.45532109477338
 21
1.369366549533198
 72
     1
 10
13.45532109477338
 20
1.369366549533198
 11
13.45619264178448
 21
1.370693008929863
 72
     1
 10
13.45619264178448
 20
1.370693008929863
 11
13.45705373751713
 21
1.372034315986595
 72
     1
 10
13.45705373751713
 20
1.372034315986595
 11
13.4583279834666
 21
1.374079303652751
 72
     1
 10
13.4583279834666
 20
1.374079303652751
 11
13.45974180441385
 21
1.376434159945103
 72
     1
 10
13.45974180441385
 20
1.376434159945103
 11
13.46093782243843
 21
1.378482596650268
 72
     1
 10
13.46093782243843
 20
1.378482596650267
 11
13.46178784574442
 21
1.379956972563618
 72
     1
 10
13.46178784574442
 20
1.379956972563618
 11
13.46262692939528
 21
1.381447709005587
 72
     1
 10
13.46262692939528
 20
1.381447709005587
 11
13.46392660937842
 21
1.383882171130284
 72
     1
 10
13.46392660937842
 20
1.383882171130284
 11
13.46518495810923
 21
1.38633779906827
 72
     1
 10
13.46518495810923
 20
1.38633779906827
 11
13.4660936537455
 21
1.388132544159965
 72
     1
 10
13.4660936537455
 20
1.388132544159965
 11
13.46683213129618
 21
1.389577975718181
 72
     1
 10
13.46683213129618
 20
1.389577975718181
 11
13.46779859175164
 21
1.391599051872622
 72
     1
 10
13.46779859175164
 20
1.391599051872622
 11
13.46927572529574
 21
1.394878047039083
 72
     1
 10
13.46927572529575
 20
1.394878047039083
 11
13.47069833844268
 21
1.398186974456429
 72
     1
 10
13.47069833844268
 20
1.398186974456429
 11
13.47103022718802
 21
1.398941092593072
 72
     1
 10
13.47103022718802
 20
1.398941092593073
 11
13.47132809091835
 21
1.399598348545159
 72
     1
 10
13.47132809091835
 20
1.399598348545159
 11
13.47333249624242
 21
1.404503410872828
 72
     1
 10
13.47333249624242
 20
1.404503410872828
 11
13.48001753104711
 21
1.420891571625303
 72
     1
 10
13.48001753104711
 20
1.420891571625304
 11
13.47607671314894
 21
1.427243132843994
 72
     1
 10
13.47607671314894
 20
1.427243132843993
 11
13.29974839353272
 21
1.427243132843993
 72
     1
 10
13.29974839353272
 20
1.427243132843993
 11
13.29757567870525
 21
1.422582262133598
 72
     1
 10
13.29757567870525
 20
1.422582262133598
 11
13.29502443250624
 21
1.414697882364192
 72
     1
 10
13.29502443250624
 20
1.414697882364192
 11
13.29425337780414
 21
1.412375582431162
 72
     1
 10
13.29425337780413
 20
1.412375582431163
 11
13.29350361400143
 21
1.410430132243173
 72
     1
 10
13.29350361400143
 20
1.410430132243172
 11
13.29279468852722
 21
1.408778526469198
 72
     1
 10
13.29279468852722
 20
1.408778526469199
 11
13.29253033097459
 21
1.408214962498166
 72
     1
 10
13.29253033097459
 20
1.408214962498165
 11
13.29225976057128
 21
1.407650872014363
 72
     1
 10
13.29225976057128
 20
1.407650872014363
 11
13.29163472794733
 21
1.40639076731516
 72
     1
 10
13.29163472794734
 20
1.406390767315161
 11
13.2909131523421
 21
1.405023902410878
 72
     1
 10
13.29091315234209
 20
1.405023902410878
 11
13.29033260684122
 21
1.403972791321842
 72
     1
 10
13.29033260684122
 20
1.403972791321842
 11
13.28990505436159
 21
1.403223582410459
 72
     1
 10
13.28990505436159
 20
1.40322358241046
 11
13.28941231254767
 21
1.402404822558312
 72
     1
 10
13.28941231254767
 20
1.402404822558312
 11
13.28866645886708
 21
1.401241078551444
 72
     1
 10
13.28866645886708
 20
1.401241078551444
 11
13.2878835386876
 21
1.400084073908009
 72
     1
 10
13.2878835386876
 20
1.400084073908009
 11
13.28535718386201
 21
1.396635449889234
 72
     1
 10
13.28535718386201
 20
1.396635449889233
 11
13.28207226015373
 21
1.392735858792059
 72
     1
 10
13.28207226015373
 20
1.392735858792059
 11
13.280032966334
 21
1.390576985283687
 72
     1
 10
13.280032966334
 20
1.390576985283687
 11
13.27974453809086
 21
1.39028346149989
 72
     1
 10
13.27974453809086
 20
1.390283461499891
 11
13.27897236774353
 21
1.38951367913569
 72
     1
 10
13.27897236774353
 20
1.38951367913569
 11
13.27463652748805
 21
1.385589748858707
 72
     1
 10
13.27463652748805
 20
1.385589748858707
 11
13.26979226017777
 21
1.381786074098023
 72
     1
 10
13.26979226017777
 20
1.381786074098023
 11
13.25504196991099
 21
1.37281701869465
 72
     1
 10
13.25504196991099
 20
1.372817018694649
 11
13.2332910192734
 21
1.36420050778558
 72
     1
 10
13.2332910192734
 20
1.364200507785581
 11
13.21869427506827
 21
1.360477224674925
 72
     1
 10
13.21869427506827
 20
1.360477224674924
 11
13.21873685497702
 21
1.360434644766178
 72
     1
 10
13.21873685497702
 20
1.360434644766178
 11
13.21786720568453
 21
1.360225640913954
 72
     1
 10
13.21786720568453
 20
1.360225640913954
 11
13.206576990683
 21
1.358284910099816
 72
     1
 10
13.206576990683
 20
1.358284910099816
 11
13.19444798819017
 21
1.356899860861428
 72
     1
 10
13.19444798819017
 20
1.356899860861428
 11
13.19106500205156
 21
1.356647304221029
 72
     1
 10
13.19106500205156
 20
1.356647304221029
 11
13.19102792476479
 21
1.356691796965153
 72
     1
 10
13.19102792476479
 20
1.356691796965153
 11
13.18848724104666
 21
1.35936645840334
 72
     1
 10
13.18848724104666
 20
1.359366458403341
 11
13.18192548228312
 21
1.36635913534315
 72
     1
 10
13.18192548228312
 20
1.36635913534315
 11
13.17560159660549
 21
1.373210748234011
 72
     1
 10
13.17560159660549
 20
1.37321074823401
 11
13.17459399028211
 21
1.374306741076985
 72
     1
 10
13.17459399028211
 20
1.374306741076986
 11
13.17025409678123
 21
1.379075482573526
 72
     1
 10
13.17025409678123
 20
1.379075482573526
 11
13.16400967466981
 21
1.385993531883369
 72
     1
 10
13.16400967466981
 20
1.385993531883369
 11
13.15969449756066
 21
1.390814831713425
 72
     1
 10
13.15969449756066
 20
1.390814831713425
 11
13.15915294158182
 21
1.391428745319583
 72
     1
 10
13.15915294158182
 20
1.391428745319583
 11
13.15861233332597
 21
1.392045554745969
 72
     1
 10
13.15861233332597
 20
1.392045554745968
 11
13.15237200107749
 21
1.399067066841179
 72
     1
 10
13.15237200107749
 20
1.399067066841179
 11
13.14607035463601
 21
1.406211345404017
 72
     1
 10
13.146070354636
 20
1.406211345404017
 11
13.14355145328385
 21
1.409082443849619
 72
     1
 10
13.14355145328385
 20
1.40908244384962
 11
13.14314212708223
 21
1.409549860792675
 72
     1
 10
13.14314212708222
 20
1.409549860792675
 11
13.14091529521936
 21
1.412092128696334
 72
     1
 10
13.14091529521936
 20
1.412092128696334
 11
13.13430576979251
 21
1.419649231027148
 72
     1
 10
13.13430576979252
 20
1.419649231027148
 11
13.12767231436035
 21
1.427245400605378
 72
     1
 10
13.12767231436035
 20
1.427245400605378
 11
13.11564328035369
 21
1.441003181194529
 72
     1
 10
13.11564328035369
 20
1.441003181194528
 11
13.09706272631065
 21
1.462253133316995
 72
     1
 10
13.09706272631065
 20
1.462253133316995
 11
13.06908228890478
 21
1.494176869199241
 72
     1
 10
13.06908228890478
 20
1.494176869199241
 11
13.02705466097762
 21
1.539983489266374
 72
     1
 10
13.02705466097762
 20
1.539983489266374
 11
12.99576309170772
 21
1.570444572207206
 72
     1
 10
12.99576309170772
 20
1.570444572207206
 11
12.99572727048398
 21
1.570408750983463
 72
     1
 10
12.99572727048398
 20
1.570408750983463
 11
12.99199654976707
 21
1.573775596071646
 72
     1
 10
12.99199654976707
 20
1.573775596071646
 11
12.98784598061982
 21
1.577452048924157
 72
     1
 10
12.98784598061982
 20
1.577452048924157
 11
12.9612405692434
 21
1.598341879496921
 72
     1
 10
12.9612405692434
 20
1.598341879496921
 11
12.91627865361645
 21
1.622275032464511
 72
     1
 10
12.91627865361645
 20
1.622275032464511
 11
12.85803359983931
 21
1.625946786088267
 72
     1
 10
12.85803359983931
 20
1.625946786088267
 11
12.72713088381068
 21
1.552338494139599
 72
     1
 10
12.72713088381068
 20
1.5523384941396
 11
12.60598576566206
 21
1.444954908286435
 72
     1
 10
12.60598576566206
 20
1.444954908286434
 11
12.58803934966184
 21
1.427033579175682
 72
     1
 10
12.58803934966184
 20
1.427033579175682
 11
12.58289278911118
 21
1.421800643480812
 72
     1
 10
12.58289278911118
 20
1.421800643480812
 11
12.57876150419426
 21
1.414341579255908
 72
     1
 10
12.57876150419426
 20
1.414341579255908
 11
12.57536020606919
 21
1.404472728583878
 72
     1
 10
12.57536020606919
 20
1.404472728583878
 11
12.56779991660413
 21
1.382549141358213
 72
     1
 10
12.56779991660413
 20
1.382549141358213
 11
12.54143707466406
 21
1.306145695123998
 72
     1
 10
12.54143707466406
 20
1.306145695123998
 11
12.52787586417441
 21
1.266838706360313
 72
     1
 10
12.52787586417441
 20
1.266838706360314
 11
12.57474883939635
 21
1.265626742489277
 72
     1
 10
12.57474883939635
 20
1.265626742489276
 11
12.67718343479113
 21
1.265626742489276
 72
     1
 10
12.67718343479113
 20
1.265626742489276
 11
12.70056820715634
 21
1.26575486606183
 72
     1
 10
12.70056820715634
 20
1.265754866061831
 11
12.70096375220827
 21
1.26690202644612
 72
     1
 10
12.70096375220827
 20
1.26690202644612
 11
12.70368139639811
 21
1.274787155399041
 72
     1
 10
12.70368139639811
 20
1.274787155399041
 11
12.75229187837836
 21
1.415687530308737
 72
     1
 10
12.75229187837836
 20
1.415687530308737
 11
12.80392896635637
 21
1.565361871944558
 72
     1
 10
12.80392896635637
 20
1.565361871944558
 11
12.84846473338742
 21
1.579088810237643
 72
     1
 10
12.84846473338742
 20
1.579088810237643
 11
12.94451621274174
 21
1.579088810237643
 72
     1
 10
12.94451621274174
 20
1.579088810237643
 11
12.97310904430474
 21
1.576314486909881
 72
     1
 10
12.97310904430474
 20
1.576314486909881
 11
12.98144171322696
 21
1.56928340569401
 72
     1
 10
12.98144171322696
 20
1.56928340569401
 11
12.98771627134762
 21
1.560332677807837
 72
     1
 10
12.98771627134762
 20
1.560332677807837
 11
12.96600913651492
 21
1.527260047838143
 72
     1
 10
12.96600913651493
 20
1.527260047838143
 11
12.94884580687335
 21
1.490897028973729
 72
     1
 10
12.94884580687335
 20
1.490897028973729
 11
12.93285873016823
 21
1.427930623173972
 72
     1
 10
12.93285873016823
 20
1.427930623173972
 11
12.93864845021743
 21
1.363991605662602
 72
     1
 10
12.93864845021743
 20
1.363991605662602
 11
12.97412004147714
 21
1.309183863825486
 72
     1
 10
12.97412004147714
 20
1.309183863825487
 11
13.04746638438732
 21
1.270474108437536
 72
     1
 10
13.04746638438732
 20
1.270474108437536
 11
13.15231597437859
 21
1.257820096674723
 72
     1
 10
13.15231597437859
 20
1.257820096674723
 11
13.15955407192155
 21
1.257854019956796
 72
     1
 10
13.15955407192155
 20
1.257854019956796
 11
13.16671916846917
 21
1.257949492581491
 72
     1
 10
13.16671916846917
 20
1.257949492581491
 11
13.17023060700672
 21
1.258019951376775
 72
     1
 10
13.17023060700672
 20
1.258019951376775
 11
13.17194732237694
 21
1.258070644654066
 72
     1
 10
13.17194732237694
 20
1.258070644654066
 11
13.17482695923275
 21
1.258146571488228
 72
     1
 10
13.17482695923275
 20
1.258146571488228
 11
13.18012894929112
 21
1.258292959749276
 72
     1
 10
13.18012894929112
 20
1.258292959749276
 11
13.18538418501566
 21
1.258483153872654
 72
     1
 10
13.18538418501566
 20
1.258483153872654
 11
13.18753429283168
 21
1.258576298293281
 72
     1
 10
13.18753429283168
 20
1.258576298293281
 11
13.1895874788835
 21
1.258675751483316
 72
     1
 10
13.1895874788835
 20
1.258675751483316
 11
13.19338858114487
 21
1.258855995672746
 72
     1
 10
13.19338858114487
 20
1.258855995672746
 11
13.198217245845
 21
1.259111750538092
 72
     1
 10
13.198217245845
 20
1.259111750538091
 11
13.20224970436737
 21
1.259351385759248
 72
     1
 10
13.20224970436737
 20
1.259351385759248
 11
13.20428445281151
 21
1.259483712506587
 72
     1
 10
13.20428445281151
 20
1.259483712506587
 11
13.20631419938436
 21
1.259619882797135
 72
     1
 10
13.20631419938436
 20
1.259619882797135
 11
13.210878267779
 21
1.259949929156224
 72
     1
 10
13.21087826777899
 20
1.259949929156224
 11
13.21561032108942
 21
1.26030931703063
 72
     1
 10
13.21561032108943
 20
1.26030931703063
 11
13.21866740458301
 21
1.260565421415486
 72
     1
 10
13.21866740458301
 20
1.260565421415486
 11
13.22051573385542
 21
1.26073465992815
 72
     1
 10
13.22051573385542
 20
1.26073465992815
 11
13.22304934013435
 21
1.260970768852087
 72
     1
 10
13.22304934013435
 20
1.260970768852087
 11
13.22788211292217
 21
1.261435386502257
 72
     1
 10
13.22788211292217
 20
1.261435386502257
 11
13.23266771016595
 21
1.261934016877263
 72
     1
 10
13.23266771016595
 20
1.261934016877263
 11
13.23464200018943
 21
1.262149372388201
 72
     1
 10
13.23464200018943
 20
1.262149372388201
 11
13.23622923218253
 21
1.262323482915115
 72
     1
 10
13.23622923218253
 20
1.262323482915115
 11
13.23965697395051
 21
1.262728813564995
 72
     1
 10
13.23965697395051
 20
1.262728813564995
 11
13.24467592338413
 21
1.263358109354392
 72
     1
 10
13.24467592338413
 20
1.263358109354392
 11
13.24895805037664
 21
1.263920972411858
 72
     1
 10
13.24895805037664
 20
1.263920972411857
 11
13.25016704912203
 21
1.264079254709051
 72
     1
 10
13.25016704912203
 20
1.264079254709052
 11
13.25137594256486
 21
1.264237537006246
 72
     1
 10
13.25137594256486
 20
1.264237537006246
 11
13.25611080513918
 21
1.264925272566531
 72
     1
 10
13.25611080513918
 20
1.264925272566531
 11
13.26148693532017
 21
1.265754832559295
 72
     1
 10
13.26148693532017
 20
1.265754832559294
 11
13.2645510733481
 21
1.266249252988105
 72
     1
 10
13.2645510733481
 20
1.266249252988105
 11
13.26522157677203
 21
1.266352817727618
 72
     1
 10
13.26522157677203
 20
1.266352817727618
 11
13.26662226221431
 21
1.26658449786938
 72
     1
 10
13.26662226221431
 20
1.26658449786938
 11
13.27260341811975
 21
1.267631881507852
 72
     1
 10
13.27260341811975
 20
1.267631881507853
 11
13.27851086223762
 21
1.268733180053809
 72
     1
 10
13.27851086223762
 20
1.268733180053809
 11
13.30559252153729
 21
1.256539106640367
 72
     1
 10
13.30559252153729
 20
1.256539106640367
 11
13.33923712776735
 21
1.24746120856704
 72
     1
 10
13.33923712776735
 20
1.24746120856704
 11
13.37607449187676
 21
1.247300904642803
 72
     1
 10
13.37607449187676
 20
1.247300904642804
 11
13.41785064865128
 21
1.258515980918596
 72
     1
 10
13.41785064865128
 20
1.258515980918595
 11
13.45781743650142
 21
1.276940199602089
 72
     1
 10
13.45781743650142
 20
1.276940199602089
 11
13.59115739406252
 21
1.276940199602089
 72
     1
 10
13.59115739406252
 20
1.276940199602089
 11
13.60984888386208
 21
1.31523662319847
 72
     1
 10
13.60984888386208
 20
1.31523662319847
 11
13.64537357545082
 21
1.411853412147116
 72
     1
 10
13.64537357545082
 20
1.411853412147116
 11
13.65587668799064
 21
1.440418454738303
 72
     1
 10
13.65587668799063
 20
1.440418454738303
 11
13.66106417798547
 21
1.45452423561315
 72
     1
 10
13.66106417798547
 20
1.45452423561315
 11
13.66438529581566
 21
1.463555932998333
 72
     1
 10
13.66438529581566
 20
1.463555932998333
 11
13.66438096114563
 21
1.463552912289568
 72
     1
 10
13.66438096114563
 20
1.463552912289568
 11
13.66438467756901
 21
1.463560345136333
 72
     1
 10
13.66438467756901
 20
1.463560345136333
 11
13.64959056776006
 21
1.447825352502658
 72
     1
 10
13.64959056776006
 20
1.447825352502658
 11
13.56132557306843
 21
1.364259444941378
 72
     1
 10
13.56132557306843
 20
1.364259444941378
 11
13.43867431905586
 21
1.279121106997329
 97
        0
 92
        1
 93
       42
 72
     1
 10
13.13888629284527
 20
1.398657045202236
 11
13.15815923584947
 21
1.37696752646371
 72
     1
 10
13.15815923584947
 20
1.37696752646371
 11
13.17737435176356
 21
1.356022875718155
 72
     1
 10
13.17737435176356
 20
1.356022875718156
 11
13.17485422652772
 21
1.355940781902851
 72
     1
 10
13.17485422652772
 20
1.355940781902851
 11
13.17230622037348
 21
1.355886569005952
 72
     1
 10
13.17230622037348
 20
1.355886569005953
 11
13.16420349259865
 21
1.356142150465571
 72
     1
 10
13.16420349259865
 20
1.35614215046557
 11
13.15672554216683
 21
1.356910526649435
 72
     1
 10
13.15672554216683
 20
1.356910526649435
 11
13.14986380210175
 21
1.358194145265061
 72
     1
 10
13.14986380210175
 20
1.358194145265061
 11
13.14360970542709
 21
1.359995454019958
 72
     1
 10
13.14360970542709
 20
1.359995454019957
 11
13.13795494013609
 21
1.362316934617584
 72
     1
 10
13.13795494013609
 20
1.362316934617584
 11
13.1328929280148
 21
1.365161850667952
 72
     1
 10
13.1328929280148
 20
1.365161850667952
 11
13.1284165299163
 21
1.368534247687651
 72
     1
 10
13.1284165299163
 20
1.368534247687651
 11
13.12451840271805
 21
1.372438205189206
 72
     1
 10
13.12451840271805
 20
1.372438205189206
 11
13.12116062702452
 21
1.376918601665884
 72
     1
 10
13.12116062702452
 20
1.376918601665884
 11
13.1197336508409
 21
1.379306540466225
 72
     1
 10
13.1197336508409
 20
1.379306540466225
 11
13.11842169873596
 21
1.381846801920898
 72
     1
 10
13.11842169873596
 20
1.381846801920898
 11
13.1181010681743
 21
1.382573254739327
 72
     1
 10
13.1181010681743
 20
1.382573254739327
 11
13.1177897312521
 21
1.38330900119725
 72
     1
 10
13.1177897312521
 20
1.38330900119725
 11
13.11696492074929
 21
1.38525601866587
 72
     1
 10
13.11696492074929
 20
1.38525601866587
 11
13.11620981254249
 21
1.38724950433183
 72
     1
 10
13.11620981254249
 20
1.38724950433183
 11
13.11591551395934
 21
1.388138595840933
 72
     1
 10
13.11591551395933
 20
1.388138595840934
 11
13.11563980265518
 21
1.38904627462901
 72
     1
 10
13.11563980265518
 20
1.38904627462901
 11
13.11503494161969
 21
1.39105834757392
 72
     1
 10
13.11503494161969
 20
1.39105834757392
 11
13.1144997828803
 21
1.393116888716164
 72
     1
 10
13.1144997828803
 20
1.393116888716164
 11
13.11428835258242
 21
1.394009078105117
 72
     1
 10
13.11428835258242
 20
1.394009078105117
 11
13.1140908627437
 21
1.394901267494094
 72
     1
 10
13.1140908627437
 20
1.394901267494094
 11
13.11363857228957
 21
1.397168915524435
 72
     1
 10
13.11363857228957
 20
1.397168915524435
 11
13.11326063095119
 21
1.399473738112477
 72
     1
 10
13.11326063095119
 20
1.399473738112477
 11
13.11314446045784
 21
1.400217229270163
 72
     1
 10
13.11314446045784
 20
1.400217229270163
 11
13.11303758360396
 21
1.400960720427453
 72
     1
 10
13.11303758360396
 20
1.400960720427452
 11
13.11271153175261
 21
1.403748812267957
 72
     1
 10
13.11271153175261
 20
1.403748812267957
 11
13.1124737694762
 21
1.406574078666374
 72
     1
 10
13.1124737694762
 20
1.406574078666374
 11
13.11245130984749
 21
1.406902453927594
 72
     1
 10
13.11245130984749
 20
1.406902453927594
 11
13.11242420339904
 21
1.407230829188816
 72
     1
 10
13.11242420339904
 20
1.407230829188816
 11
13.1122268569807
 21
1.41409297720513
 72
     1
 10
13.1122268569807
 20
1.41409297720513
 11
13.11244393804087
 21
1.421103823452953
 72
     1
 10
13.11244393804087
 20
1.421103823452952
 11
13.1130437793636
 21
1.428197279829411
 72
     1
 10
13.1130437793636
 20
1.428197279829411
 11
13.11516347265354
 21
1.425774589109762
 72
     1
 10
13.11516347265354
 20
1.425774589109763
 11
13.11694413397568
 21
1.423739108584923
 72
     1
 10
13.11694413397568
 20
1.423739108584922
 11
13.11830992723195
 21
1.422177678022084
 72
     1
 10
13.11830992723195
 20
1.422177678022084
 11
13.11918501632429
 21
1.42117713718844
 72
     1
 10
13.11918501632429
 20
1.42117713718844
 11
13.11949356515464
 21
1.420824325851182
 72
     1
 10
13.11949356515464
 20
1.420824325851182
 11
13.13888629284527
 21
1.398657045202236
 97
        0
 75
     2
 76
     1
 98
        1
 10
12.12639383884502
 20
0.2113996515164602
450
        0
451
        0
460
0.0
461
0.0
452
        0
462
0.0
453
        0
470

  0
INSERT
  5
114B
330
1B
100
AcDbEntity
 67
     1
  8
BORDER
100
AcDbBlockReference
 66
     1
  2
REVISE12
 10
7.231089644427043
 20
0.2236243424352045
 30
0.0
  0
ATTRIB
  5
114C
330
114B
100
AcDbEntity
 67
     1
  8
0
100
AcDbText
 10
7.262339644427043
 20
0.2861243424352053
 30
0.0
 40
0.125
  1

 41
2.25
 72
     5
 11
7.449839644427043
 21
0.2861243424352053
 31
0.0
100
AcDbAttribute
280
     0
  2
NO
 70
     8
280
     0
  0
ATTRIB
  5
114D
330
114B
100
AcDbEntity
 67
     1
  8
0
100
AcDbText
 10
7.543589644427043
 20
0.2861243424352053
 30
0.0
 40
0.125
  1

100
AcDbAttribute
280
     0
  2
REV
 70
     8
280
     0
  0
ATTRIB
  5
114E
330
114B
100
AcDbEntity
 67
     1
  8
0
100
AcDbText
 10
10.04358964442704
 20
0.2861243424352053
 30
0.0
 40
0.125
  1

 41
0.984375
 72
     5
 11
10.69983964442704
 21
0.2861243424352053
 31
0.0
100
AcDbAttribute
280
     0
  2
RDATE
 70
     8
280
     0
  0
ATTRIB
  5
114F
330
114B
100
AcDbEntity
 67
     1
  8
0
100
AcDbText
 10
10.76233964442704
 20
0.2861243424352053
 30
0.0
 40
0.125
  1

100
AcDbAttribute
280
     0
  2
BY
 70
     8
280
     0
  0
SEQEND
  5
1150
330
114B
100
AcDbEntity
 67
     1
  8
BORDER
  0
INSERT
  5
1151
330
1B
100
AcDbEntity
 67
     1
  8
BORDER
100
AcDbBlockReference
 66
     1
  2
REVISE12
 10
7.231089644427043
 20
0.4736243424352045
 30
0.0
  0
ATTRIB
  5
1152
330
1151
100
AcDbEntity
 67
     1
  8
0
100
AcDbText
 10
7.262339644427043
 20
0.5361243424352054
 30
0.0
 40
0.125
  1

 41
0.9
 72
     5
 11
7.449839644427043
 21
0.5361243424352054
 31
0.0
100
AcDbAttribute
280
     0
  2
NO
 70
     8
280
     0
  0
ATTRIB
  5
1153
330
1151
100
AcDbEntity
 67
     1
  8
0
100
AcDbText
 10
7.543589644427043
 20
0.5361243424352054
 30
0.0
 40
0.125
  1

100
AcDbAttribute
280
     0
  2
REV
 70
     8
280
     0
  0
ATTRIB
  5
1154
330
1151
100
AcDbEntity
 67
     1
  8
0
100
AcDbText
 10
10.04358964442704
 20
0.5361243424352054
 30
0.0
 40
0.125
  1

 41
1.125
 72
     5
 11
10.69983964442704
 21
0.5361243424352054
 31
0.0
100
AcDbAttribute
280
     0
  2
RDATE
 70
     8
280
     0
  0
ATTRIB
  5
1155
330
1151
100
AcDbEntity
 67
     1
  8
0
100
AcDbText
 10
10.76233964442704
 20
0.5361243424352054
 30
0.0
 40
0.125
  1

100
AcDbAttribute
280
     0
  2
BY
 70
     8
280
     0
  0
SEQEND
  5
1156
330
1151
100
AcDbEntity
 67
     1
  8
BORDER
  0
INSERT
  5
1157
330
1B
100
AcDbEntity
 67
     1
  8
BORDER
100
AcDbBlockReference
 66
     1
  2
REVISE12
 10
7.231089644427043
 20
0.7236243424352045
 30
0.0
  0
ATTRIB
  5
1158
330
1157
100
AcDbEntity
 67
     1
  8
0
100
AcDbText
 10
7.262339644427043
 20
0.7861243424352054
 30
0.0
 40
0.125
  1

 41
0.9
 72
     5
 11
7.449839644427043
 21
0.7861243424352054
 31
0.0
100
AcDbAttribute
280
     0
  2
NO
 70
     8
280
     0
  0
ATTRIB
  5
1159
330
1157
100
AcDbEntity
 67
     1
  8
0
100
AcDbText
 10
7.543589644427043
 20
0.7861243424352054
 30
0.0
 40
0.125
  1

100
AcDbAttribute
280
     0
  2
REV
 70
     8
280
     0
  0
ATTRIB
  5
115A
330
1157
100
AcDbEntity
 67
     1
  8
0
100
AcDbText
 10
10.04358964442704
 20
0.7861243424352054
 30
0.0
 40
0.125
  1

 41
1.125
 72
     5
 11
10.69983964442704
 21
0.7861243424352054
 31
0.0
100
AcDbAttribute
280
     0
  2
RDATE
 70
     8
280
     0
  0
ATTRIB
  5
115B
330
1157
100
AcDbEntity
 67
     1
  8
0
100
AcDbText
 10
10.76233964442704
 20
0.7861243424352054
 30
0.0
 40
0.125
  1

100
AcDbAttribute
280
     0
  2
BY
 70
     8
280
     0
  0
SEQEND
  5
115C
330
1157
100
AcDbEntity
 67
     1
  8
BORDER
  0
INSERT
  5
115D
330
1B
100
AcDbEntity
 67
     1
  8
BORDER
100
AcDbBlockReference
 66
     1
  2
REVISE12
 10
7.231089644427043
 20
0.9736243424352045
 30
0.0
  0
ATTRIB
  5
115E
330
115D
100
AcDbEntity
 67
     1
  8
0
100
AcDbText
 10
7.262339644427043
 20
1.036124342435205
 30
0.0
 40
0.125
  1

 41
0.9
 72
     5
 11
7.449839644427043
 21
1.036124342435205
 31
0.0
100
AcDbAttribute
280
     0
  2
NO
 70
     8
280
     0
  0
ATTRIB
  5
115F
330
115D
100
AcDbEntity
 67
     1
  8
0
100
AcDbText
 10
7.543589644427043
 20
1.036124342435205
 30
0.0
 40
0.125
  1

100
AcDbAttribute
280
     0
  2
REV
 70
     8
280
     0
  0
ATTRIB
  5
1160
330
115D
100
AcDbEntity
 67
     1
  8
0
100
AcDbText
 10
10.04358964442704
 20
1.036124342435205
 30
0.0
 40
0.125
  1

 41
1.125
 72
     5
 11
10.69983964442704
 21
1.036124342435205
 31
0.0
100
AcDbAttribute
280
     0
  2
RDATE
 70
     8
280
     0
  0
ATTRIB
  5
1161
330
115D
100
AcDbEntity
 67
     1
  8
0
100
AcDbText
 10
10.76233964442704
 20
1.036124342435205
 30
0.0
 40
0.125
  1

100
AcDbAttribute
280
     0
  2
BY
 70
     8
280
     0
  0
SEQEND
  5
1162
330
115D
100
AcDbEntity
 67
     1
  8
BORDER
  0
INSERT
  5
1163
330
1B
100
AcDbEntity
 67
     1
  8
BORDER
100
AcDbBlockReference
 66
     1
  2
REVISE12
 10
7.231089644427043
 20
1.223624342435204
 30
0.0
  0
ATTRIB
  5
1164
330
1163
100
AcDbEntity
 67
     1
  8
0
100
AcDbText
 10
7.262339644427043
 20
1.286124342435205
 30
0.0
 40
0.125
  1

 41
0.9
 72
     5
 11
7.449839644427043
 21
1.286124342435205
 31
0.0
100
AcDbAttribute
280
     0
  2
NO
 70
     8
280
     0
  0
ATTRIB
  5
1165
330
1163
100
AcDbEntity
 67
     1
  8
0
100
AcDbText
 10
7.543589644427043
 20
1.286124342435205
 30
0.0
 40
0.125
  1

100
AcDbAttribute
280
     0
  2
REV
 70
     8
280
     0
  0
ATTRIB
  5
1166
330
1163
100
AcDbEntity
 67
     1
  8
0
100
AcDbText
 10
10.04358964442704
 20
1.286124342435205
 30
0.0
 40
0.125
  1

 41
1.125
 72
     5
 11
10.69983964442704
 21
1.286124342435205
 31
0.0
100
AcDbAttribute
280
     0
  2
RDATE
 70
     8
280
     0
  0
ATTRIB
  5
1167
330
1163
100
AcDbEntity
 67
     1
  8
0
100
AcDbText
 10
10.76233964442704
 20
1.286124342435205
 30
0.0
 40
0.125
  1

100
AcDbAttribute
280
     0
  2
BY
 70
     8
280
     0
  0
SEQEND
  5
1168
330
1163
100
AcDbEntity
 67
     1
  8
BORDER
  0
INSERT
  5
1169
330
1B
100
AcDbEntity
 67
     1
  8
BORDER
100
AcDbBlockReference
 66
     1
  2
REVISE12
 10
7.231089644427043
 20
1.473624342435204
 30
0.0
  0
ATTRIB
  5
116A
330
1169
100
AcDbEntity
 67
     1
  8
0
100
AcDbText
 10
7.262339644427043
 20
1.536124342435205
 30
0.0
 40
0.125
  1

 41
0.9
 72
     5
 11
7.449839644427043
 21
1.536124342435205
 31
0.0
100
AcDbAttribute
280
     0
  2
NO
 70
     8
280
     0
  0
ATTRIB
  5
116B
330
1169
100
AcDbEntity
 67
     1
  8
0
100
AcDbText
 10
7.543589644427043
 20
1.536124342435205
 30
0.0
 40
0.125
  1

100
AcDbAttribute
280
     0
  2
REV
 70
     8
280
     0
  0
ATTRIB
  5
116C
330
1169
100
AcDbEntity
 67
     1
  8
0
100
AcDbText
 10
10.04358964442704
 20
1.536124342435205
 30
0.0
 40
0.125
  1

 41
1.125
 72
     5
 11
10.69983964442704
 21
1.536124342435205
 31
0.0
100
AcDbAttribute
280
     0
  2
RDATE
 70
     8
280
     0
  0
ATTRIB
  5
116D
330
1169
100
AcDbEntity
 67
     1
  8
0
100
AcDbText
 10
10.76233964442704
 20
1.536124342435205
 30
0.0
 40
0.125
  1

100
AcDbAttribute
280
     0
  2
BY
 70
     8
280
     0
  0
SEQEND
  5
116E
330
1169
100
AcDbEntity
 67
     1
  8
BORDER
  0
VIEWPORT
  5
140B
102
{ACAD_XDICTIONARY
360
140C
102
}
330
1B
100
AcDbEntity
 67
     1
  8
VIEWPORT
100
AcDbViewport
 10
7.94948153765118
 20
5.850438132615753
 30
0.0
 40
15.88966378262347
 41
8.195114050242253
 68
     2
 69
     2
 12
15.6116638574885
 22
4.077713033158463
 13
0.0
 23
0.0
 14
0.5
 24
0.5
 15
0.5
 25
0.5
 16
0.0
 26
0.0
 36
1.0
 17
0.0
 27
0.0
 37
0.0
 42
50.0
 43
0.0
 44
0.0
 45
10.70180102636381
 50
0.0
 51
0.0
 72
   100
 90
   819264
  1

281
     0
 71
     1
 74
     0
110
0.0
120
0.0
130
0.0
111
1.0
121
0.0
131
0.0
112
0.0
122
1.0
132
0.0
 79
     0
146
0.0
170
     0
 61
     5
348
631
292
     1
282
     1
141
0.0
142
0.0
 63
   250
421
  3355443
1001
GENIUS_GENODEF_13
1002
{
1000
HIER
1070
     0
1002
}
1002
{
1000
MANEDIT
1070
     0
1002
}
1002
{
1000
NOSEL
1070
     0
1002
}
1002
{
1000
BEHIND
1070
     0
1002
}
1002
{
1000
OTHER
1070
     0
1002
}
1002
{
1000
REACTOR
1002
}
1001
GENIUS_GENOBJ-N-SDF_13
1002
{
1000
OWNER
1000
GEN
1002
}
1001
GENIUS_GENSCREG_15
1000
PF
1040
0.0
1000
DF
1040
0.0
1000
MIN
1011
0.0046496463394448
1021
1.752881107494626
1031
0.0
1000
MAX
1011
15.89431342896292
1021
9.94799515773688
1031
0.0
1000
FLAGS
1070
     4
  0
ENDSEC
  0
SECTION
  2
OBJECTS
  0
DICTIONARY
  5
C
330
0
100
AcDbDictionary
281
     1
  3
ACAD_CIP_PREVIOUS_PRODUCT_INFO
350
11C3
  3
ACAD_COLOR
350
63C
  3
ACAD_DETAILVIEWSTYLE
350
11BA
  3
ACAD_GROUP
350
D
  3
ACAD_LAYOUT
350
1A
  3
ACAD_MATERIAL
350
627
  3
ACAD_MLEADERSTYLE
350
11B5
  3
ACAD_MLINESTYLE
350
17
  3
ACAD_PLOTSETTINGS
350
19
  3
ACAD_PLOTSTYLENAME
350
E
  3
ACAD_SCALELIST
350
11A3
  3
ACAD_SECTIONVIEWSTYLE
350
11B7
  3
ACAD_TABLESTYLE
350
63D
  3
ACAD_VISUALSTYLE
350
62B
  3
ACDB_RECOMPOSE_DATA
350
1584
  3
AcDbVariableDictionary
350
261
  3
ACGREF_MASTER
350
11D2
  3
ACGREFACAD_MASTER
350
11D6
  3
AcmDictionary
350
11EE
  3
ACME_COMMAND_HISTORY
350
11CD
  3
ACME_SCOPE_NAME
350
11CC
  3
ACMESTATEMGR
350
11D0
  3
AcmeSysVarManager
350
11CE
  3
AcmSystemVariableManager
350
11DB
  3
AMG
350
11C5
  3
AMGSNAPSETTINGS
350
1224
  3
AMI_MASTER
350
11D9
  3
AUTOCAD_ASSEMBLIES_PROJECT
350
11E4
  3
Designer_Assemblies_SysVars
350
11DE
  3
StructToggleButtonState
350
14A8
  0
DICTIONARY
  5
65A
330
2
100
AcDbDictionary
280
     1
281
     1
  3
ACAD_LAYERFILTERS
360
1184
  3
ACAD_LAYERSTATES
360
65B
  3
ACLYDICTIONARY
360
1183
  0
DICTIONARY
  5
14A9
330
10
100
AcDbDictionary
280
     1
281
     1
  3
ADSK_XREC_LAYER_RECONCILED
360
14AA
  0
DICTIONARY
  5
14AB
330
274
100
AcDbDictionary
280
     1
281
     1
  3
ADSK_XREC_LAYER_RECONCILED
360
14AC
  0
DICTIONARY
  5
14AD
330
573
100
AcDbDictionary
280
     1
281
     1
  3
ADSK_XREC_LAYER_RECONCILED
360
14AE
  0
DICTIONARY
  5
14AF
330
125A
100
AcDbDictionary
280
     1
281
     1
  3
ADSK_XREC_LAYER_RECONCILED
360
14B0
  0
DICTIONARY
  5
14B1
330
125B
100
AcDbDictionary
280
     1
281
     1
  3
ADSK_XREC_LAYER_RECONCILED
360
14B2
  0
DICTIONARY
  5
14B3
330
13FB
100
AcDbDictionary
280
     1
281
     1
  3
ADSK_XREC_LAYER_RECONCILED
360
14B4
  0
DICTIONARY
  5
B46
330
1B
100
AcDbDictionary
280
     1
281
     1
  3
ACAD_SORTENTS
360
B47
  0
DICTIONARY
  5
140C
330
140B
100
AcDbDictionary
280
     1
281
     1
  3
ASDK_XREC_ANNOTATION_SCALE_INFO
360
140D
  0
XRECORD
  5
11C3
102
{ACAD_REACTORS
330
C
102
}
330
C
100
AcDbXrecord
280
     1
300
AMECH_PP
300
2014
300
86133PDSU_2014_0F
  0
DICTIONARY
  5
63C
102
{ACAD_REACTORS
330
C
102
}
330
C
100
AcDbDictionary
281
     1
  0
DICTIONARY
  5
11BA
102
{ACAD_REACTORS
330
C
102
}
330
C
100
AcDbDictionary
281
     1
  3
Imperial24
350
11BB
  0
DICTIONARY
  5
D
102
{ACAD_REACTORS
330
C
102
}
330
C
100
AcDbDictionary
281
     1
  0
DICTIONARY
  5
1A
102
{ACAD_REACTORS
330
C
102
}
330
C
100
AcDbDictionary
281
     1
  3
Model
350
22
  3
TCI-B
350
1E
  0
DICTIONARY
  5
627
102
{ACAD_REACTORS
330
C
102
}
330
C
100
AcDbDictionary
281
     1
  3
ByBlock
350
629
  3
ByLayer
350
628
  3
Global
350
62A
  0
DICTIONARY
  5
11B5
102
{ACAD_REACTORS
330
C
102
}
330
C
100
AcDbDictionary
281
     1
  3
Standard
350
11B6
  0
DICTIONARY
  5
17
102
{ACAD_REACTORS
330
C
102
}
330
C
100
AcDbDictionary
281
     1
  3
Standard
350
18
  0
DICTIONARY
  5
19
102
{ACAD_REACTORS
330
C
102
}
330
C
100
AcDbDictionary
281
     1
  3
P3-M-L-E
350
60E
  0
ACDBDICTIONARYWDFLT
  5
E
102
{ACAD_REACTORS
330
C
102
}
330
C
100
AcDbDictionary
281
     1
  3
Normal
350
F
100
AcDbDictionaryWithDefault
340
F
  0
DICTIONARY
  5
11A3
102
{ACAD_REACTORS
330
C
102
}
330
C
100
AcDbDictionary
281
     1
  3
A0
350
11A4
  3
A1
350
11A5
  3
A2
350
11A6
  3
A3
350
11A7
  3
A4
350
11A8
  3
A5
350
11A9
  3
A6
350
11AA
  3
A7
350
11AB
  3
A8
350
11AC
  3
A9
350
11AD
  3
B0
350
11AE
  3
B1
350
11AF
  3
B2
350
11B0
  3
B3
350
11B1
  3
B4
350
11B2
  3
B5
350
11B3
  3
B6
350
11B4
  0
DICTIONARY
  5
11B7
102
{ACAD_REACTORS
330
C
102
}
330
C
100
AcDbDictionary
281
     1
  3
Imperial24
350
11B9
  0
DICTIONARY
  5
63D
102
{ACAD_REACTORS
330
C
102
}
330
C
100
AcDbDictionary
281
     1
  3
Standard
350
63E
  0
DICTIONARY
  5
62B
102
{ACAD_REACTORS
330
C
102
}
330
C
100
AcDbDictionary
281
     1
  3
2dWireframe
350
631
  3
3D Hidden
350
633
  3
3dWireframe
350
632
  3
Basic
350
630
  3
Brighten
350
637
  3
ColorChange
350
63B
  3
Conceptual
350
634
  3
Dim
350
636
  3
EdgeColorOff
350
11A2
  3
Facepattern
350
63A
  3
Flat
350
62C
  3
FlatWithEdges
350
62D
  3
Gouraud
350
62E
  3
GouraudWithEdges
350
62F
  3
Hidden
350
119A
  3
JitterOff
350
11A0
  3
Linepattern
350
639
  3
OverhangOff
350
11A1
  3
Realistic
350
635
  3
Shaded
350
119F
  3
Shaded with edges
350
119E
  3
Shades of Gray
350
119B
  3
Sketchy
350
119C
  3
Thicken
350
638
  3
Wireframe
350
1199
  3
X-Ray
350
119D
  0
XRECORD
  5
1584
102
{ACAD_REACTORS
330
C
102
}
330
C
100
AcDbXrecord
280
     1
 90
        1
330
63E
330
11B9
330
11BB
  0
DICTIONARY
  5
261
102
{ACAD_REACTORS
330
C
102
}
330
C
100
AcDbDictionary
281
     1
  3
CANNOSCALE
350
1500
  3
CMLEADERSTYLE
350
14FC
  3
CTABLESTYLE
350
642
  3
CVIEWDETAILSTYLE
350
14FD
  3
CVIEWSECTIONSTYLE
350
14FE
  3
DIMASSOC
350
263
  3
HIDETEXT
350
262
  3
LAYEREVAL
350
1502
  3
LAYERNOTIFY
350
1503
  3
LIGHTINGUNITS
350
1501
  3
MSLTSCALE
350
14FF
  0
ACAD_PROXY_OBJECT
  5
11D2
102
{ACAD_REACTORS
330
C
102
}
330
C
100
AcDbProxyObject
 90
      499
 91
      522
 95
  7143453
 70
     0
162
                 0
161
                34
310
0C000042CC
 94
        0
  0
ACAD_PROXY_OBJECT
  5
11D6
102
{ACAD_REACTORS
330
C
102
}
330
C
100
AcDbProxyObject
 90
      499
 91
      525
 95
  7143453
 70
     0
162
                 0
161
               114
310
04000041C00000000000000000000C
 94
        0
  0
DICTIONARY
  5
11EE
102
{ACAD_REACTORS
330
C
102
}
330
C
100
AcDbDictionary
281
     1
  3
AcmBOMDATA
350
11EF
  3
AcmStdDictionary
350
11F0
  0
ACAD_PROXY_OBJECT
  5
11CD
102
{ACAD_REACTORS
330
C
102
}
330
C
100
AcDbProxyObject
 90
      499
 91
      517
 95
  7143453
 70
     0
162
              5658
311
4393001040164013C01540150017C010C013C013801500148013C013001045A004F004F004D004151401480104014C01140106560050004F005200540053004151401480104014C0114010455004E0044004F004115401380110013C0108450041005400540045004400490054004115401380110013C010455004E0044004
311
F0042114010401500150011401100124015001044D004F00560045004393001040164013C01540150017C010C013C013801500148013C013001044D004F00560045004393001040164013C01540150017C010C013C013801500148013C0130010A500052004F00500045005200540049004500530041D04013401300104016
311
40114014801065300410056004500410053004C534014C011C008000B4008001400140010400E80080008000800190019401CC01AC01D001BC01C000B8018401C801E00080011801A401B001940158019401C801CC01A401BC01B800E8008000C400DC00B800C000B800D000E000B800C000B800C001055000550052004700
311
450041D04013401300104016401140148010741004D004C00410059004500520041168013C013C01340105510053004100560045004C534014C011C008000B4008001400140010400E80080008000800190019401CC01AC01D001BC01C000B8018401C801E00080011801A401B001940158019401C801CC01A401BC01B800E
311
8008000C400DC00B800C000B800D000E000B800C000B800C0010455004E0044004F004115401380110013C010455004E0044004F004115401380110013C01084500410054005400450044004900540041168013C013C01340105510053004100560045004C534014C011C008000B4008001400140010400E80080008000800
311
190019401CC01AC01D001BC01C000B8018401C801E00080011801A401B001940158019401C801CC01A401BC01B800E8008000C400DC00B800C000B800D000E000B800C000B800C000C
161
               358
310
478060180601806018060180601806018060180601806014040406018060180501010180601806018060140404
 94
        0
  0
ACAD_PROXY_OBJECT
  5
11CC
102
{ACAD_REACTORS
330
C
102
}
330
C
100
AcDbProxyObject
 90
      499
 91
      516
 95
  7143453
 70
     0
162
                 0
161
               274
310
0E00004C8000000000000000000010D44600000000000000000000000000AAA406AA8C
360
11CF
360
11DC
360
11DF
360
11E0
360
11E1
360
11E2
360
11E3
360
11E8
360
11E9
360
11EA
360
11EB
360
11EC
360
13FC
 94
        0
  0
ACAD_PROXY_OBJECT
  5
11D0
102
{ACAD_REACTORS
330
C
102
}
330
C
100
AcDbProxyObject
 90
      499
 91
      520
 95
  7143453
 70
     0
162
                 0
161
                50
310
0E000043A4128C
 94
        0
  0
ACAD_PROXY_OBJECT
  5
11CE
102
{ACAD_REACTORS
330
C
102
}
330
C
100
AcDbProxyObject
 90
      499
 91
      518
 95
  7143453
 70
     0
162
                 0
161
                32
310
90140A0000
330
11CF
 94
        0
  0
ACAD_PROXY_OBJECT
  5
11DB
102
{ACAD_REACTORS
330
C
102
}
330
C
100
AcDbProxyObject
 90
      499
 91
      518
 95
  7143453
 70
     0
162
                 0
161
                40
310
90240E000000
330
11DC
330
13FC
 94
        0
  0
DICTIONARY
  5
11C5
102
{ACAD_REACTORS
330
C
102
}
330
C
100
AcDbDictionary
281
     1
  3
AcMgSettings
350
11C6
  3
AMGLAYCFG
350
1204
  0
DICTIONARY
  5
1224
102
{ACAD_REACTORS
330
C
102
}
330
C
100
AcDbDictionary
281
     1
  3
DIMENSION
350
1229
  3
FEA
350
1228
  3
HATCH (1)
350
1225
  3
HATCH (2)
350
1226
  3
SIMPLE WELD
350
122A
  3
SYMBOLS
350
1227
  0
ACAD_PROXY_OBJECT
  5
11D9
102
{ACAD_REACTORS
330
C
102
}
330
C
100
AcDbProxyObject
 90
      499
 91
      528
 95
  7143453
 70
     0
162
                 0
161
                34
310
050000428C
 94
        0
  0
ACAD_PROXY_OBJECT
  5
11E4
102
{ACAD_REACTORS
330
C
102
}
330
C
100
AcDbProxyObject
 90
      499
 91
      532
 95
  7143453
 70
     0
162
                 0
161
                98
310
0E00005380000000000000000C
330
11EA
330
0
330
11EB
330
0
330
0
330
0
330
0
330
0
 94
        0
  0
ACAD_PROXY_OBJECT
  5
11DE
102
{ACAD_REACTORS
330
C
102
}
330
C
100
AcDbProxyObject
 90
      499
 91
      518
 95
  7143453
 70
     0
162
                 0
161
                64
310
90541A00000000007D
330
11DF
330
11E0
330
11E1
330
11E2
330
11E3
 94
        0
  0
ACAD_PROXY_OBJECT
  5
14A8
102
{ACAD_REACTORS
330
C
102
}
330
C
100
AcDbProxyObject
 90
      499
 91
      569
 95
  7143453
 70
     0
162
                 0
161
                 1
310
4C
 94
        0
  0
DICTIONARY
  5
1184
102
{ACAD_REACTORS
330
65A
102
}
330
65A
100
AcDbDictionary
281
     1
  0
DICTIONARY
  5
65B
102
{ACAD_REACTORS
330
65A
102
}
330
65A
100
AcDbDictionary
281
     1
  0
DICTIONARY
  5
1183
102
{ACAD_REACTORS
330
65A
102
}
330
65A
100
AcDbDictionary
281
     1
1001
ACAD
1000
<All
  0
XRECORD
  5
14AA
102
{ACAD_REACTORS
330
14A9
102
}
330
14A9
100
AcDbXrecord
280
     1
290
     1
  0
XRECORD
  5
14AC
102
{ACAD_REACTORS
330
14AB
102
}
330
14AB
100
AcDbXrecord
280
     1
290
     1
  0
XRECORD
  5
14AE
102
{ACAD_REACTORS
330
14AD
102
}
330
14AD
100
AcDbXrecord
280
     1
290
     1
  0
XRECORD
  5
14B0
102
{ACAD_REACTORS
330
14AF
102
}
330
14AF
100
AcDbXrecord
280
     1
290
     1
  0
XRECORD
  5
14B2
102
{ACAD_REACTORS
330
14B1
102
}
330
14B1
100
AcDbXrecord
280
     1
290
     1
  0
XRECORD
  5
14B4
102
{ACAD_REACTORS
330
14B3
102
}
330
14B3
100
AcDbXrecord
280
     1
290
     1
  0
SORTENTSTABLE
  5
B47
102
{ACAD_REACTORS
330
B46
102
}
330
B46
100
AcDbSortentsTable
330
1B
331
2E
  5
2E
331
4BA
  5
4BA
331
4A6
  5
4A6
331
4A7
  5
4A7
331
4A8
  5
4A8
331
4A9
  5
4A9
  0
XRECORD
  5
140D
102
{ACAD_REACTORS
330
140C
102
}
330
140C
100
AcDbXrecord
280
     1
 90
        1
340
11A4
  0
ACDBDETAILVIEWSTYLE
  5
11BB
102
{ACAD_XDICTIONARY
360
1582
102
}
102
{ACAD_REACTORS
330
11BA
102
}
330
11BA
100
AcDbModelDocViewStyle
 70
     0
  3
Imperial24
290
     0
100
AcDbDetailViewStyle
 70
     0
 71
     0
 90
        3
 71
     1
340
11
 62
   256
 40
0.24
340
0
 62
   256
 40
0.24
300

 40
0.36
280
     3
 71
     2
340
16
 90
       25
 62
   256
 71
     3
340
11
 62
   256
 40
0.24
 90
        1
 40
0.75
 90
        1
300
%<\AcVar ViewType \f "%tc1">% %<\AcVar ViewDetailId>%\PSCALE %<\AcVar ViewScale \f "%sn">%
 71
     4
340
16
 90
       25
 62
   256
340
16
 90
       25
 62
   256
280
     0
  0
LAYOUT
  5
22
102
{ACAD_XDICTIONARY
360
14C4
102
}
102
{ACAD_REACTORS
330
1A
102
}
330
1A
100
AcDbPlotSettings
  1

  2
none_device
  4
none_user_media
  6

 40
7.460000038146972
 41
6.400000095367431
 42
11.27000427246094
 43
6.399993896484375
 44
215.8999938964844
 45
279.3999938964844
 46
0.0
 47
0.0
 48
0.0
 49
0.0
140
0.0
141
0.0
142
1.0
143
1.979912147698159
 70
 11952
 72
     0
 73
     1
 74
     0
  7

 75
     0
147
0.5050729150596895
 76
     0
 77
     2
 78
   300
148
1.821692977681004
149
47.9252139705347
100
AcDbLayout
  1
Model
 70
     1
 71
     0
 10
0.0
 20
0.0
 11
12.0
 21
9.0
 12
0.0
 22
0.0
 32
0.0
 14
0.0
 24
0.0
 34
0.0
 15
0.0
 25
0.0
 35
0.0
146
0.0
 13
0.0
 23
0.0
 33
0.0
 16
1.0
 26
0.0
 36
0.0
 17
0.0
 27
1.0
 37
0.0
 76
     0
330
1F
  0
LAYOUT
  5
1E
102
{ACAD_XDICTIONARY
360
77F
102
}
102
{ACAD_REACTORS
330
1A
102
}
330
1A
100
AcDbPlotSettings
  1
P3-M-L-E
  2
\\tci3050\HP LaserJet 5000N #3
  4
Letter
  6

 40
4.233333110809326
 41
4.233341693878173
 42
8.466659545898437
 43
4.23333740234375
 44
215.8999938964844
 45
279.3999938964844
 46
0.0
 47
0.0
 48
0.0
 49
0.0
140
0.0
141
0.0
142
1.0
143
1.500096043756562
 70
   688
 72
     0
 73
     1
 74
     1
  7
monochrome.ctb
 75
     0
147
0.6666239832856204
 76
     0
 77
     2
 78
   300
148
0.5053152905642421
149
0.669952951918944
100
AcDbLayout
  1
TCI-B
 70
     1
 71
     1
 10
-0.2699182000122087
 20
-0.2769722290964413
 11
16.23115288981076
 21
12.47385534929694
 12
0.0
 22
0.0
 32
0.0
 14
-0.0198943027781198
 24
-0.0263761004692498
 34
-0.0000000000112498
 15
15.98112906941578
 25
9.974120379626974
 35
0.0000000000002956
146
0.0
 13
0.0
 23
0.0
 33
0.0
 16
1.0
 26
0.0
 36
0.0
 17
0.0
 27
1.0
 37
0.0
 76
     0
330
1B
331
2E
  0
MATERIAL
  5
629
102
{ACAD_REACTORS
330
627
102
}
330
627
100
AcDbMaterial
  1
ByBlock
 73
     1
 78
     1
172
     1
176
     1
270
     1
274
     1
 94
       63
  0
MATERIAL
  5
628
102
{ACAD_REACTORS
330
627
102
}
330
627
100
AcDbMaterial
  1
ByLayer
 73
     1
 78
     1
172
     1
176
     1
270
     1
274
     1
 94
       63
  0
MATERIAL
  5
62A
102
{ACAD_REACTORS
330
627
102
}
330
627
100
AcDbMaterial
  1
Global
 73
     1
 78
     1
172
     1
176
     1
270
     1
274
     1
 94
       63
  0
MLEADERSTYLE
  5
11B6
102
{ACAD_REACTORS
330
11B5
102
}
330
11B5
100
AcDbMLeaderStyle
179
     2
170
     2
171
     1
172
     0
 90
        2
 40
0.0
 41
0.0
173
     1
 91
-1056964608
340
14
 92
       -2
290
     1
 42
0.09
291
     1
 43
0.36
  3
Standard
 44
0.18
300

342
11
174
     1
178
     6
175
     1
176
     0
 93
-1056964608
 45
0.18
292
     0
297
     0
 46
0.18
 94
-1056964608
 47
1.0
 49
1.0
140
1.0
293
     1
141
0.0
294
     1
177
     0
142
1.0
295
     0
296
     0
143
0.125
271
     0
272
     9
273
     9
298
     1
  0
MLINESTYLE
  5
18
102
{ACAD_REACTORS
330
17
102
}
330
17
100
AcDbMlineStyle
  2
STANDARD
 70
     0
  3

 62
   256
 51
90.0
 52
90.0
 71
     2
 49
0.5
 62
   256
  6
BYLAYER
 49
-0.5
 62
   256
  6
BYLAYER
  0
PLOTSETTINGS
  5
60E
102
{ACAD_REACTORS
330
19
102
}
330
19
100
AcDbPlotSettings
  1
P3-M-L-E
  2
\\tci3050\HP LaserJet 5000N #3
  4
Letter
  6

 40
4.233333110809326
 41
4.233341693878173
 42
8.466659545898437
 43
4.23333740234375
 44
215.8999938964844
 45
279.3999938964844
 46
0.0
 47
0.0
 48
0.0
 49
0.0
140
0.0
141
0.0
142
1.0
143
1.500096043756562
 70
   688
 72
     0
 73
     1
 74
     1
  7
monochrome.ctb
 75
     0
147
0.6666239832856204
 76
     0
 77
     2
 78
   300
148
0.5053152905642421
149
0.669952951918944
  0
ACDBPLACEHOLDER
  5
F
102
{ACAD_REACTORS
330
E
102
}
330
E
  0
SCALE
  5
11A4
102
{ACAD_REACTORS
330
11A3
102
}
330
11A3
100
AcDbScale
 70
     0
300
1:1
140
1.0
141
1.0
290
     1
  0
SCALE
  5
11A5
102
{ACAD_REACTORS
330
11A3
102
}
330
11A3
100
AcDbScale
 70
     0
300
1/128" = 1'-0"
140
0.0078125
141
12.0
290
     0
  0
SCALE
  5
11A6
102
{ACAD_REACTORS
330
11A3
102
}
330
11A3
100
AcDbScale
 70
     0
300
1/64" = 1'-0"
140
0.015625
141
12.0
290
     0
  0
SCALE
  5
11A7
102
{ACAD_REACTORS
330
11A3
102
}
330
11A3
100
AcDbScale
 70
     0
300
1/32" = 1'-0"
140
0.03125
141
12.0
290
     0
  0
SCALE
  5
11A8
102
{ACAD_REACTORS
330
11A3
102
}
330
11A3
100
AcDbScale
 70
     0
300
1/16" = 1'-0"
140
0.0625
141
12.0
290
     0
  0
SCALE
  5
11A9
102
{ACAD_REACTORS
330
11A3
102
}
330
11A3
100
AcDbScale
 70
     0
300
3/32" = 1'-0"
140
0.09375
141
12.0
290
     0
  0
SCALE
  5
11AA
102
{ACAD_REACTORS
330
11A3
102
}
330
11A3
100
AcDbScale
 70
     0
300
1/8" = 1'-0"
140
0.125
141
12.0
290
     0
  0
SCALE
  5
11AB
102
{ACAD_REACTORS
330
11A3
102
}
330
11A3
100
AcDbScale
 70
     0
300
3/16" = 1'-0"
140
0.1875
141
12.0
290
     0
  0
SCALE
  5
11AC
102
{ACAD_REACTORS
330
11A3
102
}
330
11A3
100
AcDbScale
 70
     0
300
1/4" = 1'-0"
140
0.25
141
12.0
290
     0
  0
SCALE
  5
11AD
102
{ACAD_REACTORS
330
11A3
102
}
330
11A3
100
AcDbScale
 70
     0
300
3/8" = 1'-0"
140
0.375
141
12.0
290
     0
  0
SCALE
  5
11AE
102
{ACAD_REACTORS
330
11A3
102
}
330
11A3
100
AcDbScale
 70
     0
300
1/2" = 1'-0"
140
0.5
141
12.0
290
     0
  0
SCALE
  5
11AF
102
{ACAD_REACTORS
330
11A3
102
}
330
11A3
100
AcDbScale
 70
     0
300
3/4" = 1'-0"
140
0.75
141
12.0
290
     0
  0
SCALE
  5
11B0
102
{ACAD_REACTORS
330
11A3
102
}
330
11A3
100
AcDbScale
 70
     0
300
1" = 1'-0"
140
1.0
141
12.0
290
     0
  0
SCALE
  5
11B1
102
{ACAD_REACTORS
330
11A3
102
}
330
11A3
100
AcDbScale
 70
     0
300
1-1/2" = 1'-0"
140
1.5
141
12.0
290
     0
  0
SCALE
  5
11B2
102
{ACAD_REACTORS
330
11A3
102
}
330
11A3
100
AcDbScale
 70
     0
300
3" = 1'-0"
140
3.0
141
12.0
290
     0
  0
SCALE
  5
11B3
102
{ACAD_REACTORS
330
11A3
102
}
330
11A3
100
AcDbScale
 70
     0
300
6" = 1'-0"
140
6.0
141
12.0
290
     0
  0
SCALE
  5
11B4
102
{ACAD_REACTORS
330
11A3
102
}
330
11A3
100
AcDbScale
 70
     0
300
1'-0" = 1'-0"
140
12.0
141
12.0
290
     0
  0
ACDBSECTIONVIEWSTYLE
  5
11B9
102
{ACAD_XDICTIONARY
360
1580
102
}
102
{ACAD_REACTORS
330
11B7
102
}
330
11B7
100
AcDbModelDocViewStyle
 70
     0
  3
Imperial24
290
     0
100
AcDbSectionViewStyle
 70
     0
 71
     0
 90
       78
 71
     1
340
11
 62
   256
 40
0.24
340
0
340
0
 62
   256
 40
0.24
300
I, O, Q, S, X, Z
 40
0.48
 90
        3
 40
0.18
 90
        1
 71
     2
340
11B8
 90
       25
 62
   256
340
16
 90
       50
 62
   256
 40
0.24
 40
0.0
 40
0.24
 71
     3
340
11
 62
   256
 40
0.24
 90
        1
 40
0.75
 90
        1
300
%<\AcVar ViewType \f "%tc1">% %<\AcVar ViewSectionStartId>%-%<\AcVar ViewSectionEndId>%\PSCALE %<\AcVar ViewScale \f "%sn">%
 71
     4
 62
   256
 62
   257
300
ANSI31
 40
1.0
 90
        0
290
     0
290
     0
 90
        6
 40
0.0
 40
1.570796326794896
 40
0.2617993877991494
 40
1.308996938995747
 40
-0.2617993877991494
 40
1.832595714594046
  0
TABLESTYLE
  5
63E
102
{ACAD_XDICTIONARY
360
157E
102
}
102
{ACAD_REACTORS
330
63D
102
}
330
63D
100
AcDbTableStyle
280
     0
  3
Standard
 70
     0
 71
     0
 40
0.06
 41
0.06
280
     0
281
     0
  7
Standard
140
0.18
170
     2
 62
     0
 63
     7
283
     0
 90
      512
 91
        0
  1

274
    -2
284
     1
 64
     0
275
    -2
285
     1
 65
     0
276
    -2
286
     1
 66
     0
277
    -2
287
     1
 67
     0
278
    -2
288
     1
 68
     0
279
    -2
289
     1
 69
     0
  7
Standard
140
0.25
170
     5
 62
     0
 63
     7
283
     0
 90
      512
 91
        0
  1

274
    -2
284
     1
 64
     0
275
    -2
285
     1
 65
     0
276
    -2
286
     1
 66
     0
277
    -2
287
     1
 67
     0
278
    -2
288
     1
 68
     0
279
    -2
289
     1
 69
     0
  7
Standard
140
0.18
170
     5
 62
     0
 63
     7
283
     0
 90
      512
 91
        0
  1

274
    -2
284
     1
 64
     0
275
    -2
285
     1
 65
     0
276
    -2
286
     1
 66
     0
277
    -2
287
     1
 67
     0
278
    -2
288
     1
 68
     0
279
    -2
289
     1
 69
     0
  0
VISUALSTYLE
  5
631
102
{ACAD_REACTORS
330
62B
102
}
330
62B
100
AcDbVisualStyle
  2
2dWireframe
 70
     4
177
     3
291
     0
 70
    58
 90
        0
176
     1
 90
        2
176
     1
 90
        0
176
     1
 90
        0
176
     1
 40
0.6
176
     1
 40
30.0
176
     1
 62
     7
420
 16777215
176
     1
 90
        1
176
     1
 90
        4
176
     1
 62
     7
176
     1
 62
   257
176
     1
 90
        1
176
     1
 90
        1
176
     1
 40
1.0
176
     1
 90
        0
176
     1
 62
   257
176
     1
 40
1.0
176
     1
 90
        1
176
     1
 90
        6
176
     1
 90
        2
176
     1
 62
     7
176
     1
 90
        5
176
     1
 90
        0
176
     1
 90
        0
176
     1
290
     0
176
     1
 90
        1
176
     1
 40
0.0
176
     1
 90
        0
176
     1
290
     1
176
     1
290
     1
176
     1
290
     0
176
     1
290
     0
176
     1
290
     0
176
     1
290
     0
176
     1
290
     0
176
     1
290
     0
176
     1
290
     0
176
     1
 90
       50
176
     1
 40
0.0
176
     1
 40
1.0
176
     1
 90
        0
176
     1
 62
    18
420
        0
176
     1
 90
       50
176
     1
 90
        3
176
     1
 62
     5
420
      255
176
     1
290
     0
176
     1
 90
       50
176
     1
 90
       50
176
     1
 90
       50
176
     1
290
     0
176
     1
 90
       50
176
     1
 62
   256
176
     0
 40
1.0
176
     0
 90
        2
176
     1
  1
strokes_ogs.tif
176
     1
290
     0
176
     1
 40
1.0
176
     1
 40
1.0
176
     1
  0
VISUALSTYLE
  5
633
102
{ACAD_REACTORS
330
62B
102
}
330
62B
100
AcDbVisualStyle
  2
3D Hidden
 70
     6
177
     3
291
     0
 70
    58
 90
        1
176
     1
 90
        2
176
     1
 90
        2
176
     1
 90
        0
176
     1
 40
0.6
176
     1
 40
30.0
176
     1
 62
     7
420
 16777215
176
     1
 90
        2
176
     1
 90
        2
176
     1
 62
     7
176
     1
 62
   257
176
     1
 90
        2
176
     1
 90
        1
176
     1
 40
40.0
176
     1
 90
        0
176
     1
 62
   257
176
     1
 40
1.0
176
     1
 90
        1
176
     1
 90
        6
176
     1
 90
        2
176
     1
 62
     7
176
     1
 90
        3
176
     1
 90
        0
176
     1
 90
        0
176
     1
290
     0
176
     1
 90
        1
176
     1
 40
0.0
176
     1
 90
        0
176
     1
290
     0
176
     1
290
     1
176
     1
290
     1
176
     1
290
     0
176
     1
290
     0
176
     1
290
     0
176
     1
290
     0
176
     1
290
     0
176
     1
290
     0
176
     1
 90
       50
176
     1
 40
0.0
176
     1
 40
1.0
176
     1
 90
        0
176
     1
 62
    18
420
        0
176
     1
 90
       50
176
     1
 90
        3
176
     1
 62
     5
420
      255
176
     1
290
     0
176
     1
 90
       50
176
     1
 90
       50
176
     1
 90
       50
176
     1
290
     0
176
     1
 90
       50
176
     1
 62
   256
176
     0
 40
1.0
176
     0
 90
        2
176
     1
  1
strokes_ogs.tif
176
     1
290
     0
176
     1
 40
1.0
176
     1
 40
1.0
176
     1
  0
VISUALSTYLE
  5
632
102
{ACAD_REACTORS
330
62B
102
}
330
62B
100
AcDbVisualStyle
  2
3dWireframe
 70
     5
177
     3
291
     0
 70
    58
 90
        0
176
     1
 90
        2
176
     1
 90
        0
176
     1
 90
        0
176
     1
 40
0.6
176
     1
 40
30.0
176
     1
 62
     7
420
 16777215
176
     1
 90
        1
176
     1
 90
        4
176
     1
 62
     7
176
     1
 62
   257
176
     1
 90
        1
176
     1
 90
        1
176
     1
 40
1.0
176
     1
 90
        0
176
     1
 62
   257
176
     1
 40
1.0
176
     1
 90
        1
176
     1
 90
        6
176
     1
 90
        2
176
     1
 62
     7
176
     1
 90
        5
176
     1
 90
        0
176
     1
 90
        0
176
     1
290
     0
176
     1
 90
        1
176
     1
 40
0.0
176
     1
 90
        0
176
     1
290
     0
176
     1
290
     1
176
     1
290
     1
176
     1
290
     0
176
     1
290
     0
176
     1
290
     0
176
     1
290
     0
176
     1
290
     0
176
     1
290
     0
176
     1
 90
       50
176
     1
 40
0.0
176
     1
 40
1.0
176
     1
 90
        0
176
     1
 62
    18
420
        0
176
     1
 90
       50
176
     1
 90
        3
176
     1
 62
     5
420
      255
176
     1
290
     0
176
     1
 90
       50
176
     1
 90
       50
176
     1
 90
       50
176
     1
290
     0
176
     1
 90
       50
176
     1
 62
   256
176
     0
 40
1.0
176
     0
 90
        2
176
     1
  1
strokes_ogs.tif
176
     1
290
     0
176
     1
 40
1.0
176
     1
 40
1.0
176
     1
  0
VISUALSTYLE
  5
630
102
{ACAD_REACTORS
330
62B
102
}
330
62B
100
AcDbVisualStyle
  2
Basic
 70
     7
177
     3
291
     1
 70
    58
 90
        1
176
     1
 90
        0
176
     1
 90
        1
176
     1
 90
        0
176
     1
 40
0.6
176
     1
 40
30.0
176
     1
 62
     7
420
 16777215
176
     1
 90
        0
176
     1
 90
        4
176
     1
 62
     7
176
     1
 62
   257
176
     1
 90
        1
176
     1
 90
        1
176
     1
 40
1.0
176
     1
 90
        8
176
     1
 62
     7
176
     1
 40
1.0
176
     1
 90
        1
176
     1
 90
        6
176
     1
 90
        2
176
     1
 62
     7
176
     1
 90
        5
176
     1
 90
        0
176
     1
 90
        0
176
     1
290
     0
176
     1
 90
        1
176
     1
 40
0.0
176
     1
 90
        0
176
     1
290
     0
176
     1
290
     1
176
     1
290
     1
176
     1
290
     0
176
     1
290
     0
176
     1
290
     0
176
     1
290
     0
176
     1
290
     0
176
     1
290
     0
176
     1
 90
       50
176
     1
 40
0.0
176
     1
 40
1.0
176
     1
 90
        0
176
     1
 62
    18
420
        0
176
     1
 90
       50
176
     1
 90
        3
176
     1
 62
     5
420
      255
176
     1
290
     0
176
     1
 90
       50
176
     1
 90
       50
176
     1
 90
       50
176
     1
290
     0
176
     1
 90
       50
176
     1
 62
   256
176
     0
 40
1.0
176
     0
 90
        2
176
     1
  1
strokes_ogs.tif
176
     1
290
     0
176
     1
 40
1.0
176
     1
 40
1.0
176
     1
  0
VISUALSTYLE
  5
637
102
{ACAD_REACTORS
330
62B
102
}
330
62B
100
AcDbVisualStyle
  2
Brighten
 70
    12
177
     3
291
     1
 70
    58
 90
        2
176
     1
 90
        2
176
     1
 90
        0
176
     1
 90
        0
176
     1
 40
0.6
176
     1
 40
30.0
176
     1
 62
     7
420
 16777215
176
     1
 90
        1
176
     1
 90
        4
176
     1
 62
     7
176
     1
 62
   257
176
     1
 90
        1
176
     1
 90
        1
176
     1
 40
1.0
176
     1
 90
        8
176
     1
 62
     7
176
     1
 40
1.0
176
     1
 90
        1
176
     1
 90
        6
176
     1
 90
        2
176
     1
 62
     7
176
     1
 90
        5
176
     1
 90
        0
176
     1
 90
        0
176
     1
290
     0
176
     1
 90
        1
176
     1
 40
50.0
176
     1
 90
        0
176
     1
290
     0
176
     1
290
     1
176
     1
290
     1
176
     1
290
     0
176
     1
290
     0
176
     1
290
     0
176
     1
290
     0
176
     1
290
     0
176
     1
290
     0
176
     1
 90
       50
176
     1
 40
0.0
176
     1
 40
1.0
176
     1
 90
        0
176
     1
 62
    18
420
        0
176
     1
 90
       50
176
     1
 90
        3
176
     1
 62
     5
420
      255
176
     1
290
     0
176
     1
 90
       50
176
     1
 90
       50
176
     1
 90
       50
176
     1
290
     0
176
     1
 90
       50
176
     1
 62
   256
176
     0
 40
1.0
176
     0
 90
        2
176
     1
  1
strokes_ogs.tif
176
     1
290
     0
176
     1
 40
1.0
176
     1
 40
1.0
176
     1
  0
VISUALSTYLE
  5
63B
102
{ACAD_REACTORS
330
62B
102
}
330
62B
100
AcDbVisualStyle
  2
ColorChange
 70
    16
177
     3
291
     1
 70
    58
 90
        2
176
     1
 90
        2
176
     1
 90
        3
176
     1
 90
        0
176
     1
 40
0.6
176
     1
 40
30.0
176
     1
 62
     8
420
  8421504
176
     1
 90
        1
176
     1
 90
        4
176
     1
 62
     7
176
     1
 62
   257
176
     1
 90
        1
176
     1
 90
        1
176
     1
 40
1.0
176
     1
 90
        8
176
     1
 62
     8
420
  8421504
176
     1
 40
1.0
176
     1
 90
        1
176
     1
 90
        6
176
     1
 90
        2
176
     1
 62
     7
176
     1
 90
        5
176
     1
 90
        0
176
     1
 90
        0
176
     1
290
     0
176
     1
 90
        1
176
     1
 40
0.0
176
     1
 90
        0
176
     1
290
     0
176
     1
290
     1
176
     1
290
     1
176
     1
290
     0
176
     1
290
     0
176
     1
290
     0
176
     1
290
     0
176
     1
290
     0
176
     1
290
     0
176
     1
 90
       50
176
     1
 40
0.0
176
     1
 40
1.0
176
     1
 90
        0
176
     1
 62
    18
420
        0
176
     1
 90
       50
176
     1
 90
        3
176
     1
 62
     5
420
      255
176
     1
290
     0
176
     1
 90
       50
176
     1
 90
       50
176
     1
 90
       50
176
     1
290
     0
176
     1
 90
       50
176
     1
 62
   256
176
     0
 40
1.0
176
     0
 90
        2
176
     1
  1
strokes_ogs.tif
176
     1
290
     0
176
     1
 40
1.0
176
     1
 40
1.0
176
     1
  0
VISUALSTYLE
  5
634
102
{ACAD_REACTORS
330
62B
102
}
330
62B
100
AcDbVisualStyle
  2
Conceptual
 70
     9
177
     3
291
     0
 70
    58
 90
        3
176
     1
 90
        2
176
     1
 90
        0
176
     1
 90
        0
176
     1
 40
0.6
176
     1
 40
30.0
176
     1
 62
     7
420
 16777215
176
     1
 90
        2
176
     1
 90
        2
176
     1
 62
     7
176
     1
 62
   257
176
     1
 90
        1
176
     1
 90
        1
176
     1
 40
40.0
176
     1
 90
        8
176
     1
 62
     7
176
     1
 40
1.0
176
     1
 90
        1
176
     1
 90
        6
176
     1
 90
        2
176
     1
 62
     7
176
     1
 90
        3
176
     1
 90
        0
176
     1
 90
        0
176
     1
290
     0
176
     1
 90
        1
176
     1
 40
0.0
176
     1
 90
        0
176
     1
290
     0
176
     1
290
     1
176
     1
290
     1
176
     1
290
     0
176
     1
290
     0
176
     1
290
     0
176
     1
290
     0
176
     1
290
     0
176
     1
290
     0
176
     1
 90
       50
176
     1
 40
0.0
176
     1
 40
1.0
176
     1
 90
        0
176
     1
 62
    18
420
        0
176
     1
 90
       50
176
     1
 90
        3
176
     1
 62
     5
420
      255
176
     1
290
     0
176
     1
 90
       50
176
     1
 90
       50
176
     1
 90
       50
176
     1
290
     0
176
     1
 90
       50
176
     1
 62
   256
176
     0
 40
1.0
176
     0
 90
        2
176
     1
  1
strokes_ogs.tif
176
     1
290
     0
176
     1
 40
1.0
176
     1
 40
1.0
176
     1
  0
VISUALSTYLE
  5
636
102
{ACAD_REACTORS
330
62B
102
}
330
62B
100
AcDbVisualStyle
  2
Dim
 70
    11
177
     3
291
     1
 70
    58
 90
        2
176
     1
 90
        2
176
     1
 90
        0
176
     1
 90
        0
176
     1
 40
0.6
176
     1
 40
30.0
176
     1
 62
     7
420
 16777215
176
     1
 90
        1
176
     1
 90
        4
176
     1
 62
     7
176
     1
 62
   257
176
     1
 90
        1
176
     1
 90
        1
176
     1
 40
1.0
176
     1
 90
        8
176
     1
 62
     7
176
     1
 40
1.0
176
     1
 90
        1
176
     1
 90
        6
176
     1
 90
        2
176
     1
 62
     7
176
     1
 90
        5
176
     1
 90
        0
176
     1
 90
        0
176
     1
290
     0
176
     1
 90
        1
176
     1
 40
-50.0
176
     1
 90
        0
176
     1
290
     0
176
     1
290
     1
176
     1
290
     1
176
     1
290
     0
176
     1
290
     0
176
     1
290
     0
176
     1
290
     0
176
     1
290
     0
176
     1
290
     0
176
     1
 90
       50
176
     1
 40
0.0
176
     1
 40
1.0
176
     1
 90
        0
176
     1
 62
    18
420
        0
176
     1
 90
       50
176
     1
 90
        3
176
     1
 62
     5
420
      255
176
     1
290
     0
176
     1
 90
       50
176
     1
 90
       50
176
     1
 90
       50
176
     1
290
     0
176
     1
 90
       50
176
     1
 62
   256
176
     0
 40
1.0
176
     0
 90
        2
176
     1
  1
strokes_ogs.tif
176
     1
290
     0
176
     1
 40
1.0
176
     1
 40
1.0
176
     1
  0
VISUALSTYLE
  5
11A2
102
{ACAD_REACTORS
330
62B
102
}
330
62B
100
AcDbVisualStyle
  2
EdgeColorOff
 70
    22
177
     3
291
     1
 70
    58
 90
        2
176
     0
 90
        2
176
     0
 90
        0
176
     0
 90
        0
176
     0
 40
0.6
176
     0
 40
30.0
176
     0
 62
     7
420
 16777215
176
     0
 90
        1
176
     0
 90
        4
176
     0
 62
     7
176
     0
 62
   257
176
     0
 90
        1
176
     0
 90
        1
176
     0
 40
1.0
176
     0
 90
        8
176
     2
 62
     7
176
     0
 40
1.0
176
     0
 90
        1
176
     0
 90
        6
176
     0
 90
        2
176
     0
 62
     7
176
     0
 90
        5
176
     0
 90
        0
176
     0
 90
        0
176
     0
290
     0
176
     0
 90
        1
176
     0
 40
0.0
176
     0
 90
        0
176
     0
290
     0
176
     0
290
     1
176
     0
290
     1
176
     0
290
     0
176
     0
290
     0
176
     0
290
     0
176
     0
290
     0
176
     0
290
     0
176
     0
290
     0
176
     0
 90
       50
176
     0
 40
0.0
176
     0
 40
1.0
176
     0
 90
        0
176
     0
 62
    18
420
        0
176
     0
 90
       50
176
     0
 90
        3
176
     0
 62
     5
420
      255
176
     0
290
     0
176
     0
 90
       50
176
     0
 90
       50
176
     0
 90
       50
176
     0
290
     0
176
     0
 90
       50
176
     0
 62
   256
176
     0
 40
1.0
176
     0
 90
        2
176
     0
  1
strokes_ogs.tif
176
     0
290
     0
176
     0
 40
1.0
176
     0
 40
1.0
176
     0
  0
VISUALSTYLE
  5
63A
102
{ACAD_REACTORS
330
62B
102
}
330
62B
100
AcDbVisualStyle
  2
Facepattern
 70
    15
177
     3
291
     1
 70
    58
 90
        2
176
     1
 90
        2
176
     1
 90
        0
176
     1
 90
        0
176
     1
 40
0.6
176
     1
 40
30.0
176
     1
 62
     7
420
 16777215
176
     1
 90
        1
176
     1
 90
        4
176
     1
 62
     7
176
     1
 62
   257
176
     1
 90
        1
176
     1
 90
        1
176
     1
 40
1.0
176
     1
 90
        8
176
     1
 62
     7
176
     1
 40
1.0
176
     1
 90
        1
176
     1
 90
        6
176
     1
 90
        2
176
     1
 62
     7
176
     1
 90
        5
176
     1
 90
        0
176
     1
 90
        0
176
     1
290
     0
176
     1
 90
        1
176
     1
 40
0.0
176
     1
 90
        0
176
     1
290
     0
176
     1
290
     1
176
     1
290
     1
176
     1
290
     0
176
     1
290
     0
176
     1
290
     0
176
     1
290
     0
176
     1
290
     0
176
     1
290
     0
176
     1
 90
       50
176
     1
 40
0.0
176
     1
 40
1.0
176
     1
 90
        0
176
     1
 62
    18
420
        0
176
     1
 90
       50
176
     1
 90
        3
176
     1
 62
     5
420
      255
176
     1
290
     0
176
     1
 90
       50
176
     1
 90
       50
176
     1
 90
       50
176
     1
290
     0
176
     1
 90
       50
176
     1
 62
   256
176
     0
 40
1.0
176
     0
 90
        2
176
     1
  1
strokes_ogs.tif
176
     1
290
     0
176
     1
 40
1.0
176
     1
 40
1.0
176
     1
  0
VISUALSTYLE
  5
62C
102
{ACAD_REACTORS
330
62B
102
}
330
62B
100
AcDbVisualStyle
  2
Flat
 70
     0
177
     3
291
     1
 70
    58
 90
        2
176
     1
 90
        1
176
     1
 90
        1
176
     1
 90
        2
176
     1
 40
0.6
176
     1
 40
30.0
176
     1
 62
     7
420
 16777215
176
     1
 90
        0
176
     1
 90
        4
176
     1
 62
     7
176
     1
 62
   257
176
     1
 90
        1
176
     1
 90
        1
176
     1
 40
1.0
176
     1
 90
        8
176
     1
 62
     7
176
     1
 40
1.0
176
     1
 90
        1
176
     1
 90
        6
176
     1
 90
        2
176
     1
 62
     7
176
     1
 90
        5
176
     1
 90
        0
176
     1
 90
        0
176
     1
290
     0
176
     1
 90
       13
176
     1
 40
0.0
176
     1
 90
        0
176
     1
290
     0
176
     1
290
     1
176
     1
290
     1
176
     1
290
     0
176
     1
290
     0
176
     1
290
     0
176
     1
290
     0
176
     1
290
     0
176
     1
290
     0
176
     1
 90
       50
176
     1
 40
0.0
176
     1
 40
1.0
176
     1
 90
        0
176
     1
 62
    18
420
        0
176
     1
 90
       50
176
     1
 90
        3
176
     1
 62
     5
420
      255
176
     1
290
     0
176
     1
 90
       50
176
     1
 90
       50
176
     1
 90
       50
176
     1
290
     0
176
     1
 90
       50
176
     1
 62
   256
176
     0
 40
1.0
176
     0
 90
        2
176
     1
  1
strokes_ogs.tif
176
     1
290
     0
176
     1
 40
1.0
176
     1
 40
1.0
176
     1
  0
VISUALSTYLE
  5
62D
102
{ACAD_REACTORS
330
62B
102
}
330
62B
100
AcDbVisualStyle
  2
FlatWithEdges
 70
     1
177
     3
291
     1
 70
    58
 90
        2
176
     1
 90
        1
176
     1
 90
        1
176
     1
 90
        2
176
     1
 40
0.6
176
     1
 40
30.0
176
     1
 62
     7
420
 16777215
176
     1
 90
        1
176
     1
 90
        4
176
     1
 62
     7
176
     1
 62
   257
176
     1
 90
        1
176
     1
 90
        1
176
     1
 40
1.0
176
     1
 90
        0
176
     1
 62
   257
176
     1
 40
1.0
176
     1
 90
        1
176
     1
 90
        6
176
     1
 90
        2
176
     1
 62
     7
176
     1
 90
        5
176
     1
 90
        0
176
     1
 90
        0
176
     1
290
     0
176
     1
 90
       13
176
     1
 40
0.0
176
     1
 90
        0
176
     1
290
     0
176
     1
290
     1
176
     1
290
     1
176
     1
290
     0
176
     1
290
     0
176
     1
290
     0
176
     1
290
     0
176
     1
290
     0
176
     1
290
     0
176
     1
 90
       50
176
     1
 40
0.0
176
     1
 40
1.0
176
     1
 90
        0
176
     1
 62
    18
420
        0
176
     1
 90
       50
176
     1
 90
        3
176
     1
 62
     5
420
      255
176
     1
290
     0
176
     1
 90
       50
176
     1
 90
       50
176
     1
 90
       50
176
     1
290
     0
176
     1
 90
       50
176
     1
 62
   256
176
     0
 40
1.0
176
     0
 90
        2
176
     1
  1
strokes_ogs.tif
176
     1
290
     0
176
     1
 40
1.0
176
     1
 40
1.0
176
     1
  0
VISUALSTYLE
  5
62E
102
{ACAD_REACTORS
330
62B
102
}
330
62B
100
AcDbVisualStyle
  2
Gouraud
 70
     2
177
     3
291
     1
 70
    58
 90
        2
176
     1
 90
        2
176
     1
 90
        1
176
     1
 90
        2
176
     1
 40
0.6
176
     1
 40
30.0
176
     1
 62
     7
420
 16777215
176
     1
 90
        0
176
     1
 90
        4
176
     1
 62
     7
176
     1
 62
   257
176
     1
 90
        1
176
     1
 90
        1
176
     1
 40
1.0
176
     1
 90
        0
176
     1
 62
     7
176
     1
 40
1.0
176
     1
 90
        1
176
     1
 90
        6
176
     1
 90
        2
176
     1
 62
     7
176
     1
 90
        5
176
     1
 90
        0
176
     1
 90
        0
176
     1
290
     0
176
     1
 90
       13
176
     1
 40
0.0
176
     1
 90
        0
176
     1
290
     0
176
     1
290
     1
176
     1
290
     1
176
     1
290
     0
176
     1
290
     0
176
     1
290
     0
176
     1
290
     0
176
     1
290
     0
176
     1
290
     0
176
     1
 90
       50
176
     1
 40
0.0
176
     1
 40
1.0
176
     1
 90
        0
176
     1
 62
    18
420
        0
176
     1
 90
       50
176
     1
 90
        3
176
     1
 62
     5
420
      255
176
     1
290
     0
176
     1
 90
       50
176
     1
 90
       50
176
     1
 90
       50
176
     1
290
     0
176
     1
 90
       50
176
     1
 62
   256
176
     0
 40
1.0
176
     0
 90
        2
176
     1
  1
strokes_ogs.tif
176
     1
290
     0
176
     1
 40
1.0
176
     1
 40
1.0
176
     1
  0
VISUALSTYLE
  5
62F
102
{ACAD_REACTORS
330
62B
102
}
330
62B
100
AcDbVisualStyle
  2
GouraudWithEdges
 70
     3
177
     3
291
     1
 70
    58
 90
        2
176
     1
 90
        2
176
     1
 90
        1
176
     1
 90
        2
176
     1
 40
0.6
176
     1
 40
30.0
176
     1
 62
     7
420
 16777215
176
     1
 90
        1
176
     1
 90
        4
176
     1
 62
     7
176
     1
 62
   257
176
     1
 90
        1
176
     1
 90
        1
176
     1
 40
1.0
176
     1
 90
        0
176
     1
 62
   257
176
     1
 40
1.0
176
     1
 90
        1
176
     1
 90
        6
176
     1
 90
        2
176
     1
 62
     7
176
     1
 90
        5
176
     1
 90
        0
176
     1
 90
        0
176
     1
290
     0
176
     1
 90
       13
176
     1
 40
0.0
176
     1
 90
        0
176
     1
290
     0
176
     1
290
     1
176
     1
290
     1
176
     1
290
     0
176
     1
290
     0
176
     1
290
     0
176
     1
290
     0
176
     1
290
     0
176
     1
290
     0
176
     1
 90
       50
176
     1
 40
0.0
176
     1
 40
1.0
176
     1
 90
        0
176
     1
 62
    18
420
        0
176
     1
 90
       50
176
     1
 90
        3
176
     1
 62
     5
420
      255
176
     1
290
     0
176
     1
 90
       50
176
     1
 90
       50
176
     1
 90
       50
176
     1
290
     0
176
     1
 90
       50
176
     1
 62
   256
176
     0
 40
1.0
176
     0
 90
        2
176
     1
  1
strokes_ogs.tif
176
     1
290
     0
176
     1
 40
1.0
176
     1
 40
1.0
176
     1
  0
VISUALSTYLE
  5
119A
102
{ACAD_REACTORS
330
62B
102
}
330
62B
100
AcDbVisualStyle
  2
Hidden
 70
     6
177
     3
291
     0
 70
    58
 90
        1
176
     1
 90
        2
176
     1
 90
        2
176
     1
 90
        0
176
     1
 40
0.6
176
     1
 40
30.0
176
     1
 62
     7
420
 16777215
176
     1
 90
        2
176
     1
 90
        2
176
     1
 62
     7
176
     1
 62
   257
176
     1
 90
        2
176
     1
 90
        1
176
     1
 40
40.0
176
     1
 90
        0
176
     1
 62
   257
176
     1
 40
1.0
176
     1
 90
        1
176
     1
 90
        6
176
     1
 90
        2
176
     1
 62
     7
176
     1
 90
        3
176
     1
 90
        0
176
     1
 90
        0
176
     1
290
     0
176
     1
 90
        1
176
     1
 40
0.0
176
     1
 90
        0
176
     1
290
     0
176
     1
290
     1
176
     1
290
     1
176
     1
290
     0
176
     1
290
     0
176
     1
290
     0
176
     1
290
     0
176
     1
290
     0
176
     1
290
     0
176
     1
 90
       50
176
     1
 40
0.0
176
     1
 40
1.0
176
     1
 90
        0
176
     1
 62
    18
420
        0
176
     1
 90
       50
176
     1
 90
        3
176
     1
 62
     5
420
      255
176
     1
290
     0
176
     1
 90
       50
176
     1
 90
       50
176
     1
 90
       50
176
     1
290
     0
176
     1
 90
       50
176
     1
 62
   256
176
     0
 40
1.0
176
     0
 90
        2
176
     1
  1
strokes_ogs.tif
176
     1
290
     0
176
     1
 40
1.0
176
     1
 40
1.0
176
     1
  0
VISUALSTYLE
  5
11A0
102
{ACAD_REACTORS
330
62B
102
}
330
62B
100
AcDbVisualStyle
  2
JitterOff
 70
    20
177
     3
291
     1
 70
    58
 90
        2
176
     0
 90
        2
176
     0
 90
        0
176
     0
 90
        0
176
     0
 40
0.6
176
     0
 40
30.0
176
     0
 62
     7
420
 16777215
176
     0
 90
        1
176
     0
 90
        4
176
     0
 62
     7
176
     0
 62
   257
176
     0
 90
        1
176
     0
 90
        1
176
     0
 40
1.0
176
     0
 90
       10
176
     2
 62
     7
176
     0
 40
1.0
176
     0
 90
        1
176
     0
 90
        6
176
     0
 90
        2
176
     0
 62
     7
176
     0
 90
        5
176
     0
 90
        0
176
     0
 90
        0
176
     0
290
     0
176
     0
 90
        1
176
     0
 40
0.0
176
     0
 90
        0
176
     0
290
     0
176
     0
290
     1
176
     0
290
     1
176
     0
290
     0
176
     0
290
     0
176
     0
290
     0
176
     0
290
     0
176
     0
290
     0
176
     0
290
     0
176
     0
 90
       50
176
     0
 40
0.0
176
     0
 40
1.0
176
     0
 90
        0
176
     0
 62
    18
420
        0
176
     0
 90
       50
176
     0
 90
        3
176
     0
 62
     5
420
      255
176
     0
290
     0
176
     0
 90
       50
176
     0
 90
       50
176
     0
 90
       50
176
     0
290
     0
176
     0
 90
       50
176
     0
 62
   256
176
     0
 40
1.0
176
     0
 90
        2
176
     0
  1
strokes_ogs.tif
176
     0
290
     0
176
     0
 40
1.0
176
     0
 40
1.0
176
     0
  0
VISUALSTYLE
  5
639
102
{ACAD_REACTORS
330
62B
102
}
330
62B
100
AcDbVisualStyle
  2
Linepattern
 70
    14
177
     3
291
     1
 70
    58
 90
        2
176
     1
 90
        2
176
     1
 90
        0
176
     1
 90
        0
176
     1
 40
0.6
176
     1
 40
30.0
176
     1
 62
     7
420
 16777215
176
     1
 90
        1
176
     1
 90
        4
176
     1
 62
     7
176
     1
 62
   257
176
     1
 90
        7
176
     1
 90
        7
176
     1
 40
1.0
176
     1
 90
        8
176
     1
 62
     7
176
     1
 40
1.0
176
     1
 90
        1
176
     1
 90
        6
176
     1
 90
        2
176
     1
 62
     7
176
     1
 90
        5
176
     1
 90
        0
176
     1
 90
        0
176
     1
290
     0
176
     1
 90
        1
176
     1
 40
0.0
176
     1
 90
        0
176
     1
290
     0
176
     1
290
     1
176
     1
290
     1
176
     1
290
     0
176
     1
290
     0
176
     1
290
     0
176
     1
290
     0
176
     1
290
     0
176
     1
290
     0
176
     1
 90
       50
176
     1
 40
0.0
176
     1
 40
1.0
176
     1
 90
        0
176
     1
 62
    18
420
        0
176
     1
 90
       50
176
     1
 90
        3
176
     1
 62
     5
420
      255
176
     1
290
     0
176
     1
 90
       50
176
     1
 90
       50
176
     1
 90
       50
176
     1
290
     0
176
     1
 90
       50
176
     1
 62
   256
176
     0
 40
1.0
176
     0
 90
        2
176
     1
  1
strokes_ogs.tif
176
     1
290
     0
176
     1
 40
1.0
176
     1
 40
1.0
176
     1
  0
VISUALSTYLE
  5
11A1
102
{ACAD_REACTORS
330
62B
102
}
330
62B
100
AcDbVisualStyle
  2
OverhangOff
 70
    21
177
     3
291
     1
 70
    58
 90
        2
176
     0
 90
        2
176
     0
 90
        0
176
     0
 90
        0
176
     0
 40
0.6
176
     0
 40
30.0
176
     0
 62
     7
420
 16777215
176
     0
 90
        1
176
     0
 90
        4
176
     0
 62
     7
176
     0
 62
   257
176
     0
 90
        1
176
     0
 90
        1
176
     0
 40
1.0
176
     0
 90
        9
176
     2
 62
     7
176
     0
 40
1.0
176
     0
 90
        1
176
     0
 90
        6
176
     0
 90
        2
176
     0
 62
     7
176
     0
 90
        5
176
     0
 90
        0
176
     0
 90
        0
176
     0
290
     0
176
     0
 90
        1
176
     0
 40
0.0
176
     0
 90
        0
176
     0
290
     0
176
     0
290
     1
176
     0
290
     1
176
     0
290
     0
176
     0
290
     0
176
     0
290
     0
176
     0
290
     0
176
     0
290
     0
176
     0
290
     0
176
     0
 90
       50
176
     0
 40
0.0
176
     0
 40
1.0
176
     0
 90
        0
176
     0
 62
    18
420
        0
176
     0
 90
       50
176
     0
 90
        3
176
     0
 62
     5
420
      255
176
     0
290
     0
176
     0
 90
       50
176
     0
 90
       50
176
     0
 90
       50
176
     0
290
     0
176
     0
 90
       50
176
     0
 62
   256
176
     0
 40
1.0
176
     0
 90
        2
176
     0
  1
strokes_ogs.tif
176
     0
290
     0
176
     0
 40
1.0
176
     0
 40
1.0
176
     0
  0
VISUALSTYLE
  5
635
102
{ACAD_REACTORS
330
62B
102
}
330
62B
100
AcDbVisualStyle
  2
Realistic
 70
     8
177
     3
291
     0
 70
    58
 90
        2
176
     1
 90
        2
176
     1
 90
        0
176
     1
 90
        0
176
     1
 40
0.6
176
     1
 40
30.0
176
     1
 62
     7
420
 16777215
176
     1
 90
        1
176
     1
 90
        0
176
     1
 62
     7
176
     1
 62
   257
176
     1
 90
        1
176
     1
 90
        1
176
     1
 40
1.0
176
     1
 90
        8
176
     1
 62
     8
420
  7895160
176
     1
 40
1.0
176
     1
 90
        1
176
     1
 90
        6
176
     1
 90
        2
176
     1
 62
     7
176
     1
 90
        5
176
     1
 90
        0
176
     1
 90
        0
176
     1
290
     0
176
     1
 90
       13
176
     1
 40
0.0
176
     1
 90
        0
176
     1
290
     0
176
     1
290
     1
176
     1
290
     1
176
     1
290
     0
176
     1
290
     0
176
     1
290
     0
176
     1
290
     0
176
     1
290
     0
176
     1
290
     0
176
     1
 90
       50
176
     1
 40
0.0
176
     1
 40
1.0
176
     1
 90
        0
176
     1
 62
    18
420
        0
176
     1
 90
       50
176
     1
 90
        3
176
     1
 62
     5
420
      255
176
     1
290
     0
176
     1
 90
       50
176
     1
 90
       50
176
     1
 90
       50
176
     1
290
     0
176
     1
 90
       50
176
     1
 62
   256
176
     0
 40
1.0
176
     0
 90
        2
176
     1
  1
strokes_ogs.tif
176
     1
290
     0
176
     1
 40
1.0
176
     1
 40
1.0
176
     1
  0
VISUALSTYLE
  5
119F
102
{ACAD_REACTORS
330
62B
102
}
330
62B
100
AcDbVisualStyle
  2
Shaded
 70
    27
177
     3
291
     0
 70
    58
 90
        2
176
     1
 90
        2
176
     1
 90
        1
176
     1
 90
        2
176
     1
 40
0.6
176
     1
 40
30.0
176
     1
 62
     7
420
 16777215
176
     1
 90
        0
176
     1
 90
        4
176
     1
 62
     7
176
     1
 62
   257
176
     1
 90
        1
176
     1
 90
        1
176
     1
 40
1.0
176
     1
 90
        8
176
     1
 62
   257
176
     1
 40
1.0
176
     1
 90
        1
176
     1
 90
        6
176
     1
 90
        2
176
     1
 62
     8
420
  7895160
176
     1
 90
        3
176
     1
 90
        0
176
     1
 90
        0
176
     1
290
     0
176
     1
 90
        5
176
     1
 40
0.0
176
     1
 90
        0
176
     1
290
     0
176
     1
290
     1
176
     1
290
     1
176
     1
290
     0
176
     1
290
     0
176
     1
290
     0
176
     1
290
     0
176
     1
290
     0
176
     1
290
     0
176
     1
 90
       50
176
     1
 40
0.0
176
     1
 40
1.0
176
     1
 90
        0
176
     1
 62
    18
420
        0
176
     1
 90
       50
176
     1
 90
        3
176
     1
 62
     5
420
      255
176
     1
290
     0
176
     1
 90
       50
176
     1
 90
       50
176
     1
 90
       50
176
     1
290
     0
176
     1
 90
       50
176
     1
 62
   256
176
     0
 40
1.0
176
     0
 90
        2
176
     1
  1
strokes_ogs.tif
176
     1
290
     0
176
     1
 40
1.0
176
     1
 40
1.0
176
     1
  0
VISUALSTYLE
  5
119E
102
{ACAD_REACTORS
330
62B
102
}
330
62B
100
AcDbVisualStyle
  2
Shaded with edges
 70
    26
177
     3
291
     0
 70
    58
 90
        2
176
     1
 90
        2
176
     1
 90
        1
176
     1
 90
        2
176
     1
 40
0.6
176
     1
 40
30.0
176
     1
 62
     7
420
 16777215
176
     1
 90
        1
176
     1
 90
       10
176
     1
 62
     7
176
     1
 62
   257
176
     1
 90
        2
176
     1
 90
        1
176
     1
 40
1.0
176
     1
 90
        8
176
     1
 62
   257
176
     1
 40
1.0
176
     1
 90
        1
176
     1
 90
        6
176
     1
 90
        2
176
     1
 62
     7
176
     1
 90
        3
176
     1
 90
        0
176
     1
 90
        0
176
     1
290
     0
176
     1
 90
        5
176
     1
 40
0.0
176
     1
 90
        0
176
     1
290
     0
176
     1
290
     1
176
     1
290
     1
176
     1
290
     0
176
     1
290
     0
176
     1
290
     0
176
     1
290
     0
176
     1
290
     0
176
     1
290
     0
176
     1
 90
       50
176
     1
 40
0.0
176
     1
 40
1.0
176
     1
 90
        0
176
     1
 62
    18
420
        0
176
     1
 90
       50
176
     1
 90
        3
176
     1
 62
     5
420
      255
176
     1
290
     0
176
     1
 90
       50
176
     1
 90
       50
176
     1
 90
       50
176
     1
290
     0
176
     1
 90
       50
176
     1
 62
   256
176
     0
 40
1.0
176
     0
 90
        2
176
     1
  1
strokes_ogs.tif
176
     1
290
     0
176
     1
 40
1.0
176
     1
 40
1.0
176
     1
  0
VISUALSTYLE
  5
119B
102
{ACAD_REACTORS
330
62B
102
}
330
62B
100
AcDbVisualStyle
  2
Shades of Gray
 70
    23
177
     3
291
     0
 70
    58
 90
        2
176
     1
 90
        2
176
     1
 90
        3
176
     1
 90
        0
176
     1
 40
0.6
176
     1
 40
30.0
176
     1
 62
     7
420
 16777215
176
     1
 90
        2
176
     1
 90
        2
176
     1
 62
     7
176
     1
 62
     7
176
     1
 90
        1
176
     1
 90
        1
176
     1
 40
40.0
176
     1
 90
        8
176
     1
 62
     7
176
     1
 40
1.0
176
     1
 90
        1
176
     1
 90
        6
176
     1
 90
        2
176
     1
 62
     7
176
     1
 90
        3
176
     1
 90
        0
176
     1
 90
        0
176
     1
290
     0
176
     1
 90
        1
176
     1
 40
0.0
176
     1
 90
        0
176
     1
290
     0
176
     1
290
     1
176
     1
290
     1
176
     1
290
     0
176
     1
290
     0
176
     1
290
     0
176
     1
290
     0
176
     1
290
     0
176
     1
290
     0
176
     1
 90
       50
176
     1
 40
0.0
176
     1
 40
1.0
176
     1
 90
        0
176
     1
 62
    18
420
        0
176
     1
 90
       50
176
     1
 90
        3
176
     1
 62
     5
420
      255
176
     1
290
     0
176
     1
 90
       50
176
     1
 90
       50
176
     1
 90
       50
176
     1
290
     0
176
     1
 90
       50
176
     1
 62
   256
176
     0
 40
1.0
176
     0
 90
        2
176
     1
  1
strokes_ogs.tif
176
     1
290
     0
176
     1
 40
1.0
176
     1
 40
1.0
176
     1
  0
VISUALSTYLE
  5
119C
102
{ACAD_REACTORS
330
62B
102
}
330
62B
100
AcDbVisualStyle
  2
Sketchy
 70
    24
177
     3
291
     0
 70
    58
 90
        1
176
     1
 90
        2
176
     1
 90
        2
176
     1
 90
        0
176
     1
 40
0.6
176
     1
 40
30.0
176
     1
 62
     7
420
 16777215
176
     1
 90
        2
176
     1
 90
        2
176
     1
 62
     7
176
     1
 62
     7
176
     1
 90
        1
176
     1
 90
        1
176
     1
 40
40.0
176
     1
 90
       11
176
     1
 62
     7
176
     1
 40
1.0
176
     1
 90
        1
176
     1
 90
        6
176
     1
 90
        2
176
     1
 62
     7
176
     1
 90
        6
176
     1
 90
        0
176
     1
 90
        0
176
     1
290
     0
176
     1
 90
        1
176
     1
 40
0.0
176
     1
 90
        0
176
     1
290
     0
176
     1
290
     1
176
     1
290
     1
176
     1
290
     0
176
     1
290
     0
176
     1
290
     0
176
     1
290
     0
176
     1
290
     0
176
     1
290
     0
176
     1
 90
       50
176
     1
 40
0.0
176
     1
 40
1.0
176
     1
 90
        0
176
     1
 62
    18
420
        0
176
     1
 90
       50
176
     1
 90
        3
176
     1
 62
     5
420
      255
176
     1
290
     0
176
     1
 90
       50
176
     1
 90
       50
176
     1
 90
       50
176
     1
290
     0
176
     1
 90
       50
176
     1
 62
   256
176
     0
 40
1.0
176
     0
 90
        2
176
     1
  1
strokes_ogs.tif
176
     1
290
     0
176
     1
 40
1.0
176
     1
 40
1.0
176
     1
  0
VISUALSTYLE
  5
638
102
{ACAD_REACTORS
330
62B
102
}
330
62B
100
AcDbVisualStyle
  2
Thicken
 70
    13
177
     3
291
     1
 70
    58
 90
        2
176
     1
 90
        2
176
     1
 90
        0
176
     1
 90
        0
176
     1
 40
0.6
176
     1
 40
30.0
176
     1
 62
     7
420
 16777215
176
     1
 90
        1
176
     1
 90
        4
176
     1
 62
     7
176
     1
 62
   257
176
     1
 90
        1
176
     1
 90
        1
176
     1
 40
1.0
176
     1
 90
       12
176
     1
 62
     7
176
     1
 40
1.0
176
     1
 90
        1
176
     1
 90
        6
176
     1
 90
        2
176
     1
 62
     7
176
     1
 90
        5
176
     1
 90
        0
176
     1
 90
        0
176
     1
290
     0
176
     1
 90
        1
176
     1
 40
0.0
176
     1
 90
        0
176
     1
290
     0
176
     1
290
     1
176
     1
290
     1
176
     1
290
     0
176
     1
290
     0
176
     1
290
     0
176
     1
290
     0
176
     1
290
     0
176
     1
290
     0
176
     1
 90
       50
176
     1
 40
0.0
176
     1
 40
1.0
176
     1
 90
        0
176
     1
 62
    18
420
        0
176
     1
 90
       50
176
     1
 90
        3
176
     1
 62
     5
420
      255
176
     1
290
     0
176
     1
 90
       50
176
     1
 90
       50
176
     1
 90
       50
176
     1
290
     0
176
     1
 90
       50
176
     1
 62
   256
176
     0
 40
1.0
176
     0
 90
        2
176
     1
  1
strokes_ogs.tif
176
     1
290
     0
176
     1
 40
1.0
176
     1
 40
1.0
176
     1
  0
VISUALSTYLE
  5
1199
102
{ACAD_REACTORS
330
62B
102
}
330
62B
100
AcDbVisualStyle
  2
Wireframe
 70
     5
177
     3
291
     0
 70
    58
 90
        0
176
     1
 90
        2
176
     1
 90
        0
176
     1
 90
        0
176
     1
 40
0.6
176
     1
 40
30.0
176
     1
 62
     7
420
 16777215
176
     1
 90
        1
176
     1
 90
        4
176
     1
 62
     7
176
     1
 62
   257
176
     1
 90
        1
176
     1
 90
        1
176
     1
 40
1.0
176
     1
 90
        0
176
     1
 62
   257
176
     1
 40
1.0
176
     1
 90
        1
176
     1
 90
        6
176
     1
 90
        2
176
     1
 62
     7
176
     1
 90
        3
176
     1
 90
        0
176
     1
 90
        0
176
     1
290
     0
176
     1
 90
        1
176
     1
 40
0.0
176
     1
 90
        0
176
     1
290
     0
176
     1
290
     1
176
     1
290
     1
176
     1
290
     0
176
     1
290
     0
176
     1
290
     0
176
     1
290
     0
176
     1
290
     0
176
     1
290
     0
176
     1
 90
       50
176
     1
 40
0.0
176
     1
 40
1.0
176
     1
 90
        0
176
     1
 62
    18
420
        0
176
     1
 90
       50
176
     1
 90
        3
176
     1
 62
     5
420
      255
176
     1
290
     0
176
     1
 90
       50
176
     1
 90
       50
176
     1
 90
       50
176
     1
290
     0
176
     1
 90
       50
176
     1
 62
   256
176
     0
 40
1.0
176
     0
 90
        2
176
     1
  1
strokes_ogs.tif
176
     1
290
     0
176
     1
 40
1.0
176
     1
 40
1.0
176
     1
  0
VISUALSTYLE
  5
119D
102
{ACAD_REACTORS
330
62B
102
}
330
62B
100
AcDbVisualStyle
  2
X-Ray
 70
    25
177
     3
291
     0
 70
    58
 90
        2
176
     1
 90
        2
176
     1
 90
        1
176
     1
 90
        1
176
     1
 40
0.5
176
     1
 40
30.0
176
     1
 62
     7
420
 16777215
176
     1
 90
        1
176
     1
 90
        0
176
     1
 62
     7
176
     1
 62
   257
176
     1
 90
        1
176
     1
 90
        1
176
     1
 40
1.0
176
     1
 90
        8
176
     1
 62
     7
176
     1
 40
1.0
176
     1
 90
        1
176
     1
 90
        6
176
     1
 90
        2
176
     1
 62
     7
176
     1
 90
        3
176
     1
 90
        0
176
     1
 90
        0
176
     1
290
     0
176
     1
 90
       13
176
     1
 40
0.0
176
     1
 90
        0
176
     1
290
     0
176
     1
290
     1
176
     1
290
     1
176
     1
290
     0
176
     1
290
     0
176
     1
290
     0
176
     1
290
     0
176
     1
290
     0
176
     1
290
     0
176
     1
 90
       50
176
     1
 40
0.0
176
     1
 40
1.0
176
     1
 90
        0
176
     1
 62
    18
420
        0
176
     1
 90
       50
176
     1
 90
        3
176
     1
 62
     5
420
      255
176
     1
290
     0
176
     1
 90
       50
176
     1
 90
       50
176
     1
 90
       50
176
     1
290
     0
176
     1
 90
       50
176
     1
 62
   256
176
     0
 40
1.0
176
     0
 90
        2
176
     1
  1
strokes_ogs.tif
176
     1
290
     0
176
     1
 40
1.0
176
     1
 40
1.0
176
     1
  0
DICTIONARYVAR
  5
1500
102
{ACAD_REACTORS
330
261
102
}
330
261
100
DictionaryVariables
280
     0
  1
1:1
  0
DICTIONARYVAR
  5
14FC
102
{ACAD_REACTORS
330
261
102
}
330
261
100
DictionaryVariables
280
     0
  1
STANDARD
  0
DICTIONARYVAR
  5
642
102
{ACAD_REACTORS
330
261
102
}
330
261
100
DictionaryVariables
280
     0
  1
STANDARD
  0
DICTIONARYVAR
  5
14FD
102
{ACAD_REACTORS
330
261
102
}
330
261
100
DictionaryVariables
280
     0
  1
Imperial24
  0
DICTIONARYVAR
  5
14FE
102
{ACAD_REACTORS
330
261
102
}
330
261
100
DictionaryVariables
280
     0
  1
Imperial24
  0
DICTIONARYVAR
  5
263
102
{ACAD_REACTORS
330
261
102
}
330
261
100
DictionaryVariables
280
     0
  1
2
  0
DICTIONARYVAR
  5
262
102
{ACAD_REACTORS
330
261
102
}
330
261
100
DictionaryVariables
280
     0
  1
1
  0
DICTIONARYVAR
  5
1502
102
{ACAD_REACTORS
330
261
102
}
330
261
100
DictionaryVariables
280
     0
  1
1
  0
DICTIONARYVAR
  5
1503
102
{ACAD_REACTORS
330
261
102
}
330
261
100
DictionaryVariables
280
     0
  1
15
  0
DICTIONARYVAR
  5
1501
102
{ACAD_REACTORS
330
261
102
}
330
261
100
DictionaryVariables
280
     0
  1
0
  0
DICTIONARYVAR
  5
14FF
102
{ACAD_REACTORS
330
261
102
}
330
261
100
DictionaryVariables
280
     0
  1
0
  0
ACAD_PROXY_OBJECT
  5
11EF
102
{ACAD_REACTORS
330
11EE
102
}
330
11EE
100
AcDbProxyObject
 90
      499
 91
      538
 95
  7143453
 70
     0
162
                 0
161
                84
310
90100057356C1DB7406AAC
 94
        0
  0
DICTIONARY
  5
11F0
102
{ACAD_REACTORS
330
11EE
102
}
330
11EE
100
AcDbDictionary
281
     1
  3
ANSI
350
11F1
  0
ACAD_PROXY_OBJECT
  5
11CF
330
0
100
AcDbProxyObject
 90
      499
 91
      519
 95
  7143453
 70
     0
162
               234
311
43904010C01340114014C016401340108013C0130014C01240168011400C
161
                34
310
000101420C
330
11CC
 94
        0
  0
ACAD_PROXY_OBJECT
  5
11DC
330
0
100
AcDbProxyObject
 90
      499
 91
      530
 95
  7143453
 70
     0
162
               212
311
421040134010C01540148014C01500110010441004E0053004900C
161
                32
310
0001010100
330
11CC
 94
        0
  0
ACAD_PROXY_OBJECT
  5
11DF
330
0
100
AcDbProxyObject
 90
      499
 91
      530
 95
  7143453
 70
     0
162
               276
311
431040104010C013C01340140011001180138010401340114010443004F004D005000C
161
                32
310
0001010100
330
11CC
 94
        0
  0
ACAD_PROXY_OBJECT
  5
11E0
330
0
100
AcDbProxyObject
 90
      499
 91
      530
 95
  7143453
 70
     0
162
               340
311
4390401040118013C0130011001140148011001180138010401340114010646006F006C00640065007200C
161
                32
310
0001010100
330
11CC
 94
        0
  0
ACAD_PROXY_OBJECT
  5
11E1
330
0
100
AcDbProxyObject
 90
      499
 91
      530
 95
  7143453
 70
     0
162
               260
311
431040104010401380138013C01100118013801040134011401035F0041005600C
161
                32
310
0001010100
330
11CC
 94
        0
  0
ACAD_PROXY_OBJECT
  5
11E2
330
0
100
AcDbProxyObject
 90
      499
 91
      530
 95
  7143453
 70
     0
162
               756
311
439040104010C013C01340140015801240114015C01300124014C0150012054006F0070000A00460072006F006E0074000A00520069006700680074000A004C006500660074000A0042006F00740074006F006D000A004100750078003100C
161
                32
310
0001010100
330
11CC
 94
        0
  0
ACAD_PROXY_OBJECT
  5
11E3
330
0
100
AcDbProxyObject
 90
      499
 91
      519
 95
  7143453
 70
     0
162
               234
311
439040134014C014C0150014801040130015C01040164014C013C013800C
161
                26
310
0001018C
330
11CC
 94
        0
  0
ACAD_PROXY_OBJECT
  5
11E8
330
0
100
AcDbProxyObject
 90
      499
 91
      533
 95
  7143453
 70
     0
162
                 0
161
                32
310
0001000000
330
11CC
340
11E5
330
11E9
330
11E5
 94
        0
  0
ACAD_PROXY_OBJECT
  5
11E9
330
0
100
AcDbProxyObject
 90
      499
 91
      534
 95
  7143453
 70
     0
162
                90
311
414C800DC00D800C000DC00C
161
                80
310
0001014140155005540000
330
11CC
330
11E8
330
0
 94
        0
  0
ACAD_PROXY_OBJECT
  5
11EA
330
0
100
AcDbProxyObject
 90
      499
 91
      535
 95
  7143453
 70
     0
162
                 0
161
               178
310
000100AAAAAAA3BCC28A1CFC235026CC84A19E168506CC
330
11CC
330
11E9
 94
        0
  0
ACAD_PROXY_OBJECT
  5
11EB
330
0
100
AcDbProxyObject
 90
      499
 91
      536
 95
  7143453
 70
     0
162
                 0
161
               108
310
000190140A000000000000AAAAAC
330
11CC
330
11EC
330
11EC
330
11EC
330
11EC
330
11EC
330
0
 94
        0
  0
ACAD_PROXY_OBJECT
  5
11EC
330
0
100
AcDbProxyObject
 90
      499
 91
      537
 95
  7143453
 70
     0
162
                 0
161
                51
310
00010000AAAA8C
330
11CC
330
11EB
330
11E9
 94
        0
  0
ACAD_PROXY_OBJECT
  5
13FC
330
0
100
AcDbProxyObject
 90
      499
 91
      519
 95
  7143453
 70
     0
162
               234
311
4394001B001BC01D0014C018C018401B00194013001BC018C018401B000C
161
                26
310
0001018C
330
11CC
 94
        0
  0
DICTIONARY
  5
11C6
102
{ACAD_REACTORS
330
11C5
102
}
330
11C5
100
AcDbDictionary
281
     1
  3
DWGSETTINGS
350
11C7
  3
TRANSSETTINGS
350
11C8
  0
ACAD_PROXY_OBJECT
  5
1204
102
{ACAD_REACTORS
330
11C5
102
}
330
11C5
100
AcDbProxyObject
 90
      499
 91
      555
 95
  7143453
 70
     0
162
             15824
311
404C0010441004D005F0030009013100411040134017C00C402404C8010441004D005F0032009013300411040134017C00CC02404D0010441004D005F0034009013500411040134017C00D402404D8010441004D005F0036009013700411040134017C00DC02404E0010441004D005F0038009013900411040134017C00E40
311
2408C80104010541004D005F003100300090234004100415040134017C00C400C402409240140010541004D005F003100320090230004E00415040134017C00C0013802408C40138010541004D005F0031004E0090232004E00415040134017C00C8013802408CC0138010541004D005F0033004E0090234004E0041504013
311
4017C00D0013802408D40138010541004D005F0035004E0090236004E00415040134017C00D8013802408DC0138010541004D005F0037004E0090238004E00415040134017C00E0013802408E40138010541004D005F0039004E00903320041004E00419040134017C00C400C001380240CD001040138010641004D005F003
311
10031004E00903490050004E00419040134017C00C400C80138024112C013001240138010541004D005F0043004C0090449004E0046004F00421040134017C01400104014801140118024154801040120013400D4010641004D005F0042004F0052009045600490045005700421040134017C015801240114015C014C02419
311
0801140120012401380110010641004D005F0049004E00560090554005200410049004C00415040134017C015001480240D2001240110010641004D005F00480049004400903560049005300419040134017C01580124014C024194001040148011001240134010941004D005F00500041005200440049004D009065200450
311
04600440049004D00425040134017C01480114011801100124013402411080120013801580101390041508012001380158014C010642004500480049004E00440041108013C014800C801055200410048004D00350041108013C014800CC01055200410048004D00350041108013C014800D401055200410048004D0035004
311
110C0104013000C8010134004110C0104013000CC010134004110C0104013000D4010134004110C0104013000DC010134004110C011401380138010137004110C01140138015C010137004110C01300124013801044B004C0049004E004110C013C013800C4010130004110C013C013800C8010131004110C013C013800CC0
311
10132004110C013C013800D00101320041110011401500104010134004111001240104011C010135004111001240130012401013500411100124013401400106500041005200440049004D00411100124013401480106520045004600440049004D00411180114013401380101380041518011401340140013801013800415
311
1801140134014C01400102340041004151801140134014C015001023400410041518011401340158013801013200415180114013401580150010132004112001040150010C0101380041120012401100138010133004112001240110015C01013300411200130012401380101340041120013C010C01380101370041120013
311
C010C015C010137004112401380118013C010449004E0046004F00411300114010401100101350041938017C0108012001380158010239004E0041938017C010C013C013800C4010230004E0041938017C010C013C013800C8010231004E0041938017C010C013C013800CC010232004E0041938017C010C013C013800D001
311
0232004E0041938017C010C011401380138010237004E0041938017C010C01140138015C010237004E0041938017C0110012401300124010235004E0041938017C012001040150010C010238004E0041938017C0120012401100138010233004E0041938017C012001240110015C010233004E0041938017C0130011401040
311
110010235004E0041938017C0138011C012401400103490050004E0041938017C01400120010401380103340041004E0041938017C0150010C013C0138010230004E0041938017C0150012001300124010234004E0041938017C0150013001140138010230004E0041938017C01580140013001240103320041004E0041138
311
011C01240140010249005000411400104013000C801055200410048004D003500411400104013000CC01055200410048004D003500411400104013000D401055200410048004D0035004114001200104013801023400410041140013C014C01380101350041148010C011C01380101370041148010C011C015C01013700411
311
4C01080148012C010134004114C0114010C0150010134004114C0164010800CC0101350041134014C016401340101350041150010C013C0138010130004115001200130012401013400411500124015000C801055200410048004D003500411500124015000CC01055200410048004D003500411500124015000D401055200
311
410048004D0035004115001300114013801013000415500148010401240130010554005200410049004C004115001480130012401013400411500160015000C401013600411500160015000C801013600411500160015000CC01013600411500160015000D401013600411500160015000DC010136004115801240114015C0
311
1045600490045005700411580114011001200103480049004400411580114011001580103560049005300411580140013001240102320041004116801240168010401013400404FC0200
161
              8940
310
4210349201C00030C011E44203800030C011E44201400030C011E44201800030C010FA17000030C010FA01C00030C011EA23000030C011EA23800030C010FA00400030C010FA3F400030C0241201C00030C011EA17000030C010FA01C00030C011E40A01C00030C011EA03800030C011EA01400030C011EA01800030C010FA
310
17000030C010FA17000030C010FA23000030C011EA23800030C010FA00400030C010FA3F400030C0241201C00030C011EA17000030C010FA01C00030C011E40A00400030C010F42623800030C010F42E01C00030C011E42600400030C010F42E3F400030C0243617000030C010F42601C00030C010F42601C00030C011E426
310
17000030C010F42623800030C010F425538000000C0003FFFFFFFE8000000C0003FFFFFFFE8010000C30043E88C0000C30047A8000000C0003FFFFFFFE8000000C0003FFFFFFFE88C0000C30047A8070000C30047A81E0000C3004F28000000C0003FFFFFFFE8000000C0003FFFFFFFE8000000C0003FFFFFFFE8000000C00
310
03FFFFFFFD038000000C0003FFFFFFFD038000000C0003FFFFFFFD038000000C0003FFFFFFFD038000000C0003FFFFFFFE8000000C0003FFFFFFFE8000000C0003FFFFFFFE8000000C0003FFFFFFFE8000000C0003FFFFFFFE8000000C0003FFFFFFFE85C0000C3003FFFFFFFE8000000C0003FFFFFFFE85C0000C30043E80
310
00000C0003FFFFFFFE85C0000C30043E8000000C0003FFFFFFFD018000000C0003FFFFFFFD038000000C0003FFFFFFFD038000000C0003FFFFFFFD018000000C0003FFFFFFFE8000000C0003FFFFFFFE8000000C0003FFFFFFFE8000000C0003FFFFFFFE8000000C0003FFFFFFFE8000000C0003FFFFFFFD038000000C0003
310
FFFFFFFD038000000C0003FFFFFFFD038000000C0003FFFFFFFD038000000C0003FFFFFFFE8000000C0003FFFFFFFE8000000C0003FFFFFFFE8000000C0003FFFFFFFD018000000C0003FFFFFFFD038000000C0003FFFFFFFD038000000C0003FFFFFFFE8000000C0003FFFFFFFE8000000C0003FFFFFFFE8000000C0003FF
310
FFFFFD038000000C0003FFFFFFFD018000000C0003FFFFFFFD038000000C0003FFFFFFFE8000000C0003FFFFFFFE8010000C3003FFFFFFFE88C0000C3003FFFFFFFE8070000C3003FFFFFFFE8000000C0003FFFFFFFE8000000C0003FFFFFFFE8000000C0003FFFFFFFE8000000C0003FFFFFFFE8070000C30047901800000
310
0C0003FFFFFFFD0188C0000C30047A88C0000C3003FFFFFFFE8000000C0003FFFFFFFD038000000C0003FFFFFFFD018010000C30043E88C0000C30047A8000000C0003FFFFFFFE8000000C0003FFFFFFFD038000000C0003FFFFFFFE8000000C0003FFFFFFFD0185C0000C30043E85C0000C30043E8000000C0003FFFFFFFE
310
8070000C30047A81E0000C3004F28000000C0003FFFFFFFE8000000C0003FFFFFFFD028000000C0003FFFFFFFD028000000C0003FFFFFFFE8000000C0003FFFFFFFD01AAA3F400030C010A4391E4151E4091E4793C41D1E4110F4050F7F64190F40D0F80200C
340
16
340
16
340
16
340
571
340
16
340
16
340
16
340
570
340
16
340
16
340
11B8
340
11B8
340
16
340
16
340
16
340
16
340
571
340
16
340
16
340
16
340
570
340
16
340
16
340
11B8
340
11B8
340
16
340
16
340
16
340
16
340
16
340
16
340
16
340
571
340
16
340
16
340
16
340
15
340
15
340
15
340
15
340
15
340
15
340
15
340
15
340
15
340
1205
340
15
340
15
340
15
340
15
340
15
340
15
340
16
340
15
340
15
340
15
340
15
340
15
340
15
340
16
340
15
340
15
340
15
340
15
340
1206
340
15
340
15
340
1205
340
15
340
15
340
15
340
15
340
15
340
15
340
15
340
15
340
1205
340
15
340
15
340
15
340
1206
340
15
340
15
340
15
340
15
340
15
340
1206
340
15
340
15
340
15
340
16
340
16
340
16
340
15
340
15
340
1205
340
15
340
15
340
15
340
15
340
15
340
15
340
1206
340
15
340
15
340
15
340
15
340
15
340
15
340
15
340
15
340
15
340
15
340
15
340
15
340
15
340
15
340
15
340
15
 94
        0
  0
ACAD_PROXY_OBJECT
  5
1229
102
{ACAD_REACTORS
330
1224
102
}
330
1224
100
AcDbProxyObject
 90
      499
 91
      565
 95
  7143453
 70
     0
162
               434
311
451100124013401140138014C0124013C013800B00104013401100150017C00A8017C01100124013401012A00404A801012A00404A800C
161
                11
310
43EC
 94
        0
  0
ACAD_PROXY_OBJECT
  5
1228
102
{ACAD_REACTORS
330
1224
102
}
330
1224
100
AcDbProxyObject
 90
      499
 91
      565
 95
  7143453
 70
     0
162
               290
311
404A8010B41004D005F004600450041002D0041004D005F002A00404A801012A00404A800C
161
                11
310
43EC
 94
        0
  0
ACAD_PROXY_OBJECT
  5
1225
102
{ACAD_REACTORS
330
1224
102
}
330
1224
100
AcDbProxyObject
 90
      499
 91
      565
 95
  7143453
 70
     0
162
               194
311
4152001040150010C012001012A00404A801012A00404A800C
161
                11
310
43EC
 94
        0
  0
ACAD_PROXY_OBJECT
  5
1226
102
{ACAD_REACTORS
330
1224
102
}
330
1224
100
AcDbProxyObject
 90
      499
 91
      565
 95
  7143453
 70
     0
162
              1026
311
41130012401380114012738002C0038004E002C002A002D0038002C002A002D0038004E002C0041004D005F0038002C0041004D005F0038004E002C002A002D0041004D005F0038002C002A002D0041004D005F0038004E00404A801012A00441240138014C01140148015000B0014C01500110014001040148015000C8011
311
000C
161
                11
310
43EC
 94
        0
  0
ACAD_PROXY_OBJECT
  5
122A
102
{ACAD_REACTORS
330
1224
102
}
330
1224
100
AcDbProxyObject
 90
      499
 91
      565
 95
  7143453
 70
     0
162
               290
311
40D040148010C010441004D005F003500404A801013200419240138014C01140148015000C
161
                11
310
43CC
 94
        0
  0
ACAD_PROXY_OBJECT
  5
1227
102
{ACAD_REACTORS
330
1224
102
}
330
1224
100
AcDbProxyObject
 90
      499
 91
      565
 95
  7143453
 70
     0
162
              2242
311
61504010C01340118010C0118014801040134011400B00104010C013401100104015001540134015001040148011C0114015000B00104010C0134011001040150015401340124011000B00104010C0134015C011401300110014C0164013400B00104010C0134014C015401480118014C0164013400B00104010C013401180
311
114010401500124011000B00104010C0134014001040148015001480114011800B00104010C01340108010401300130013C013C013800B0010401340110015001140110011C0114014C0164013400B001040134011C014C010C01480114015C010C01040130010C0150010401080130011400B00104010C013401340104014
311
8012C014C015001040134014001012A00404A801012A00404A800C
161
                11
310
43EC
 94
        0
  0
DICTIONARY
  5
1582
330
11BB
100
AcDbDictionary
280
     1
281
     1
  3
ACAD_XREC_ROUNDTRIP
360
1583
  0
DICTIONARY
  5
14C4
330
22
100
AcDbDictionary
280
     1
281
     1
  0
DICTIONARY
  5
77F
330
1E
100
AcDbDictionary
280
     1
281
     1
  0
DICTIONARY
  5
1580
330
11B9
100
AcDbDictionary
280
     1
281
     1
  3
ACAD_XREC_ROUNDTRIP
360
1581
  0
DICTIONARY
  5
157E
330
63E
100
AcDbDictionary
280
     1
281
     1
  3
ACAD_ROUNDTRIP_2008_TABLESTYLE_CELLSTYLEMAP
360
157F
  0
ACAD_PROXY_OBJECT
  5
11F1
102
{ACAD_REACTORS
330
11F0
102
}
330
11F0
100
AcDbProxyObject
 90
      499
 91
      539
 95
  7143453
 70
     0
162
              3734
311
411040138014C01240243904018C01B4014C01D401C801980150019401E001D0014C01D001900109410063006D0046004300460053007400640043504018C01B4015C019401B0019001A401B8019C014C01D001900108410063006D004900640053007400640042D04018C01B40110018401D001D401B4014C01D001900109
311
410063006D0042004F004D005300740064004410401B4019001D00110019401D0018401A401B0014C01E401B4014C01D00190011141006D0064007400530065006300740069006F006E00530079006D005300740064004450401B4019001D0010C019401B801D0019401C8013001A401B80194014C01D00190011141006D00
311
640074005400680072006500610064004C0069006E00650053007400640042D0401B4019001D0013801BC01D00194014C01D00190010B410063006D00540061007000650072005300740064004350401B4019001D0010401B8015801A4019401DC014C01D00190010B4100630041006D0067004C0061007900530074006400
311
42D04018C010401B4019C011001A401B4014C01D0019001114100630041006D00670048006F006C0065004300680061007200740053007400640043504018C010401B4019C015001A401D001B00194014C01D0019000
161
               725
310
6DCB81E85EB51B8BE3F8000000C00040540623000030C0200000030000B81E85EB51B8BE3F495222812028120281202812028120281202812028120281202812028120281202812028120281202812028120280A04809FFFE7FFFC
340
11
360
11F2
360
11F3
360
11F4
360
11F5
360
11F6
360
11F7
360
11F8
360
11F9
360
11FA
360
11FB
360
11FC
360
11FD
360
11FE
360
11FF
360
1200
360
1210
360
1211
340
1201
340
0
340
15
340
15
 94
        0
  0
ACAD_PROXY_OBJECT
  5
11C7
102
{ACAD_REACTORS
330
11C6
102
}
330
11C6
100
AcDbProxyObject
 90
      499
 91
      515
 95
  7143453
 70
     0
162
              4140
311
42D10015C011C014C01140150015001240138011C014C0109430041004E00470041005200520041005900420CC00C001F000D000D401F000D800C00106430045004E0041004E004700424D000D401F000E400C001F000C400CC00D40106430045004E0044004900410041D0C01140138011001240104014C010B30002E0035
311
007C0031002E0030007C0031002E00350041D0C0114013801100124014C01500106430045004E004C0045004E004190C01140138013C01180118010E4300480041004D00460045005200440049004D004D004F00440045004550C0120010401340118011401480110012401340134013C01100114011001140118010401540
311
1300150010943004C0049004E0041005200520041005900438C000B800C400C800D401F000C000B800C800D401F000C000B800D4010843004C0049004E004500540059005000415600130012401380114010944005700470055005300430041004C00450041D300104014C0150013C0108012801013000421340104012C011
311
4015801240114015C010650005300430041004C00450041948011401580124014C0124010130004154C010C010401300114010331003A00310042550012401340114014C01500104013401400107560045005200530049004F004E00414C400D400B800C000C001107B00440057004700530045005400540049004E0047005
311
30045004E0044007D00C
161
               572
310
40682A0A940000000000001C07E82A50000000000000601FA50000000000000701FA50000000000000701FA7F27F20A82A50A0A9FA040C0080001054152834C0C07CAFCC9CD0505C
 94
        0
  0
ACAD_PROXY_OBJECT
  5
11C8
102
{ACAD_REACTORS
330
11C6
102
}
330
11C6
100
AcDbProxyObject
 90
      499
 91
      515
 95
  7143453
 70
     0
162
              1382
311
43550014801040138014C014C01140150015001240138011C014C0112440052004100570049004E0047005400520041004E0053004C004100540049004F004E004353C01480124011C012401380104013001300164017C013C0138010A53004F0055005200430045004C0041004E00470040D1401380154010955005000520
311
0450053004500520056004500441EC0110015C011C014C01140150015001240138011C014C01140138011001F400
161
               126
310
4060C008000418010000A0A0C0080000
 94
        0
  0
XRECORD
  5
1583
102
{ACAD_REACTORS
330
1582
102
}
330
1582
100
AcDbXrecord
280
     1
102
DISPLAYNAME
  1
Imperial24
102
FLAGS
 90
        0
  0
XRECORD
  5
1581
102
{ACAD_REACTORS
330
1580
102
}
330
1580
100
AcDbXrecord
280
     1
102
DISPLAYNAME
  1
Imperial24
102
FLAGS
 90
        0
  0
CELLSTYLEMAP
  5
157F
102
{ACAD_REACTORS
330
157E
102
}
330
157E
100
AcDbCellStyleMap
 90
        3
300
CELLSTYLE
  1
TABLEFORMAT_BEGIN
 90
        5
170
     1
 91
        0
 92
    32768
 62
   257
 93
        1
300
CONTENTFORMAT
  1
CONTENTFORMAT_BEGIN
 90
        0
 91
        0
 92
      512
 93
        0
300

 40
0.0
140
1.0
 94
        5
 62
     0
340
11
144
0.25
309
CONTENTFORMAT_END
171
     0
 94
        6
 95
        1
302
GRIDFORMAT
  1
GRIDFORMAT_BEGIN
 90
        0
 91
        1
 62
     0
 92
       -2
340
0
 93
        0
 40
0.045
309
GRIDFORMAT_END
 95
        2
302
GRIDFORMAT
  1
GRIDFORMAT_BEGIN
 90
        0
 91
        1
 62
     0
 92
       -2
340
0
 93
        0
 40
0.045
309
GRIDFORMAT_END
 95
        4
302
GRIDFORMAT
  1
GRIDFORMAT_BEGIN
 90
        0
 91
        1
 62
     0
 92
       -2
340
0
 93
        0
 40
0.045
309
GRIDFORMAT_END
 95
        8
302
GRIDFORMAT
  1
GRIDFORMAT_BEGIN
 90
        0
 91
        1
 62
     0
 92
       -2
340
0
 93
        0
 40
0.045
309
GRIDFORMAT_END
 95
       16
302
GRIDFORMAT
  1
GRIDFORMAT_BEGIN
 90
        0
 91
        1
 62
     0
 92
       -2
340
0
 93
        0
 40
0.045
309
GRIDFORMAT_END
 95
       32
302
GRIDFORMAT
  1
GRIDFORMAT_BEGIN
 90
        0
 91
        1
 62
     0
 92
       -2
340
0
 93
        0
 40
0.045
309
GRIDFORMAT_END
309
TABLEFORMAT_END
  1
CELLSTYLE_BEGIN
 90
        1
 91
        1
300
_TITLE
309
CELLSTYLE_END
300
CELLSTYLE
  1
TABLEFORMAT_BEGIN
 90
        5
170
     1
 91
        0
 92
        0
 62
   257
 93
        1
300
CONTENTFORMAT
  1
CONTENTFORMAT_BEGIN
 90
        0
 91
        0
 92
      512
 93
        0
300

 40
0.0
140
1.0
 94
        5
 62
     0
340
11
144
0.18
309
CONTENTFORMAT_END
171
     0
 94
        6
 95
        1
302
GRIDFORMAT
  1
GRIDFORMAT_BEGIN
 90
        0
 91
        1
 62
     0
 92
       -2
340
0
 93
        0
 40
0.045
309
GRIDFORMAT_END
 95
        2
302
GRIDFORMAT
  1
GRIDFORMAT_BEGIN
 90
        0
 91
        1
 62
     0
 92
       -2
340
0
 93
        0
 40
0.045
309
GRIDFORMAT_END
 95
        4
302
GRIDFORMAT
  1
GRIDFORMAT_BEGIN
 90
        0
 91
        1
 62
     0
 92
       -2
340
0
 93
        0
 40
0.045
309
GRIDFORMAT_END
 95
        8
302
GRIDFORMAT
  1
GRIDFORMAT_BEGIN
 90
        0
 91
        1
 62
     0
 92
       -2
340
0
 93
        0
 40
0.045
309
GRIDFORMAT_END
 95
       16
302
GRIDFORMAT
  1
GRIDFORMAT_BEGIN
 90
        0
 91
        1
 62
     0
 92
       -2
340
0
 93
        0
 40
0.045
309
GRIDFORMAT_END
 95
       32
302
GRIDFORMAT
  1
GRIDFORMAT_BEGIN
 90
        0
 91
        1
 62
     0
 92
       -2
340
0
 93
        0
 40
0.045
309
GRIDFORMAT_END
309
TABLEFORMAT_END
  1
CELLSTYLE_BEGIN
 90
        2
 91
        1
300
_HEADER
309
CELLSTYLE_END
300
CELLSTYLE
  1
TABLEFORMAT_BEGIN
 90
        5
170
     1
 91
        0
 92
        0
 62
   257
 93
        1
300
CONTENTFORMAT
  1
CONTENTFORMAT_BEGIN
 90
        0
 91
        0
 92
      512
 93
        0
300

 40
0.0
140
1.0
 94
        2
 62
     0
340
11
144
0.18
309
CONTENTFORMAT_END
171
     0
 94
        6
 95
        1
302
GRIDFORMAT
  1
GRIDFORMAT_BEGIN
 90
        0
 91
        1
 62
     0
 92
       -2
340
0
 93
        0
 40
0.045
309
GRIDFORMAT_END
 95
        2
302
GRIDFORMAT
  1
GRIDFORMAT_BEGIN
 90
        0
 91
        1
 62
     0
 92
       -2
340
0
 93
        0
 40
0.045
309
GRIDFORMAT_END
 95
        4
302
GRIDFORMAT
  1
GRIDFORMAT_BEGIN
 90
        0
 91
        1
 62
     0
 92
       -2
340
0
 93
        0
 40
0.045
309
GRIDFORMAT_END
 95
        8
302
GRIDFORMAT
  1
GRIDFORMAT_BEGIN
 90
        0
 91
        1
 62
     0
 92
       -2
340
0
 93
        0
 40
0.045
309
GRIDFORMAT_END
 95
       16
302
GRIDFORMAT
  1
GRIDFORMAT_BEGIN
 90
        0
 91
        1
 62
     0
 92
       -2
340
0
 93
        0
 40
0.045
309
GRIDFORMAT_END
 95
       32
302
GRIDFORMAT
  1
GRIDFORMAT_BEGIN
 90
        0
 91
        1
 62
     0
 92
       -2
340
0
 93
        0
 40
0.045
309
GRIDFORMAT_END
309
TABLEFORMAT_END
  1
CELLSTYLE_BEGIN
 90
        3
 91
        2
300
_DATA
309
CELLSTYLE_END
  0
ACAD_PROXY_OBJECT
  5
11F2
330
11F1
100
AcDbProxyObject
 90
      499
 91
      540
 95
  7143453
 70
     0
162
                 0
161
               423
310
6DCB81E85EB51B8BE3F2E07A17AD46E2F8FE23000030C02000000300012AF841D01405014050140501083C80A0481A0882A0D55554
 94
        0
  0
ACAD_PROXY_OBJECT
  5
11F3
330
11F1
100
AcDbProxyObject
 90
      499
 91
      541
 95
  7143453
 70
     0
162
                 0
161
               567
310
6DCB81E85EB51B8BE3F2E07A17AD46E2F8FE23000030C02000000300012AFA1C80A0280A0280A0280A0280A0280A0280A0284A0280A0280A0280A0280A02400000000000000080
340
1213
 94
        0
  0
ACAD_PROXY_OBJECT
  5
11F4
330
11F1
100
AcDbProxyObject
 90
      499
 91
      542
 95
  7143453
 70
     0
162
                 0
161
               648
310
6DCB81E85EB51B8BE3F2E07A17AD46E2F8FE23000030C02000000300012AF98333333333333D33F24080A0280A0280A0280A0280A0280A0280A0280A0280A0280A0280A0280A0280A0280A0280A0280A0240
340
0
 94
        0
  0
ACAD_PROXY_OBJECT
  5
11F5
330
11F1
100
AcDbProxyObject
 90
      499
 91
      543
 95
  7143453
 70
     0
162
                 0
161
               245
310
6DCB81E85EB51B8BE3F2E07A17AD46E2F8FE23000030C02000000300012AFC
 94
        0
  0
ACAD_PROXY_OBJECT
  5
11F6
330
11F1
100
AcDbProxyObject
 90
      499
 91
      544
 95
  7143453
 70
     0
162
                 0
161
               492
310
6DCB81E85EB51B8BE3F2E07A17AD46E2F8FE23000030C02000000300012AFC521D4454FB21E93F26A6666666666E4FE89A9999999999B93F88C0000C300C
340
1214
340
1215
 94
        0
  0
ACAD_PROXY_OBJECT
  5
11F7
330
11F1
100
AcDbProxyObject
 90
      499
 91
      545
 95
  7143453
 70
     0
162
             24076
311
4112401500114013401044900540045004D004CD1C01140138015001480104010C013C00B001140138015400B000C000B0012401500114013400B0011C011401380150014801040150016000B0009401CC00B000A0011C011401380134014C011C0080019C019401B8019001DC019C008000C800C800C800A4029035100540
311
0590040D44015001640132470045004E0054005200410043004F002C0045004E0055002C0030002C005100540059002C00470045004E00540052004100540058002C00250073002C002800470045004E004D00530047002000670065006E0064007700670020003200320033002900A4113801040134011401044E0041004D
311
0045004CD1C01140138015001480104010C013C00B001140138015400B000C000B0013801040134011400B0011C011401380150014801040150016000B0009401CC00B000A0011C011401380134014C011C0080019C019401B8019001DC019C008000C800C800D800A4012C3D004900460028004900530042004C0041004E0
311
04B00280050004100520054003A004E0041004D00450029002C0042004C004F0043004B003A004E0041004D0045002C0050004100520054003A004E0041004D00450029009054400450053004300520042D100114014C010C01480124014001500124013C0138013A470045004E0054005200410043004F002C0045004E005
311
5002C0030002C004400450053004300520049005000540049004F004E002C00470045004E00540052004100540058002C00250073002C002800470045004E004D00530047002000670065006E0064007700670020003200310037002900A4214C015001040138011001040148011001085300540041004E004400410052004
311
4004DD1C01140138015001480104010C013C00B001140138015400B000C000B0014C015001040138011001040148011000B0011C011401380150014801040150016000B0009401CC00B000A0011C011401380134014C011C0080019C019401B8019001DC019C008000C800C400E000A4029084D00410054004500520049004
311
1004C004213401040150011401480124010401300137470045004E0054005200410043004F002C0045004E0055002C0030002C004D004100540045005200490041004C002C00470045004E00540052004100540058002C00250073002C002800470045004E004D00530047002000670065006E006400770067002000320032
311
0031002900A41138013C0150011401044E004F00540045004CD1C01140138015001480104010C013C00B001140138015400B000C000B00138013C0150011400B0011C011401380150014801040150016000B0009401CC00B000A0011C011401380134014C011C0080019C019401B8019001DC019C008000C800C800D400A40
311
2906560045004E0044004F00520041958011401380110013C01480135470045004E0054005200410043004F002C0045004E0055002C0030002C00560045004E0044004F0052002C00470045004E00540052004100540058002C00250073002C002800470045004E004D00530047002000670065006E0064007700670020003
311
200320034002900A419100114014C010C014800C8010D4400450053004300520049005000540049004F004E00200032004ED1C01140138015001480104010C013C00B001140138015400B000C000B001100114014C010C01480124014001500124013C0138008000C800B0011C011401380150014801040150016000B00094
311
01CC00B000A0011C011401380134014C011C0080019C019401B8019001DC019C008000CC00D800A4029095300540041004E00440041005200440032004294C0150010401380110010401480110008000C80139470045004E0054005200410043004F002C0045004E0055002C0030002C005300540041004E00440041005200
311
4400200032002C00470045004E00540052004100540058002C00250073002C002800470045004E004D00530047002000670065006E0064007700670020003200320030002900A42534010401500114014801240104013000C8010A4D004100540045005200490041004C00200032004E11C01140138015001480104010C013
311
C00B001140138015400B000C000B001340104015001140148012401040130008000C800B0011C011401380150014801040150016000B0009401CC00B000A0011C011401380134014C011C0080019C019401B8019001DC019C008000D000C000A4029044D00410053005300411340104014C014C0132470045004E005400520
311
0410043004F002C0045004E0055002C0030002C004D004100530053002C00470045004E00540052004100540058002C00250073002C002800470045004E004D00530047002000670065006E006400770067002000340032002900A4154001480124010C01140105500052004900430045004CD1C0114013801500148010401
311
0C013C00B001140138015400B000C000B0014001480124010C011400B0011C011401380150014801040150016000B0009401CC00B000A0011C011401380134014C011C0080019C019401B8019001DC019C008000D000CC00A402903440049004D0042D3401140104014C01540148011401340114013801500139470045004E
311
0054005200410043004F002C0045004E0055002C0030002C004D004500410053005500520045004D0045004E0054002C00470045004E00540052004100540058002C00250073002C002800470045004E004D00530047002000670065006E006400770067002000340034002900A42508013C0134017C015401380124015001
311
4C010555004E004900540053004D11C01140138015001480104010C013C00B001140138015400B000C000B00154013801240150014C00B0011C011401380150014801040150016000B0009401CC00B000A0011C011401380134014C011C0080019C019401B8019001DC019C008000C800D000CC00A4029073D003C00490054
311
0045004D003E0041CF400F0012401500114013400F801073D003C004900540045004D003E0041CF400F0012401500114013400F801073D003C004900540045004D003E00418F400F001440150016400F801073D003C004900540045004D003E0041CF400F0012401500114013400F8024410801A401B001B0008001BC01980
311
0800134018401D0019401C801A4018401B0010541005200490041004C00415040148012401040130010541005200490041004C00A404C40242D940184002401940184002401140184018C01A000280115730071006D000900730071006D00090053007100750061007200650020004D0065007400650072000A00471CC01C4
311
018C01B4002401CC01C4018C01B40024014C01C401D4018401C801940080010C019401B801D001A401B4019401D0019401C8002801167300710066007400090073007100660074000900530071007500610072006500200046006F006F0074000A00451CC01C401A401B8002401CC01C401A401B80024014C01C401D401840
311
1C801940080012401B80028010F670061006C000900670061006C000900470061006C006C006F006E000A00431C401D0002401C401D00024014401D4018401C801D00028011B6C00710064005F006F007A0009006C00710064005F006F007A0009004C006900710075006900640020004F0075006E00630065000A00429B00
311
02401B00024013001A401D0019401C8002801116D006C0009006D006C0009004D0069006C006C0069006C0069007400650072000A0042DE40190002401E4019000240164018401C801900028010B66007400090066007400090046006F006F0074000A0042DA401B8002401A401B80024012401B8018C01A00028010A6D000
311
9006D0009004D0065007400650072000A004458C01B40024018C01B40024010C019401B801D001A401B4019401D0019401C8002801116D006D0009006D006D0009004D0069006C006C0069006D0065007400650072000A00431B00188002401B001880024014001BC01D401B801900028010C6F007A0009006F007A0009004
311
F0075006E00630065000A004259C0024019C0024011C01C8018401B4002801106D00670009006D00670009004D0069006C006C0069006700720061006D000A004298801E00024018801E00024010801BC01E0002801012D00C
161
              6487
310
6DCB81E85EB51B8BE3F2E07A17AD46E2F8FE23000030C02000000300012AFA1E80A0280A0280A0280D202269349E4B2196C9FA0320240501405014090140501405019011349A4F2590CB64FD0190120280A0280A3880C80C815174B85D2F97CA048080C80901405014051D40640640E883C16030180C064040440480A0280A
310
028EA0320320947077FBFDFEBF7F9FA02202405014050147501901905A0A0B6C1C7480BECFD0190120280A0280A3A80C80C835174B85D2F97CBE47E80C80901405014051D40640641E8BA5C2E97CBE5F23F40640480A0280A028EA03203211441E0B0180C060320202202405014050147501901909A383BFDFEFF5FBFCFD01
310
10120280A0280A3A80C80C8550505B60E3A405F67E80880901405014051D405024050242D03408BA5C2E97CBE5F23F40440480A0280A028EA028120281218812045D2E174BE5F2F91FA02202405014050147501409014090D40D022E970BA5F2F97C8FD0190120280A0280A3C80C80C875174B85D2F97CBE47E80C80901405
310
0F4A9022E07A17AD46E338FE07800030C0001018ACD56AB55AADF63F2B355AAD56AB7D8FD014062B355AAD56AB7D8FCACD56AB55AADF63F40501890C7E3F1783CEE3F2431F8FC5E0F3B8FD014062431F8FC5E0F3B8FC90C7E3F1783CEE3F405029012B355AAD56AB7D8FCACD56AB55AADF63F405014062B355AAD56AB7D8FC
310
ACD56AB55AADF63F4050184D2693C96432E93F1349A4F2590CBA4FD0140400ACD56AB55AADF63F2B355AAD56AB7D8FE90800000000000020810000001800169FFFE8220681A048120280A20852108820321480C8452028521485214814000000000000F0BF0000000000003C2FD0188C0000C3008070000C3003673BDD4F8E
310
96ACFCD9CEF753E3A5AB3F3673BDD4F8E96ACFCAAF1D24D6210A83F0EF7D3E365DBA48FCAAF1D24D6210A83F3673BDD4F8E96ACFCAAF1D24D6210A83F0EF7D3E365DBA48FCAAF1D24D6210A83F2E07A17AD46E2F8FE80A028120D2028120A83A0C80D2E07A17AD46E2F8FE23000030C0223000030C0200400030C00A45102F
310
E7FFF9FFFE7FFF901405014550140501405014050140501405014050140501405014050140501901A0C8120A8320E86A1C
340
15
340
0
340
11
340
11
340
16
340
16
340
16
 94
        0
  0
ACAD_PROXY_OBJECT
  5
11F8
330
11F1
100
AcDbProxyObject
 90
      499
 91
      546
 95
  7143453
 70
     0
162
               762
311
4BCF4011001140150010401240130008000F0011001140150010401240130017C0130010401080114013000F801700140014C010C010401300114008000F0011001140150010401240130017C01040108014C014C010C01040130011400F800C
161
               658
310
6DCB81E85EB51B8CE3F2E07A17AD46E338FE07800030C020000003000123C820E4D4CCCCCCCCCDC9F9353333333333927E000000000000701FA00000000000000200000000000000288000000000000012204C
340
16
340
11
 94
        0
  0
ACAD_PROXY_OBJECT
  5
11F9
330
11F1
100
AcDbProxyObject
 90
      499
 91
      547
 95
  7143453
 70
     0
162
               826
311
4CCF4014C0114010C01500124013C0138008000F0014C0114010C01500124013C0138017C01300104010801140130017C011801240148014C015000F800B400F0014C0114010C01500124013C0138017C01300104010801140130017C01300104014C015000F800C
161
               473
310
6DCB81E85EB51B8CE3F2E07A17AD46E338FE07800030C02000000300012AE00726A666666666764FC7FFFC000000600009A9999999999D93FA7FFFCC
340
15
340
11
 94
        0
  0
ACAD_PROXY_OBJECT
  5
11FA
330
11F1
100
AcDbProxyObject
 90
      499
 91
      548
 95
  7143453
 70
     0
162
                 0
161
               515
310
6DCB81E85EB51B8BE3F2E07A17AD46E2F8FE23000030C02000000300012AF8570E2DB39DEF867E14AE47E17A945E1F852B91F85EA51787F4333333333333F33FAC
 94
        0
  0
ACAD_PROXY_OBJECT
  5
11FB
330
11F1
100
AcDbProxyObject
 90
      499
 91
      549
 95
  7143453
 70
     0
162
                 0
161
               249
310
6DCB81E85EB51B8BE3F2E07A17AD46E2F8FE23000030C02000000300012AFCCC
340
0
 94
        0
  0
ACAD_PROXY_OBJECT
  5
11FC
330
11F1
100
AcDbProxyObject
 90
      499
 91
      550
 95
  7143453
 70
     0
162
             13376
311
42950019401B401C001B0018401D00194008000C40005013D003C0069006600280065007100750061006C00280048006F006C0065003A007400610070007000650064002C0022003000220029002C00220025002500630022002C0048006F006C0065003A006E006F006D0069006E0061006C0020002200200022002000690
311
06600280065007100750061006C00280048006F006C0065003A0075006E006900740073002C0022003100220029002C002200780022002C0022002D0022002900200022002000220029003E003C0069006600280065007100750061006C00280048006F006C0065003A007400610070007000650064002C002200300022002
311
9002C0048006F006C0065003A006400690061002C0048006F006C0065003A0070006900740063006800640065007300630029003E0020007B005C00460041004D004700440054003B0078007D0020003C0069006600280065007100750061006C00280048006F006C0065003A007400650072006D0069006E0061007400690
311
06F006E002C0022003000220029002C0048006F006C0065003A00640065007000740068002C0022005400480052005500220029003E005C0050007B005C00460041004D004700440054003B0076007D002500250063003C0048006F006C0065003A00630074006400690061003E0020007B005C00460041004D00470044005
311
4003B0078007D0020003C0048006F006C0065003A0063007400640065007000740068003E0042950019401B401C001B0018401D00194008000C401FE3D003C0069006600280065007100750061006C00280048006F006C0065003A007400610070007000650064002C0022003000220029002C00220025002500630022002C
311
0048006F006C0065003A006E006F006D0069006E0061006C002000220020002200200069006600280065007100750061006C00280048006F006C0065003A0075006E006900740073002C0022003100220029002C002200780022002C0022002D0022002900200022002000220029003E003C00690066002800650071007500
311
61006C00280048006F006C0065003A007400610070007000650064002C0022003000220029002C0048006F006C0065003A006400690061002C0048006F006C0065003A0070006900740063006800640065007300630029003E0020007B005C00460041004D004700440054003B0078007D0020003C00690066002800650071
311
00750061006C00280048006F006C0065003A007400650072006D0069006E006100740069006F006E002C0022003000220029002C0048006F006C0065003A00640065007000740068002C0022005400480052005500220029003E005C0050007B005C00460041004D004700440054003B0077007D002500250063003C004800
311
6F006C0065003A00630074006400690061003E002000580020003C0048006F006C0065003A006300740061006E0067006C0065003E0025002500640042950019401B401C001B0018401D00194008000C401CF3D003C0069006600280065007100750061006C00280048006F006C0065003A007400610070007000650064002
311
C0022003000220029002C00220025002500630022002C0048006F006C0065003A006E006F006D0069006E0061006C002000220020002200200069006600280065007100750061006C00280048006F006C0065003A0075006E006900740073002C0022003100220029002C002200780022002C0022002D00220029002000220
311
02000220029003E003C0069006600280065007100750061006C00280048006F006C0065003A007400610070007000650064002C0022003000220029002C0048006F006C0065003A006400690061002C0048006F006C0065003A0070006900740063006800640065007300630029003E005C0050007B005C00460041004D004
311
700440054003B0078007D0020003C0069006600280065007100750061006C00280048006F006C0065003A007400650072006D0069006E006100740069006F006E002C0022003000220029002C0048006F006C0065003A00640065007000740068002C0022005400480052005500220029003E0042950019401B401C001B001
311
8401D00194008000C801173D003C0053005400440050003A0044004500530043003E0020003C0053005400440050003A005300540044003E0042950019401B401C001B0018401D00194008000C4010C3D003C0053005400440050003A0044004500530043003E0042950019401B401C001B0018401D00194008000CC010B3D
311
003C0053005400440050003A005300540044003E00E5
161
               675
310
6DCB81E85EB51B8BE3F2E07A17AD46E2F8FE23000030C02000000300012AFA1080A17480A15480A0480A0280E9014050340501407480A0280A0280A03A405014790340501D20280A901405481A028AD5570903A06C
360
121A
330
121A
360
121B
330
121B
360
1219
330
1219
360
1217
360
1216
360
1218
330
1217
330
1216
330
1218
 94
        0
  0
ACAD_PROXY_OBJECT
  5
11FD
330
11F1
100
AcDbProxyObject
 90
      499
 91
      551
 95
  7143453
 70
     0
162
                26
311
404E800C
161
               305
310
6DCB81E85EB51B8BE3F2E07A17AD46E2F8FE23000030C02000000300012AFA1680A0280D55554C
 94
        0
  0
ACAD_PROXY_OBJECT
  5
11FE
330
11F1
100
AcDbProxyObject
 90
      499
 91
      552
 95
  7143453
 70
     0
162
              1098
311
510F400F0014C015001480154010C015000E8010C013C01340140017C013801040134011400F8008000F0014C015001480154010C015000E8015801240114015C017C013801040134011400F80080015801240114015C01700140014C010C010401300114008000F0014C015001480154010C015000E8014C0158017C014C0
311
10C01040130011400F800C
161
               332
310
6DCB81E85EB51B8CE3F2E07A17AD46E2F8FE07800030C02000000300012AFA02808000000000001D07FC
340
11
 94
        0
  0
ACAD_PROXY_OBJECT
  5
11FF
330
11F1
100
AcDbProxyObject
 90
      499
 91
      553
 95
  7143453
 70
     0
162
                 0
161
               261
310
6DCB81E85EB51B8BE3F2E07A17AD46E2F8FE23000030C02000000300012AFA0754
340
1204
 94
        0
  0
ACAD_PROXY_OBJECT
  5
1200
330
11F1
100
AcDbProxyObject
 90
      499
 91
      554
 95
  7143453
 70
     0
162
               142
311
408F000F801023C003E0040DB0018C00CC00
161
               408
310
6DCB81E85EB51B8BE3F2E07A17AD46E2F8FE23000030C02000000300012AFA08000000000000701F8000000000001C07E7FFFC00
340
1201
340
0
340
0
340
1207
340
1208
340
0
340
1209
340
120A
340
120F
340
0
340
1208
340
0
 94
        0
  0
ACAD_PROXY_OBJECT
  5
1210
330
11F1
100
AcDbProxyObject
 90
      499
 91
      556
 95
  7143453
 70
     0
162
             20912
311
44D300124014C01500080013C01180080010C013C013C0148011001240138010401500114014C0142470045004E0054005200410043004F002C0045004E0055002C0030002C004C0049005300540020004F004600200043004F004F005200440049004E0041005400450053002C00470045004E00540052004100540058002
311
C00250073002C002800470045004E004D00530047002000670065006E00640069006D007A00200033003000290043CF400F0011001940198018401D401B001D0015001A401D001B0019400F8010A48004F004C00450020005400410042004C0045004E51C01140138015001480104010C013C00B001140138015400B000C00
311
0B00120013C0130011400800150010401080130011400B0011C011401380150014801040150016000B0009401CC00B000A0011C011401380134014C011C0080019C019401B8019001A401B401E8008000CC00C400A4010F3D003C00440065006600610075006C0074005400690074006C0065003E004193C01480124011C01
311
2401380134470045004E0054005200410043004F002C0045004E0055002C0030002C004F0052004900470049004E002C00470045004E00540052004100540058002C00250073002C002800470045004E004D00530047002000670065006E00640069006D007A002000310029004193C01480124011C0124013801344700450
311
04E0054005200410043004F002C0045004E0055002C0030002C004F0052004900470049004E002C00470045004E00540052004100540058002C00250073002C002800470045004E004D00530047002000670065006E00640069006D007A0020003100290041120013C013001140132470045004E0054005200410043004F00
311
2C0045004E0055002C0030002C0048004F004C0045002C00470045004E00540052004100540058002C00250073002C002800470045004E004D00530047002000670065006E00640069006D007A00200032002900538F400F00124011800A00124014C0108013001040138012C00A0012001BC01B00194012401D0019401B40
311
0A400B0013C01C801A4019C01A401B800B00080012001BC01B00194012401D0019401B400A400F800F00124011800A00124014C0108013001040138012C00A0012001BC01B00194012401D0019401B400A400B00088008800B00080012001BC01B00194012401B80190019401E000A400F8010158004BD1C01140138015001
311
480104010C013C00B001140138015400B000C000B0016000B0011C011401380150014801040150016000B0009401CC00B000A0011C011401380134014C011C0080019C019401B8019001A401B401E8008000CC00A4010159004BD1C01140138015001480104010C013C00B001140138015400B000C000B0016400B0011C011
311
401380150014801040150016000B0009401CC00B000A0011C011401380134014C011C0080019C019401B8019001A401B401E8008000D000A4010152004BD1C01140138015001480104010C013C00B001140138015400B000C000B0014800B0011C011401380150014801040150016000B0009401CC00B000A0011C01140138
311
0134014C011C0080019C019401B8019001A401B401E8008000D800A401187B005C004600530059004D0042004F004C007C00420030007C00490030007C00430032007C00500030003B004A007D005191C01140138015001480104010C013C00B001140138015400B000C000B001EC01700118014C016401340108013C01300
311
1F0010800C001F0012400C001F0010C00C801F0014000C000EC012801F400B0011C011401380150014801040150016000B0009401CC00B000A0011C011401380134014C011C0080019C019401B8019001A401B401E8008000DC00A401032500250043004C51C01140138015001480104010C013C00B001140138015400B000
311
C000B000940094010C00B0011C011401380150014801040150016000B0009401CC00B000A0011C011401380134014C011C0080019C019401B8019001A401B401E8008000E000A4010B4400450053004300520049005000540049004F004E004E91C01140138015001480104010C013C00B001140138015400B000C000B0011
311
00114014C010C01480124014001500124013C013800B0011C011401380150014801040150016000B0009401CC00B000A0011C011401380134014C011C0080019C019401B8019001A401B401E8008000C800C000A401044900540045004D004CD1C01140138015001480104010C013C00B001140138015400B000C000B00124
311
01500114013400B0011C011401380150014801040150016000B0009401CC00B000A0011C011401380134014C011C0080019C019401B8019001A401B401E8008000C400D000A4010549004E004400450058004D11C01140138015001480104010C013C00B001140138015400B000C000B00124013801100114016000B0011C0
311
11401380150014801040150016000B0009401CC00B000A0011C011401380134014C011C0080019C019401B8019001A401B401E8008000C400D400A4010448004F004C0045004CD1C01140138015001480104010C013C00B001140138015400B000C000B00120013C0130011400B0011C011401380150014801040150016000
311
B0009401CC00B000A0011C011401380134014C011C0080019C019401B8019001A401B401E8008000C400D800A4010A48004F004C004500200049004E004400450058004E51C01140138015001480104010C013C00B001140138015400B000C000B00120013C0130011400800124013801100114016000B0011C01140138015
311
0014801040150016000B0009401CC00B000A0011C011401380134014C011C0080019C019401B8019001A401B401E8008000C400DC00A40109550053004500520020004900540045004D004E11C01140138015001480104010C013C00B001140138015400B000C000B00154014C011401480080012401500114013400B0011C
311
011401380150014801040150016000B0009401CC00B000A0011C011401380134014C011C0080019C019401B8019001A401B401E8008000C800C800A401035100540059004C91C01140138015001480104010C013C00B001140138015400B000C000B001440150016400B0011C011401380150014801040150016000B000940
311
1CC00B000A0011C011401380134014C011C0080019C019401B8019001A401B401E8008000C400E400A401085300540041004E0044004100520044004DD1C01140138015001480104010C013C00B001140138015400B000C000B0014C015001040138011001040148011000B0011C011401380150014801040150016000B000
311
9401CC00B000A0011C011401380134014C011C0080019C019401B8019001A401B401E8008000C800C400A4014E3D003C004900460028004900530042004C0041004E004B00280048006F006C0065004900740065006D0029002C004F0072006900670069006E002C00200048006F006C0065004900740065006D0029003E00
311
3C004900460028004900530042004C0041004E004B00280048006F006C0065004900740065006D0029002C00220022002C00200048006F006C00650049006E0064006500780029003E00CC
161
              7105
310
6DCB81E85EB51B8BE3F2E07A17AD46E2F8FE23000030C02000000300012AFA46347FFFFFFFA020600005C0F42F5A8DC5F1FC46000061806808180001703D0BD6A3717C7F118000186018080F0201800000000000000000000000000000000F6295C8FC2F5487E5C0F42F5A8DC5F1FC46000061800F6295C8FC2F5487E5C0F4
310
2F5A8DC5F1FC4600006180403F8080F0201800000000000000000000000000000000F6295C8FC2F5487E5C0F42F5A8DC5F1FC46000061800F6295C8FC2F5487E5C0F42F5A8DC5F1FC4600006180403FA1C8821E88A0481A0882A0E862028722489A2A82A2483A288621A880000808000808200110A000101000101040021F4
310
0002020202020800446800040400040400008150000808000808000103A0001010001010000209400020200020206004168000404000404040083D000080800080020010CA0001010001010500A0340002020002020A0143A800040400040410008950000808000808280113A000101000101050022B40002020002020C004
310
528000404000400100086D22000CFFFFFFFF0026A6666666667A4FE7FFFFFFF819353333333333D27F3FFFFFFFC049A9999999999E93F9FFFFFFFE024D4CCCCCCCCCF49FCFFFFFFFF0226A6666666667A4FE7FFFFFFF811353333333333D27F3FFFFFFFC0D9FFFFFFFE0600000000000000204FFFFFFFF0026A66666666676
310
4FE7FFFFFFF801353333333333D27F3FFFFFFFC009A9999999999E93F9FFFFFFFE004D4CCCCCCCCCF49FCFFFFFFFF0026A6666666667A4FE7FFFFFFF819703D0BD6A371BC7F3FFFFFFFC0C67666666666606409FFFFFFFE880033FFFFFFFC009A9999999999E93F9FFFFFFFE064D4CCCCCCCCCF49FCFFFFFFFF0326A666666
310
6667A4FE7FFFFFFF819353333333333D27F3FFFFFFFC0C9A9999999999E93F9FFFFFFFE064D4CCCCCCCCCF49FCFFFFFFFF0367FFFFFFF81800000000000000813FFFFFFFC009A9999999999D93F9FFFFFFFE004D4CCCCCCCCCF49FCFFFFFFFF0326A6666666667A4FE7FFFFFFF801353333333333D27F3FFFFFFFC009A9999
310
999999E93F9FFFFFFFE065C0F42F5A8DC6F1FCFFFFFFFF0319D999999999819027FFFFFFFA088800000021E000000890000002260000008220E00020089000000206000200810000801FFFFFFFE812020002822200000008780000022400000089800000206000082220000000878000002240000008A8000001FFFFFFFF4C
340
0
340
0
340
0
340
0
340
11
340
11
 94
        0
  0
ACAD_PROXY_OBJECT
  5
1211
330
11F1
100
AcDbProxyObject
 90
      499
 91
      557
 95
  7143453
 70
     0
162
             10568
311
411040138014C0124010641004E00530049005F004300429040138014C0124017C0150012401500154014C011541004E00530049005F00420052005F005200650076006900730069006F006E006C00690073007400610044104008000A000E000B800D401E000C400C400B800C001A401B8018C01A000A4010641004E00530
311
049005F00410044518008000A000C800E000B800C001E000D000C000B800C001A401B8018C01A000A4010641004E00530049005F0046004450C008000A000C400DC00B800C001E000C800C800B800C001A401B8018C01A000A4010641004E00530049005F00430044508008000A000C400C400B800C001E000C400DC00B800
311
C001A401B8018C01A000A4010641004E00530049005F00420044510008000A000C800C800B800C001E000CC00D000B800C001A401B8018C01A000A4010641004E00530049005F00440044514008000A000CC00D000B800C001E000D000D000B800C001A401B8018C01A000A4010641004E00530049005F00450044D0401B80
311
1CC01A40080015001A401D001B001940080010801B001BC018C01AC00800104010C010C41004E00530049005F005400490054004C0045004100430044D0401B801CC01A40080015001A401D001B001940080010801B001BC018C01AC00800110010C010C41004E00530049005F005400490054004C00450044004300439540
311
14C0080015001A401D001B001940080010801B001BC018C01AC010A41004E00530049005F00540049005400550053004490401B801CC01A40080015001A401D001B001940080010801B001BC018C01AC00800104010B41004E00530049005F005400490054004C00450041004490401B801CC01A40080015001A401D001B00
311
1940080010801B001BC018C01AC00800110010B41004E00530049005F005400490054004C004500440044948019401D801A401CC01A401BC01B801B001A401CC01D000800104017C01500148017C011541004E00530049005F00540052005F005200650076006900730069006F006E006C0069007300740061004494801940
311
1D801A401CC01A401BC01B801B001A401CC01D000800104017C01080148017C011541004E00530049005F00420052005F005200650076006900730069006F006E006C00690073007400610044948019401D801A401CC01A401BC01B801B001A401CC01D000800110017C01500148017C011541004E00530049005F00540052
311
005F005200650076006900730069006F006E006C00690073007400640044948019401D801A401CC01A401BC01B801B001A401CC01D000800110017C01080148017C011541004E00530049005F00420052005F005200650076006900730069006F006E006C00690073007400640044948019401D801A401CC01A401BC01B801
311
B001A401CC01D000800104017C01500130017C011541004E00530049005F0054004C005F005200650076006900730069006F006E006C00690073007400610044948019401D801A401CC01A401BC01B801B001A401CC01D000800104017C01080130017C011541004E00530049005F0042004C005F005200650076006900730
311
069006F006E006C00690073007400610044948019401D801A401CC01A401BC01B801B001A401CC01D000800110017C01500130017C011541004E00530049005F0054004C005F005200650076006900730069006F006E006C00690073007400640044948019401D801A401CC01A401BC01B801B001A401CC01D000800110017
311
C01080130017C011541004E00530049005F0042004C005F005200650076006900730069006F006E006C006900730074006400A4F
161
               299
310
6DCB81E85EB51B8BE3F2E07A17AD46E2F8FE23000030C02000000300012AFB2E8320A842054C
 94
        0
  0
ACAD_PROXY_OBJECT
  5
121A
330
0
100
AcDbProxyObject
 90
      499
 91
      558
 95
  7143453
 70
     0
162
              4364
311
42950019401B401C001B0018401D00194008000C40005013D003C0069006600280065007100750061006C00280048006F006C0065003A007400610070007000650064002C0022003000220029002C00220025002500630022002C0048006F006C0065003A006E006F006D0069006E0061006C0020002200200022002000690
311
06600280065007100750061006C00280048006F006C0065003A0075006E006900740073002C0022003100220029002C002200780022002C0022002D0022002900200022002000220029003E003C0069006600280065007100750061006C00280048006F006C0065003A007400610070007000650064002C002200300022002
311
9002C0048006F006C0065003A006400690061002C0048006F006C0065003A0070006900740063006800640065007300630029003E0020007B005C00460041004D004700440054003B0078007D0020003C0069006600280065007100750061006C00280048006F006C0065003A007400650072006D0069006E0061007400690
311
06F006E002C0022003000220029002C0048006F006C0065003A00640065007000740068002C0022005400480052005500220029003E005C0050007B005C00460041004D004700440054003B0076007D002500250063003C0048006F006C0065003A00630074006400690061003E0020007B005C00460041004D00470044005
311
4003B0078007D0020003C0048006F006C0065003A0063007400640065007000740068003E00C
161
                29
310
6DE0101C
 94
        0
  0
ACAD_PROXY_OBJECT
  5
121B
330
0
100
AcDbProxyObject
 90
      499
 91
      558
 95
  7143453
 70
     0
162
              4244
311
42950019401B401C001B0018401D00194008000C401FE3D003C0069006600280065007100750061006C00280048006F006C0065003A007400610070007000650064002C0022003000220029002C00220025002500630022002C0048006F006C0065003A006E006F006D0069006E0061006C002000220020002200200069006
311
600280065007100750061006C00280048006F006C0065003A0075006E006900740073002C0022003100220029002C002200780022002C0022002D0022002900200022002000220029003E003C0069006600280065007100750061006C00280048006F006C0065003A007400610070007000650064002C00220030002200290
311
02C0048006F006C0065003A006400690061002C0048006F006C0065003A0070006900740063006800640065007300630029003E0020007B005C00460041004D004700440054003B0078007D0020003C0069006600280065007100750061006C00280048006F006C0065003A007400650072006D0069006E006100740069006
311
F006E002C0022003000220029002C0048006F006C0065003A00640065007000740068002C0022005400480052005500220029003E005C0050007B005C00460041004D004700440054003B0077007D002500250063003C0048006F006C0065003A00630074006400690061003E002000580020003C0048006F006C0065003A0
311
06300740061006E0067006C0065003E00250025006400C
161
                29
310
6DE0101C
 94
        0
  0
ACAD_PROXY_OBJECT
  5
1219
330
0
100
AcDbProxyObject
 90
      499
 91
      558
 95
  7143453
 70
     0
162
              3492
311
42950019401B401C001B0018401D00194008000C401CF3D003C0069006600280065007100750061006C00280048006F006C0065003A007400610070007000650064002C0022003000220029002C00220025002500630022002C0048006F006C0065003A006E006F006D0069006E0061006C002000220020002200200069006
311
600280065007100750061006C00280048006F006C0065003A0075006E006900740073002C0022003100220029002C002200780022002C0022002D0022002900200022002000220029003E003C0069006600280065007100750061006C00280048006F006C0065003A007400610070007000650064002C00220030002200290
311
02C0048006F006C0065003A006400690061002C0048006F006C0065003A0070006900740063006800640065007300630029003E005C0050007B005C00460041004D004700440054003B0078007D0020003C0069006600280065007100750061006C00280048006F006C0065003A007400650072006D0069006E00610074006
311
9006F006E002C0022003000220029002C0048006F006C0065003A00640065007000740068002C0022005400480052005500220029003E00C
161
                29
310
6DE0101C
 94
        0
  0
ACAD_PROXY_OBJECT
  5
1217
330
0
100
AcDbProxyObject
 90
      499
 91
      558
 95
  7143453
 70
     0
162
               548
311
42950019401B401C001B0018401D00194008000C801173D003C0053005400440050003A0044004500530043003E0020003C0053005400440050003A005300540044003E00C
161
                29
310
6DE01014
 94
        0
  0
ACAD_PROXY_OBJECT
  5
1216
330
0
100
AcDbProxyObject
 90
      499
 91
      558
 95
  7143453
 70
     0
162
               372
311
42950019401B401C001B0018401D00194008000C4010C3D003C0053005400440050003A0044004500530043003E00C
161
                29
310
6DE0101C
 94
        0
  0
ACAD_PROXY_OBJECT
  5
1218
330
0
100
AcDbProxyObject
 90
      499
 91
      558
 95
  7143453
 70
     0
162
               356
311
42950019401B401C001B0018401D00194008000CC010B3D003C0053005400440050003A005300540044003E00C
161
                29
310
6DE01014
 94
        0
  0
ENDSEC
  0
SECTION
  2
ACDSDATA
 70
     2
 71
     6
  0
ACDSSCHEMA
 90
        0
  1
AcDb_Thumbnail_Schema
  2
AcDbDs::ID
280
    10
 91
        8
  2
Thumbnail_Data
280
    15
 91
        0
101
ACDSRECORD
 95
        0
 90
        1
  2
AcDbDs::TreatedAsObjectData
280
     1
291
     1
101
ACDSRECORD
 95
        0
 90
        2
  2
AcDbDs::Legacy
280
     1
291
     1
101
ACDSRECORD
  1
AcDbDs::ID
 90
        3
  2
AcDs:Indexable
280
     1
291
     1
101
ACDSRECORD
  1
AcDbDs::ID
 90
        4
  2
AcDbDs::HandleAttribute
280
     7
282
     1
  0
ACDSSCHEMA
 90
        1
  1
AcDbDs::TreatedAsObjectDataSchema
  2
AcDbDs::TreatedAsObjectData
280
     1
 91
        0
  0
ACDSSCHEMA
 90
        2
  1
AcDbDs::LegacySchema
  2
AcDbDs::Legacy
280
     1
 91
        0
  0
ACDSSCHEMA
 90
        3
  1
AcDbDs::IndexedPropertySchema
  2
AcDs:Indexable
280
     1
 91
        0
  0
ACDSSCHEMA
 90
        4
  1
AcDbDs::HandleAttributeSchema
  2
AcDbDs::HandleAttribute
280
     7
 91
        1
284
     1
  0
ACDSRECORD
 90
        0
  2
AcDbDs::ID
280
    10
320
22
  2
Thumbnail_Data
280
    15
 94
     1182
310
89504E470D0A1A0A0000000D4948445200000100000000870803000000CE6E778000000300504C5445FFFFFF000000C8C8C80000000000000000000000000000000000000000000000000000330000660000990000CC0000FF0033000033330033660033990033CC0033FF0066000066330066660066990066CC0066FF0099
310
000099330099660099990099CC0099FF00CC0000CC3300CC6600CC9900CCCC00CCFF00FF0000FF3300FF6600FF9900FFCC00FFFF3300003300333300663300993300CC3300FF3333003333333333663333993333CC3333FF3366003366333366663366993366CC3366FF3399003399333399663399993399CC3399FF33CC00
310
33CC3333CC6633CC9933CCCC33CCFF33FF0033FF3333FF6633FF9933FFCC33FFFF6600006600336600666600996600CC6600FF6633006633336633666633996633CC6633FF6666006666336666666666996666CC6666FF6699006699336699666699996699CC6699FF66CC0066CC3366CC6666CC9966CCCC66CCFF66FF0066
310
FF3366FF6666FF9966FFCC66FFFF9900009900339900669900999900CC9900FF9933009933339933669933999933CC9933FF9966009966339966669966999966CC9966FF9999009999339999669999999999CC9999FF99CC0099CC3399CC6699CC9999CCCC99CCFF99FF0099FF3399FF6699FF9999FFCC99FFFFCC0000CC00
310
33CC0066CC0099CC00CCCC00FFCC3300CC3333CC3366CC3399CC33CCCC33FFCC6600CC6633CC6666CC6699CC66CCCC66FFCC9900CC9933CC9966CC9999CC99CCCC99FFCCCC00CCCC33CCCC66CCCC99CCCCCCCCCCFFCCFF00CCFF33CCFF66CCFF99CCFFCCCCFFFFFF0000FF0033FF0066FF0099FF00CCFF00FFFF3300FF3333
310
FF3366FF3399FF33CCFF33FFFF6600FF6633FF6666FF6699FF66CCFF66FFFF9900FF9933FF9966FF9999FF99CCFF99FFFFCC00FFCC33FFCC66FFCC99FFCCCCFFCCFFFFFF00FFFF33FFFF66FFFF99FFFFCCFFFFFF0000000D0D0D1A1A1A2828283535354343435050505D5D5D6B6B6B787878868686939393A1A1A1AEAEAEBB
310
BBBBC9C9C9D6D6D6E4E4E4F1F1F1FFFFFF000000000000000000000000000000000000000000000000000000000000B0E2D235000001594944415478DAEDDA4172C2300C0550DF26DCFF483A4981CE34148C89295D587A6F090933FE38B26C680D000000000000000000000000000000E083E2DF2E5EC4293AB6B3DEEB1903
310
E80EEA3CFEEEF71F1E010108207D009702B83DB92A67117C5802DAE3127032038AD780F2018C1E81C53BA4DF9D60B72FDC0718A3229262063C1BC6F300F63B224500B335E036B1481DC0758EC7F8E98FC401C43582D3E3BDB77562C93A7078065C8617BD00AEE3FE7E73BD04EE8B77B500EE57AFAD7F10F02A809FC382AA01
310
E499016AC07B01EC8FC0826BC06767C08AC701337D40E4EB0362AA136CF93AC198DA0B0CEF5F733F1853BBC141195D753F7C7FF6373E0F187E44EA13A1C40450E0F7CFB9041A7060DB546EAD88ACEB451C933880F2334000070388DA01E46D928AFF3FE0E8B79A358010C01F02C8B08F2C1F402B1FC0DC2A10AD6E009D1116
310
9C01A55B6101A40DE0E0790000000000BCEF0B9C2972193CD996D80000000049454E44AE426082
  0
ACDSRECORD
 90
        0
  2
AcDbDs::ID
280
    10
320
1E
  2
Thumbnail_Data
280
    15
 94
     2047
310
89504E470D0A1A0A0000000D4948445200000100000000C508030000008CFEDCE700000300504C5445FFFFFF000000C8C8C80000000000000000000000000000000000000000000000000000330000660000990000CC0000FF0033000033330033660033990033CC0033FF0066000066330066660066990066CC0066FF0099
310
000099330099660099990099CC0099FF00CC0000CC3300CC6600CC9900CCCC00CCFF00FF0000FF3300FF6600FF9900FFCC00FFFF3300003300333300663300993300CC3300FF3333003333333333663333993333CC3333FF3366003366333366663366993366CC3366FF3399003399333399663399993399CC3399FF33CC00
310
33CC3333CC6633CC9933CCCC33CCFF33FF0033FF3333FF6633FF9933FFCC33FFFF6600006600336600666600996600CC6600FF6633006633336633666633996633CC6633FF6666006666336666666666996666CC6666FF6699006699336699666699996699CC6699FF66CC0066CC3366CC6666CC9966CCCC66CCFF66FF0066
310
FF3366FF6666FF9966FFCC66FFFF9900009900339900669900999900CC9900FF9933009933339933669933999933CC9933FF9966009966339966669966999966CC9966FF9999009999339999669999999999CC9999FF99CC0099CC3399CC6699CC9999CCCC99CCFF99FF0099FF3399FF6699FF9999FFCC99FFFFCC0000CC00
310
33CC0066CC0099CC00CCCC00FFCC3300CC3333CC3366CC3399CC33CCCC33FFCC6600CC6633CC6666CC6699CC66CCCC66FFCC9900CC9933CC9966CC9999CC99CCCC99FFCCCC00CCCC33CCCC66CCCC99CCCCCCCCCCFFCCFF00CCFF33CCFF66CCFF99CCFFCCCCFFFFFF0000FF0033FF0066FF0099FF00CCFF00FFFF3300FF3333
310
FF3366FF3399FF33CCFF33FFFF6600FF6633FF6666FF6699FF66CCFF66FFFF9900FF9933FF9966FF9999FF99CCFF99FFFFCC00FFCC33FFCC66FFCC99FFCCCCFFCCFFFFFF00FFFF33FFFF66FFFF99FFFFCCFFFFFF0000000D0D0D1A1A1A2828283535354343435050505D5D5D6B6B6B787878868686939393A1A1A1AEAEAEBB
310
BBBBC9C9C9D6D6D6E4E4E4F1F1F1FFFFFF000000000000000000000000000000000000000000000000000000000000B0E2D235000004BA4944415478DAED9D6B9AE32A0C44D98DFBCFEC7F3FB5927B13C746106C6407F31055DD335FB73B0F730C421232718EA2288AA2288AA2288AA2288AA2288AA2288AA2288AA2288AA2
310
288A322ECC2901204BA8E2C568F14E0F005896D7BFD7FF4600E0DA892DFBD7C5B1D82980BFCBC36B79377FB9615FAC0C81F70058E6B501D31B41022000022000022000022080CB0D1E1CC0CBFB5D2E39C18300D04732CB270ED03EE3CF58387C2D0A4E84BFA3DB80654B854C6A03A63782044000044000D7CEA28C1F7027A9
310
5A362BFC57607DE63680973B713DB15CB607DCED230500C4CB5C5AAFAD3000B40290E844BAE5151B00D21D5ED5094C0C81A3766A3A81010067F62E4F607C00E7DD1CE601E45A98FDBB7500B907740440FA2FD08D7D8DD7330800DFF4648A2CF76667FE65C64874D403844DC76500F193C4815302046009C0DE5284AF726A22
310
6C0140E0041704F07EEDFE8700420F108A99400B40E355F66A037E07A04E311805B0F6FE5C0F589742DC9DA2382300D6AFA6001EB2013A007B17E86F16A8350496E5665D68FF009E2EE02DED08159F0631FA34E808600E4FF000400957788C68F0C006148806C70070180CCD0320190E17C907C00D9C10717303C01000A2A4
310
E875008749D14259E17A3D40FF24D51BE7666F754A0C55D705F4DD26F3ACACF7D21180FB81047E78650300CEAE32CA2D8F770CE0B00FA06881046A5688DC994634C7CC02481449A174911414F70B142B93BB49F1D132B9278B370B259BEEF0BCB03456F19EA98A220002200075034100F0F9A63DEB863DFDB2664E01BB00D6
310
A64238C6088259AC706015C0E7B2436407048C77CBED038887C08A641D09BBB36817C0E446900008800008800008E0C1AC480B27A227004DCEA20F00B796C61A0543CFEDED3A0080E97B00011000011000011000013C05A0FB58E049004DF615EFAC07B4094A7A0450954097001A6DDFDA1180FEF61253DE31621880AE4ACC
310
2A803AB7CDF50B4079E72801100001D403B0156AF8B20C7F105BB5064C038068FE5EB124AA57A03BE35167010960CFABEF355AD0574B8FEA0760ABC91185497BB1F456AF464F90B1805D0041478713159A10A3A3FA9EA215C3615FB228E6013F1B02B87C9BD3580911F859DF57B04218EC92D36065004AEB2D9A0DD1DAAD76
310
B3EC34F8380026455B8900088000088000088000B4014885CF80EF18C093DE5F3BB503A07FCBC44986B7CABF0FFF4BA9E71EF02300A703E0B3646ECF107C17E88EDE03100370BE037C5A0F1F22FA64CAC836201541FAA6EFBF7DB53AFC71E01E807300B20320D85A42FE3E3C80E8F0BBC991090C01383B00128FF834F91B40
310
3C743A01F0BB0D48D8F54DFFB7DEBA1FE020B2E1F8E93486B501495B3E0B80AF47081BEF200746914D55BBF503E45A885811082C43AF004AD9801000F685636FEFCDDA806032DB2E7A54308142BBCA0EE0076C553190B523F94FE232920FF0177F6BB613DF303C04229310048AD1C2B9B12100798B09C40D27DBD577A1AB60
310
0F806CDC908E50013FC0F9EDA3A7CB091E3B47A189C8B57B7000D1E1604884E182CC85841FC530F434A87D316F35D3A9946600BE0FB984FF8EB02246B627D893FEF0C571F2E1CC2D0138240E259C3704815D30C1879BF2032E3206926004A78B8CD0E1A8705900C127CC2300988E9663F2DF00E694A3288AFA0F817D782FCA
310
D975E70000000049454E44AE426082
  0
ENDSEC
  0
EOF
