  0
SECTION
  2
HEADER
  9
$ACADVER
  1
AC1027
  9
$ACADMAINTVER
 70
    57
  9
$DWGCODEPAGE
  3
ANSI_1252
  9
$LASTSAVEDBY
  1
bmartens
  9
$REQUIREDVERSIONS
160
                 0
  9
$INSBASE
 10
0.0
 20
0.0
 30
0.0
  9
$EXTMIN
 10
30.4406030144747
 20
14.89733023116324
 30
0.0
  9
$EXTMAX
 10
42.76866788340182
 20
18.87977137758167
 30
0.0
  9
$LIMMIN
 10
0.0
 20
0.0
  9
$LIMMAX
 10
45.3322
 20
29.3326
  9
$ORTHOMODE
 70
     0
  9
$REGENMODE
 70
     1
  9
$FILLMODE
 70
     1
  9
$QTEXTMODE
 70
     0
  9
$MIRRTEXT
 70
     1
  9
$LTSCALE
 40
1.333299999999999
  9
$ATTMODE
 70
     1
  9
$TEXTSIZE
 40
0.2
  9
$TRACEWID
 40
0.05
  9
$TEXTSTYLE
  7
STANDARD
  9
$CLAYER
  8
DIMENSION
  9
$CELTYPE
  6
ByLayer
  9
$CECOLOR
 62
   256
  9
$CELTSCALE
 40
1.0
  9
$DISPSILH
 70
     0
  9
$DIMSCALE
 40
1.0
  9
$DIMASZ
 40
0.18
  9
$DIMEXO
 40
0.0625
  9
$DIMDLI
 40
0.38
  9
$DIMRND
 40
0.0
  9
$DIMDLE
 40
0.0
  9
$DIMEXE
 40
0.18
  9
$DIMTP
 40
0.0
  9
$DIMTM
 40
0.0
  9
$DIMTXT
 40
0.125
  9
$DIMCEN
 40
0.09
  9
$DIMTSZ
 40
0.0
  9
$DIMTOL
 70
     0
  9
$DIMLIM
 70
     0
  9
$DIMTIH
 70
     1
  9
$DIMTOH
 70
     1
  9
$DIMSE1
 70
     0
  9
$DIMSE2
 70
     0
  9
$DIMTAD
 70
     0
  9
$DIMZIN
 70
     0
  9
$DIMBLK
  1

  9
$DIMASO
 70
     1
  9
$DIMSHO
 70
     1
  9
$DIMPOST
  1

  9
$DIMAPOST
  1
mm
  9
$DIMALT
 70
     0
  9
$DIMALTD
 70
     2
  9
$DIMALTF
 40
25.4
  9
$DIMLFAC
 40
1.0
  9
$DIMTOFL
 70
     0
  9
$DIMTVP
 40
0.0
  9
$DIMTIX
 70
     0
  9
$DIMSOXD
 70
     0
  9
$DIMSAH
 70
     0
  9
$DIMBLK1
  1

  9
$DIMBLK2
  1

  9
$DIMSTYLE
  2
ENGLISH
  9
$DIMCLRD
 70
     0
  9
$DIMCLRE
 70
     0
  9
$DIMCLRT
 70
     0
  9
$DIMTFAC
 40
1.0
  9
$DIMGAP
 40
0.09
  9
$DIMJUST
 70
     0
  9
$DIMSD1
 70
     0
  9
$DIMSD2
 70
     0
  9
$DIMTOLJ
 70
     1
  9
$DIMTZIN
 70
     0
  9
$DIMALTZ
 70
     0
  9
$DIMALTTZ
 70
     0
  9
$DIMUPT
 70
     0
  9
$DIMDEC
 70
     2
  9
$DIMTDEC
 70
     2
  9
$DIMALTU
 70
     2
  9
$DIMALTTD
 70
     2
  9
$DIMTXSTY
  7
STANDARD
  9
$DIMAUNIT
 70
     0
  9
$DIMADEC
 70
     0
  9
$DIMALTRND
 40
0.0
  9
$DIMAZIN
 70
     0
  9
$DIMDSEP
 70
    46
  9
$DIMATFIT
 70
     3
  9
$DIMFRAC
 70
     0
  9
$DIMLDRBLK
  1

  9
$DIMLUNIT
 70
     2
  9
$DIMLWD
 70
    -2
  9
$DIMLWE
 70
    -2
  9
$DIMTMOVE
 70
     0
  9
$DIMFXL
 40
1.0
  9
$DIMFXLON
 70
     0
  9
$DIMJOGANG
 40
0.7853981633974483
  9
$DIMTFILL
 70
     0
  9
$DIMTFILLCLR
 70
     0
  9
$DIMARCSYM
 70
     0
  9
$DIMLTYPE
  6

  9
$DIMLTEX1
  6

  9
$DIMLTEX2
  6

  9
$DIMTXTDIRECTION
 70
     0
  9
$LUNITS
 70
     2
  9
$LUPREC
 70
     4
  9
$SKETCHINC
 40
0.1
  9
$FILLETRAD
 40
0.5
  9
$AUNITS
 70
     0
  9
$AUPREC
 70
     0
  9
$MENU
  1
.
  9
$ELEVATION
 40
0.0
  9
$PELEVATION
 40
0.0
  9
$THICKNESS
 40
0.0
  9
$LIMCHECK
 70
     0
  9
$CHAMFERA
 40
0.5
  9
$CHAMFERB
 40
0.5
  9
$CHAMFERC
 40
0.0
  9
$CHAMFERD
 40
0.0
  9
$SKPOLY
 70
     1
  9
$TDCREATE
 40
2457010.311568044
  9
$TDUCREATE
 40
2457010.561568044
  9
$TDUPDATE
 40
2457015.445252778
  9
$TDUUPDATE
 40
2457015.695252778
  9
$TDINDWG
 40
0.0223213079
  9
$TDUSRTIMER
 40
0.0223212500
  9
$USRTIMER
 70
     1
  9
$ANGBASE
 50
0.0
  9
$ANGDIR
 70
     0
  9
$PDMODE
 70
     0
  9
$PDSIZE
 40
0.0
  9
$PLINEWID
 40
0.0
  9
$SPLFRAME
 70
     0
  9
$SPLINETYPE
 70
     6
  9
$SPLINESEGS
 70
     8
  9
$HANDSEED
  5
30C8
  9
$SURFTAB1
 70
     6
  9
$SURFTAB2
 70
     6
  9
$SURFTYPE
 70
     6
  9
$SURFU
 70
     6
  9
$SURFV
 70
     6
  9
$UCSBASE
  2

  9
$UCSNAME
  2

  9
$UCSORG
 10
-1.484480987389261
 20
1.948961508837633
 30
0.0
  9
$UCSXDIR
 10
1.0
 20
0.0
 30
0.0
  9
$UCSYDIR
 10
0.0
 20
1.0
 30
0.0
  9
$UCSORTHOREF
  2

  9
$UCSORTHOVIEW
 70
     0
  9
$UCSORGTOP
 10
0.0
 20
0.0
 30
0.0
  9
$UCSORGBOTTOM
 10
0.0
 20
0.0
 30
0.0
  9
$UCSORGLEFT
 10
0.0
 20
0.0
 30
0.0
  9
$UCSORGRIGHT
 10
0.0
 20
0.0
 30
0.0
  9
$UCSORGFRONT
 10
0.0
 20
0.0
 30
0.0
  9
$UCSORGBACK
 10
0.0
 20
0.0
 30
0.0
  9
$PUCSBASE
  2

  9
$PUCSNAME
  2

  9
$PUCSORG
 10
0.0
 20
0.0
 30
0.0
  9
$PUCSXDIR
 10
1.0
 20
0.0
 30
0.0
  9
$PUCSYDIR
 10
0.0
 20
1.0
 30
0.0
  9
$PUCSORTHOREF
  2

  9
$PUCSORTHOVIEW
 70
     0
  9
$PUCSORGTOP
 10
0.0
 20
0.0
 30
0.0
  9
$PUCSORGBOTTOM
 10
0.0
 20
0.0
 30
0.0
  9
$PUCSORGLEFT
 10
0.0
 20
0.0
 30
0.0
  9
$PUCSORGRIGHT
 10
0.0
 20
0.0
 30
0.0
  9
$PUCSORGFRONT
 10
0.0
 20
0.0
 30
0.0
  9
$PUCSORGBACK
 10
0.0
 20
0.0
 30
0.0
  9
$USERI1
 70
     0
  9
$USERI2
 70
     0
  9
$USERI3
 70
     0
  9
$USERI4
 70
     0
  9
$USERI5
 70
     0
  9
$USERR1
 40
0.0
  9
$USERR2
 40
0.0
  9
$USERR3
 40
0.0
  9
$USERR4
 40
0.0
  9
$USERR5
 40
0.0
  9
$WORLDVIEW
 70
     1
  9
$SHADEDGE
 70
     3
  9
$SHADEDIF
 70
    70
  9
$TILEMODE
 70
     0
  9
$MAXACTVP
 70
    48
  9
$PINSBASE
 10
0.0
 20
0.0
 30
0.0
  9
$PLIMCHECK
 70
     0
  9
$PEXTMIN
 10
0.0095636420571165
 20
0.0108468233350578
 30
0.0
  9
$PEXTMAX
 10
16.73494932135742
 20
10.73909323243598
 30
0.0
  9
$PLIMMIN
 10
-0.1249995194082185
 20
-0.1249999981226884
  9
$PLIMMAX
 10
16.87500120147945
 20
10.87499976158142
  9
$UNITMODE
 70
     0
  9
$VISRETAIN
 70
     1
  9
$PLINEGEN
 70
     0
  9
$PSLTSCALE
 70
     1
  9
$TREEDEPTH
 70
  3020
  9
$CMLSTYLE
  2
Standard
  9
$CMLJUST
 70
     0
  9
$CMLSCALE
 40
1.0
  9
$PROXYGRAPHICS
 70
     1
  9
$MEASUREMENT
 70
     0
  9
$CELWEIGHT
370
    -1
  9
$ENDCAPS
280
     0
  9
$JOINSTYLE
280
     0
  9
$LWDISPLAY
290
     0
  9
$INSUNITS
 70
     0
  9
$HYPERLINKBASE
  1

  9
$STYLESHEET
  1

  9
$XEDIT
290
     1
  9
$CEPSNTYPE
380
     0
  9
$PSTYLEMODE
290
     1
  9
$FINGERPRINTGUID
  2
{B13CEDB1-DC4E-4A23-A9F3-A97BFC74229E}
  9
$VERSIONGUID
  2
{6A055165-0F57-476E-B25B-30AB834EA232}
  9
$EXTNAMES
290
     1
  9
$PSVPSCALE
 40
0.0
  9
$OLESTARTUP
290
     0
  9
$SORTENTS
280
   127
  9
$INDEXCTL
280
     0
  9
$HIDETEXT
280
     0
  9
$XCLIPFRAME
280
     2
  9
$HALOGAP
280
     0
  9
$OBSCOLOR
 70
   257
  9
$OBSLTYPE
280
     0
  9
$INTERSECTIONDISPLAY
280
     0
  9
$INTERSECTIONCOLOR
 70
   257
  9
$DIMASSOC
280
     1
  9
$PROJECTNAME
  1

  9
$CAMERADISPLAY
290
     0
  9
$LENSLENGTH
 40
50.0
  9
$CAMERAHEIGHT
 40
0.0
  9
$STEPSPERSEC
 40
2.0
  9
$STEPSIZE
 40
6.0
  9
$3DDWFPREC
 40
2.0
  9
$PSOLWIDTH
 40
0.25
  9
$PSOLHEIGHT
 40
4.0
  9
$LOFTANG1
 40
1.570796326794896
  9
$LOFTANG2
 40
1.570796326794896
  9
$LOFTMAG1
 40
0.0
  9
$LOFTMAG2
 40
0.0
  9
$LOFTPARAM
 70
     7
  9
$LOFTNORMALS
280
     1
  9
$LATITUDE
 40
37.795
  9
$LONGITUDE
 40
-122.394
  9
$NORTHDIRECTION
 40
0.0
  9
$TIMEZONE
 70
 -8000
  9
$LIGHTGLYPHDISPLAY
280
     1
  9
$TILEMODELIGHTSYNCH
280
     1
  9
$CMATERIAL
347
26A0
  9
$SOLIDHIST
280
     0
  9
$SHOWHIST
280
     1
  9
$DWFFRAME
280
     2
  9
$DGNFRAME
280
     0
  9
$REALWORLDSCALE
290
     1
  9
$INTERFERECOLOR
 62
     1
  9
$INTERFEREOBJVS
345
26C2
  9
$INTERFEREVPVS
346
26BF
  9
$CSHADOW
280
     0
  9
$SHADOWPLANELOCATION
 40
0.0
  0
ENDSEC
  0
SECTION
  2
CLASSES
  0
CLASS
  1
ACDBDICTIONARYWDFLT
  2
AcDbDictionaryWithDefault
  3
ObjectDBX Classes
 90
        0
 91
        1
280
     0
281
     0
  0
CLASS
  1
MATERIAL
  2
AcDbMaterial
  3
ObjectDBX Classes
 90
     1153
 91
        3
280
     0
281
     0
  0
CLASS
  1
VISUALSTYLE
  2
AcDbVisualStyle
  3
ObjectDBX Classes
 90
     4095
 91
       25
280
     0
281
     0
  0
CLASS
  1
SCALE
  2
AcDbScale
  3
ObjectDBX Classes
 90
     1153
 91
       17
280
     0
281
     0
  0
CLASS
  1
TABLESTYLE
  2
AcDbTableStyle
  3
ObjectDBX Classes
 90
     4095
 91
        1
280
     0
281
     0
  0
CLASS
  1
MLEADERSTYLE
  2
AcDbMLeaderStyle
  3
ACDB_MLEADERSTYLE_CLASS
 90
     4095
 91
        1
280
     0
281
     0
  0
CLASS
  1
ACDBSECTIONVIEWSTYLE
  2
AcDbSectionViewStyle
  3
ObjectDBX Classes
 90
     1025
 91
        3
280
     0
281
     0
  0
CLASS
  1
ACDBDETAILVIEWSTYLE
  2
AcDbDetailViewStyle
  3
ObjectDBX Classes
 90
     1025
 91
        3
280
     0
281
     0
  0
CLASS
  1
AMGSETTINGSOBJ
  2
AmgSettingsObj
  3
"AcadM|Product Description: AutoCAD Mechanical|Company: Autodesk, Inc."
 90
     1024
 91
        2
280
     0
281
     0
  0
CLASS
  1
ACME_DOCUMENT
  2
AcMeDbDoc
  3
AcMeServices
 90
     1024
 91
        2
280
     0
281
     0
  0
CLASS
  1
ACMESCOPE
  2
AcMeScope
  3
AcMeServices
 90
     1024
 91
        1
280
     0
281
     0
  0
CLASS
  1
ACMECOMMANDHISTORY
  2
AcMeCommandHistory
  3
AcMeServices
 90
     1024
 91
        1
280
     0
281
     0
  0
CLASS
  1
ACIMSYSVARMAN
  2
AcImSysVarManager
  3
AcMeServices
 90
     1024
 91
        3
280
     0
281
     0
  0
CLASS
  1
ACIMINTSYSVAR
  2
AcImIntSysVar
  3
AcMeServices
 90
     1024
 91
        2
280
     0
281
     0
  0
CLASS
  1
ACMESTATEMGR
  2
AcMeStateMgr
  3
AcMeServices
 90
     1024
 91
        1
280
     0
281
     0
  0
CLASS
  1
ACDBENTITYCACHE
  2
AcMeEntityCache
  3
AcMeServices
 90
     1024
 91
        1
280
     0
281
     0
  0
CLASS
  1
ACGREFMASTER
  2
AcGrefMaster
  3
AcAttribServices
 90
     1024
 91
        1
280
     0
281
     0
  0
CLASS
  1
ACME_DATABASE
  2
AcMeDbDatabase
  3
AcMeServices
 90
     1024
 91
        1
280
     0
281
     0
  0
CLASS
  1
ACRFINSADJUSTERMGR
  2
AcRfInsAdjusterMgr
  3
AcMeServices
 90
     1024
 91
        1
280
     0
281
     0
  0
CLASS
  1
ACGREFACADMASTER
  2
AcGrefacadMaster
  3
AcGrefServices
 90
     1024
 91
        1
280
     0
281
     0
  0
CLASS
  1
AMDTMENUSTATEMGR
  2
AmdtMenuStateMgr
  3
McadcomServices
 90
     1024
 91
        1
280
     0
281
     0
  0
CLASS
  1
AMDTMCOMMENUSTATE
  2
AmdtMcomMenuState
  3
McadcomServices
 90
     1024
 91
        1
280
     0
281
     0
  0
CLASS
  1
AMIMASTER
  2
AmiMaster
  3
AmiServices
 90
     1024
 91
        1
280
     0
281
     0
  0
CLASS
  1
MAPIAMMOUDLE
  2
MApiAmModule
  3
MApiAmServices
 90
     1024
 91
        1
280
     0
281
     0
  0
CLASS
  1
ACIMSTRSYSVAR
  2
AcImStrSysVar
  3
AcMeServices
 90
     1024
 91
        5
280
     0
281
     0
  0
CLASS
  1
AMDTAMMENUSTATE
  2
AmdtAmMenuState
  3
DesignerAssemblies
 90
     1024
 91
        1
280
     0
281
     0
  0
CLASS
  1
ACAMPROJECT
  2
AcAmProject
  3
DesignerAssemblies
 90
     1024
 91
        1
280
     0
281
     0
  0
CLASS
  1
ACAMGRCOMPDEF
  2
AcAmGrCompDef
  3
DesignerAssemblies
 90
     1024
 91
        1
280
     0
281
     0
  0
CLASS
  1
ACAMCOMPDEF
  2
AcAmCompDef
  3
DesignerAssemblies
 90
     1024
 91
        1
280
     0
281
     0
  0
CLASS
  1
ACAMCOMPDEFMGR
  2
AcAmCompDefMgr
  3
DesignerAssemblies
 90
     1024
 91
        1
280
     0
281
     0
  0
CLASS
  1
AMCONTEXTMGR
  2
AcAmContextMgr
  3
DesignerAssemblies
 90
     1024
 91
        1
280
     0
281
     0
  0
CLASS
  1
ACAMCONTEXTMODELER
  2
AcAmContextModeler
  3
DesignerAssemblies
 90
     1024
 91
        1
280
     0
281
     0
  0
CLASS
  1
ACMDATADICTIONARY
  2
AcmDataDictionary
  3
"AcmSymBB|Product Description: AutoCAD Mechanical|Company: Autodesk, Inc."
 90
     1024
 91
        1
280
     0
281
     0
  0
CLASS
  1
ACAMGRCOMPDEFSET
  2
AcAmGrCompDefSet
  3
DesignerAssemblies
 90
     1024
 91
        1
280
     0
281
     0
  0
CLASS
  1
AMDTBROWSERDBTAB
  2
AmdtBrowserDbTab
  3
McadcomServices
 90
     1024
 91
        1
280
     0
281
     0
  0
CLASS
  1
CBROWSERAPPOBJECT
  2
CBrowserAppObject
  3
McadcomServices
 90
     1024
 91
        2
280
     0
281
     0
  0
CLASS
  1
DM_PLACEHOLDER
  2
AcDmSelsetPlaceholder
  3
McadcomServices
 90
     1024
 91
        1
280
     0
281
     0
  0
CLASS
  1
EXACXREFPANELOBJECT
  2
ExAcXREFPanelObject
  3
EXAC_ESW
 90
     1025
 91
        1
280
     0
281
     0
  0
CLASS
  1
NPOCOLLECTION
  2
AcDbImpNonPersistentObjectsCollection
  3
ObjectDBX Classes
 90
     1153
 91
        1
280
     0
281
     0
  0
CLASS
  1
ACMSTANDARDANSI
  2
AcmStandardANSI
  3
"Amdt_StdImp|Product Description: AutoCAD Mechanical|Company: Autodesk, Inc."
 90
     1024
 91
        1
280
     0
281
     0
  0
CLASS
  1
ACMSURFSTANDARDANSI
  2
AcmSurfTextStdANSI
  3
"Amdt_StdImp|Product Description: AutoCAD Mechanical|Company: Autodesk, Inc."
 90
     1024
 91
        1
280
     0
281
     0
  0
CLASS
  1
ACMFCFSTANDARDANSI
  2
AcmFCFStdANSI
  3
"Amdt_StdImp|Product Description: AutoCAD Mechanical|Company: Autodesk, Inc."
 90
     1024
 91
        1
280
     0
281
     0
  0
CLASS
  1
ACMWELDSTANDARDANSI
  2
AcmWeldingStdANSI
  3
"Amdt_StdImp|Product Description: AutoCAD Mechanical|Company: Autodesk, Inc."
 90
     1024
 91
        1
280
     0
281
     0
  0
CLASS
  1
ACMIDSTANDARDANSI
  2
AcmIdStdANSI
  3
"Amdt_StdImp|Product Description: AutoCAD Mechanical|Company: Autodesk, Inc."
 90
     1024
 91
        1
280
     0
281
     0
  0
CLASS
  1
ACMDATUMSTANDARDANSI
  2
AcmDatumStdANSI
  3
"Amdt_StdImp|Product Description: AutoCAD Mechanical|Company: Autodesk, Inc."
 90
     1024
 91
        1
280
     0
281
     0
  0
CLASS
  1
ACMBOMSTANDARDANSI
  2
AcmBOMStdANSI
  3
"Amdt_StdImp|Product Description: AutoCAD Mechanical|Company: Autodesk, Inc."
 90
     1024
 91
        1
280
     0
281
     0
  0
CLASS
  1
ACMDETAILSTANDARDANSI
  2
AmdtDetailSymStdANSI
  3
"Amdt_StdImp|Product Description: AutoCAD Mechanical|Company: Autodesk, Inc."
 90
     1024
 91
        1
280
     0
281
     0
  0
CLASS
  1
ACMSECTIONSTANDARDANSI
  2
AmdtSectionSymStdANSI
  3
"Amdt_StdImp|Product Description: AutoCAD Mechanical|Company: Autodesk, Inc."
 90
     1024
 91
        1
280
     0
281
     0
  0
CLASS
  1
ACMCENTERLINESTANDARDANSI
  2
AmdtCenterLineStdANSI
  3
"Amdt_StdImp|Product Description: AutoCAD Mechanical|Company: Autodesk, Inc."
 90
     1024
 91
        1
280
     0
281
     0
  0
CLASS
  1
ACMTHREADLINESTANDARDANSI
  2
AmdtThreadLineStdANSI
  3
"Amdt_StdImp|Product Description: AutoCAD Mechanical|Company: Autodesk, Inc."
 90
     1024
 91
        1
280
     0
281
     0
  0
CLASS
  1
ACMNOTESTANDARDANSI
  2
AmdtNoteStdANSI
  3
"Amdt_StdImp|Product Description: AutoCAD Mechanical|Company: Autodesk, Inc."
 90
     1024
 91
        1
280
     0
281
     0
  0
CLASS
  1
ACMTAPERSTANDARDANSI
  2
AcmTaperStdANSI
  3
"Amdt_StdImp|Product Description: AutoCAD Mechanical|Company: Autodesk, Inc."
 90
     1024
 91
        1
280
     0
281
     0
  0
CLASS
  1
ACMANOOTATIONVIEWSTANDARDANSI
  2
AmdtAnViewStdANSI
  3
"Amdt_StdImp|Product Description: AutoCAD Mechanical|Company: Autodesk, Inc."
 90
     1024
 91
        1
280
     0
281
     0
  0
CLASS
  1
ACAMGLAYSTD
  2
AcAmgLayStd
  3
"AmgLay|Product Description: AutoCAD Mechanical|Company: Autodesk, Inc."
 90
     1024
 91
        1
280
     0
281
     0
  0
CLASS
  1
ACAMGDIMSTD
  2
AcAmgDimStd
  3
"AmgDim|Product Description: AutoCAD Mechanical|Company: Autodesk, Inc."
 90
     1024
 91
        1
280
     0
281
     0
  0
CLASS
  1
AMGOBJPROPCFG
  2
AmgObjPropCfg
  3
"AmgLay|Product Description: AutoCAD Mechanical|Company: Autodesk, Inc."
 90
     1024
 91
        1
280
     0
281
     0
  0
CLASS
  1
ACAMGHOLECHARTSTDANSI
  2
AcAmgHoleChartStdANSI
  3
AmgDim|Product Description: AutoCAD Mechanical|Company: Autodesk, Inc.
 90
     1024
 91
        1
280
     0
281
     0
  0
CLASS
  1
ACAMGTITLESTD
  2
AcAmgTitleStd
  3
"AmgTitle|Product Description: AutoCAD Mechanical|Company: Autodesk, Inc."
 90
     1024
 91
        1
280
     0
281
     0
  0
CLASS
  1
ACMSECTIONSTANDARDCUSTOM
  2
AmdtSectionSymStdCustom
  3
"Amdt_StdImp|Product Description: AutoCAD Mechanical|Company: Autodesk, Inc."
 90
     1024
 91
        2
280
     0
281
     0
  0
CLASS
  1
ACMDETAILTANDARDCUSTOM
  2
AmdtDetailSymStdCustom
  3
"Amdt_StdImp|Product Description: AutoCAD Mechanical|Company: Autodesk, Inc."
 90
     1024
 91
        2
280
     0
281
     0
  0
CLASS
  1
FIELD
  2
AcDbField
  3
ObjectDBX Classes
 90
     1152
 91
        8
280
     0
281
     0
  0
CLASS
  1
FIELDLIST
  2
AcDbFieldList
  3
ObjectDBX Classes
 90
     1152
 91
        1
280
     0
281
     0
  0
CLASS
  1
AMDTNOTETEMPLATEDB
  2
AmdtNoteTemplateDB
  3
AcmSymBB|Product Description: AutoCAD Mechanical|Company: Autodesk, Inc.
 90
     1024
 91
        6
280
     0
281
     0
  0
CLASS
  1
ACAMGFILTERDAT
  2
AcAmgFilterDat
  3
"AcadM|Product Description: AutoCAD Mechanical|Company: Autodesk, Inc."
 90
     1024
 91
        6
280
     0
281
     0
  0
CLASS
  1
CAMSSTRUCTBTNSTATE
  2
StructBtnState
  3
DesignerAssemblies
 90
     1024
 91
        1
280
     0
281
     0
  0
CLASS
  1
DICTIONARYVAR
  2
AcDbDictionaryVar
  3
ObjectDBX Classes
 90
        0
 91
        9
280
     0
281
     0
  0
CLASS
  1
SORTENTSTABLE
  2
AcDbSortentsTable
  3
ObjectDBX Classes
 90
        0
 91
        2
280
     0
281
     0
  0
CLASS
  1
DIMASSOC
  2
AcDbDimAssoc
  3
"AcDbDimAssoc|Product Desc:     AcDim ARX App For Dimension|Company:          Autodesk, Inc.|WEB Address:      www.autodesk.com"
 90
        0
 91
        8
280
     0
281
     0
  0
CLASS
  1
CELLSTYLEMAP
  2
AcDbCellStyleMap
  3
ObjectDBX Classes
 90
     1152
 91
        1
280
     0
281
     0
  0
ENDSEC
  0
SECTION
  2
TABLES
  0
TABLE
  2
VPORT
  5
2697
330
0
100
AcDbSymbolTable
 70
     1
  0
VPORT
  5
2704
330
2697
100
AcDbSymbolTableRecord
100
AcDbViewportTableRecord
  2
*ACTIVE
 70
     0
 10
0.0
 20
0.0
 11
1.0
 21
1.0
 12
36.60414684418537
 22
16.88853455269384
 13
0.0
 23
0.0
 14
0.5
 24
0.5
 15
0.66665
 25
0.66665
 16
0.0
 26
0.0
 36
1.0
 17
0.0
 27
0.0
 37
0.0
 40
6.028433431456218
 41
2.052691867124856
 42
50.0
 43
0.0
 44
0.0
 50
0.0
 51
0.0
 71
     0
 72
   100
 73
     1
 74
     0
 75
     0
 76
     0
 77
     0
 78
     0
281
     0
 65
     0
110
0.0
120
0.0
130
0.0
111
1.0
121
0.0
131
0.0
112
0.0
122
1.0
132
0.0
 79
     0
146
0.0
348
26BE
 60
     3
 61
     5
292
     1
282
     0
141
0.0
142
0.0
 63
   250
421
  3355443
1001
ACAD_NAV_VCDISPLAY
1070
     3
  0
ENDTAB
  0
TABLE
  2
LTYPE
  5
2694
330
0
100
AcDbSymbolTable
 70
     9
  0
LTYPE
  5
26E9
330
2694
100
AcDbSymbolTableRecord
100
AcDbLinetypeTableRecord
  2
ByBlock
 70
     0
  3

 72
    65
 73
     0
 40
0.0
  0
LTYPE
  5
26EA
330
2694
100
AcDbSymbolTableRecord
100
AcDbLinetypeTableRecord
  2
ByLayer
 70
     0
  3

 72
    65
 73
     0
 40
0.0
  0
LTYPE
  5
26EB
330
2694
100
AcDbSymbolTableRecord
100
AcDbLinetypeTableRecord
  2
CONTINUOUS
 70
     0
  3
Solid line
 72
    65
 73
     0
 40
0.0
  0
LTYPE
  5
2705
330
2694
100
AcDbSymbolTableRecord
100
AcDbLinetypeTableRecord
  2
HIDDEN
 70
     0
  3
_ _ _ _ _ _ _ _ _ _ _ _ _ _ _ _ _ _ _ _ _ _ _
 72
    65
 73
     2
 40
0.375
 49
0.25
 74
     0
 49
-0.125
 74
     0
  0
LTYPE
  5
2706
330
2694
100
AcDbSymbolTableRecord
100
AcDbLinetypeTableRecord
  2
CENTER
 70
     0
  3
____ _ ____ _ ____ _ ____ _ ____ _ ____ _ ____
 72
    65
 73
     4
 40
2.0
 49
1.25
 74
     0
 49
-0.25
 74
     0
 49
0.25
 74
     0
 49
-0.25
 74
     0
  0
LTYPE
  5
2707
330
2694
100
AcDbSymbolTableRecord
100
AcDbLinetypeTableRecord
  2
PHANTOM
 70
     0
  3
_____ _ _ _____ _ _ _____ _ _ _____ _ _ ____
 72
    65
 73
     6
 40
2.5
 49
1.25
 74
     0
 49
-0.25
 74
     0
 49
0.25
 74
     0
 49
-0.25
 74
     0
 49
0.25
 74
     0
 49
-0.25
 74
     0
  0
LTYPE
  5
2733
330
2694
100
AcDbSymbolTableRecord
100
AcDbLinetypeTableRecord
  2
PHANTOM2
 70
     0
  3
Phantom (.5x) ___ _ _ ___ _ _ ___ _ _ ___ _ _
 72
    65
 73
     6
 40
1.25
 49
0.625
 74
     0
 49
-0.125
 74
     0
 49
0.125
 74
     0
 49
-0.125
 74
     0
 49
0.125
 74
     0
 49
-0.125
 74
     0
  0
LTYPE
  5
276F
330
2694
100
AcDbSymbolTableRecord
100
AcDbLinetypeTableRecord
  2
CENTER2
 70
     0
  3
Center (.5x) ___ _ ___ _ ___ _ ___ _ ___ _ ___
 72
    65
 73
     4
 40
1.125
 49
0.75
 74
     0
 49
-0.125
 74
     0
 49
0.125
 74
     0
 49
-0.125
 74
     0
  0
LTYPE
  5
2770
330
2694
100
AcDbSymbolTableRecord
100
AcDbLinetypeTableRecord
  2
HIDDEN2
 70
     0
  3
Hidden (.5x) _ _ _ _ _ _ _ _ _ _ _ _ _ _ _ _ _
 72
    65
 73
     2
 40
0.1875
 49
0.125
 74
     0
 49
-0.0625
 74
     0
  0
LTYPE
  5
2780
330
2694
100
AcDbSymbolTableRecord
100
AcDbLinetypeTableRecord
  2
ACANSTGB
 70
     0
  3
__ . . __ . .
 72
    65
 73
     6
 40
0.35433070866
 49
0.15748031496
 74
     0
 49
-0.03937007874
 74
     0
 49
0.03937007874
 74
     0
 49
-0.03937007874
 74
     0
 49
0.03937007874
 74
     0
 49
-0.03937007874
 74
     0
  0
LTYPE
  5
2781
330
2694
100
AcDbSymbolTableRecord
100
AcDbLinetypeTableRecord
  2
ACANSTGL
 70
     0
  3
_ _ _ _ _
 72
    65
 73
     2
 40
0.11811023622
 49
0.07874015748
 74
     0
 49
-0.03937007874
 74
     0
  0
ENDTAB
  0
TABLE
  2
LAYER
  5
2691
102
{ACAD_XDICTIONARY
360
27F1
102
}
330
0
100
AcDbSymbolTable
 70
    12
  0
LAYER
  5
26E3
102
{ACAD_XDICTIONARY
360
27B9
102
}
330
2691
100
AcDbSymbolTableRecord
100
AcDbLayerTableRecord
  2
0
 70
     0
 62
     7
  6
CONTINUOUS
370
    -3
390
269E
347
26B0
348
0
  0
LAYER
  5
2702
102
{ACAD_XDICTIONARY
360
27BB
102
}
330
2691
100
AcDbSymbolTableRecord
100
AcDbLayerTableRecord
  2
DIMENSION
 70
     0
 62
     7
  6
CONTINUOUS
370
    -3
390
269E
347
26B0
348
0
  0
LAYER
  5
2708
102
{ACAD_XDICTIONARY
360
27BD
102
}
330
2691
100
AcDbSymbolTableRecord
100
AcDbLayerTableRecord
  2
BORDER
 70
     0
 62
     7
  6
CONTINUOUS
370
    -3
390
269E
347
26B0
348
0
  0
LAYER
  5
2709
102
{ACAD_XDICTIONARY
360
27BF
102
}
330
2691
100
AcDbSymbolTableRecord
100
AcDbLayerTableRecord
  2
NOTES
 70
     0
 62
     7
  6
CONTINUOUS
370
    -3
390
269E
347
26B0
348
0
  0
LAYER
  5
270A
102
{ACAD_XDICTIONARY
360
27C1
102
}
330
2691
100
AcDbSymbolTableRecord
100
AcDbLayerTableRecord
  2
CENTERLINE
 70
     0
 62
     7
  6
CENTER
370
    -3
390
269E
347
26B0
348
0
  0
LAYER
  5
270B
102
{ACAD_XDICTIONARY
360
27C3
102
}
330
2691
100
AcDbSymbolTableRecord
100
AcDbLayerTableRecord
  2
HIDDEN
 70
     0
 62
     7
  6
HIDDEN
370
    -3
390
269E
347
26B0
348
0
  0
LAYER
  5
270C
102
{ACAD_XDICTIONARY
360
2B01
102
}
330
2691
100
AcDbSymbolTableRecord
100
AcDbLayerTableRecord
  2
DEFPOINTS
 70
     0
 62
     7
  6
CONTINUOUS
290
     0
370
    -3
390
269E
347
26B0
348
0
  0
LAYER
  5
270D
102
{ACAD_XDICTIONARY
360
27C5
102
}
330
2691
100
AcDbSymbolTableRecord
100
AcDbLayerTableRecord
  2
CURRENT_SCALE_SETTING
 70
     0
 62
     7
  6
CONTINUOUS
370
    -3
390
269E
347
26B0
348
0
  0
LAYER
  5
2891
102
{ACAD_XDICTIONARY
360
2892
102
}
330
2691
100
AcDbSymbolTableRecord
100
AcDbLayerTableRecord
  2
VIEWPORT
 70
     0
 62
     8
  6
CONTINUOUS
290
     0
370
    -3
390
269E
347
26B0
348
0
  0
LAYER
  5
2958
102
{ACAD_XDICTIONARY
360
29EF
102
}
330
2691
100
AcDbSymbolTableRecord
100
AcDbLayerTableRecord
  2
AM_6
 70
     0
 62
    -2
  6
CONTINUOUS
370
    30
390
269E
347
26B0
348
0
1001
AcAecLayerStandard
1000

1000

  0
LAYER
  5
2BC1
330
2691
100
AcDbSymbolTableRecord
100
AcDbLayerTableRecord
  2
CAPACITOR
 70
     0
 62
    11
  6
CONTINUOUS
370
    -3
390
269E
347
26B0
348
0
  0
LAYER
  5
2E77
330
2691
100
AcDbSymbolTableRecord
100
AcDbLayerTableRecord
  2
AM_VIEWS
 70
     0
 62
    -1
  6
CONTINUOUS
290
     0
370
    15
390
269E
347
26B0
348
0
1001
AcAecLayerStandard
1000

1000

  0
ENDTAB
  0
TABLE
  2
STYLE
  5
2692
330
0
100
AcDbSymbolTable
 70
     5
  0
STYLE
  5
26E4
330
2692
100
AcDbSymbolTableRecord
100
AcDbTextStyleTableRecord
  2
STANDARD
 70
     0
 40
0.0
 41
1.0
 50
0.0
 71
     0
 42
0.2
  3
txt
  4

  0
STYLE
  5
26E8
330
2692
100
AcDbSymbolTableRecord
100
AcDbTextStyleTableRecord
  2
Annotative
 70
     0
 40
0.0
 41
1.0
 50
0.0
 71
     0
 42
0.2
  3
txt
  4

1001
AcadAnnotative
1000
AnnotativeData
1002
{
1070
     1
1070
     1
1002
}
  0
STYLE
  5
2703
330
2692
100
AcDbSymbolTableRecord
100
AcDbTextStyleTableRecord
  2
MASTER
 70
     0
 40
0.0
 41
0.8
 50
0.0
 71
     0
 42
0.333325
  3
romans.shx
  4

  0
STYLE
  5
277E
330
2692
100
AcDbSymbolTableRecord
100
AcDbTextStyleTableRecord
  2
ACANSTS
 70
     0
 40
0.0
 41
1.0
 50
0.0
 71
     0
 42
0.333325
  3
romans.shx
  4

  0
STYLE
  5
277F
330
2692
100
AcDbSymbolTableRecord
100
AcDbTextStyleTableRecord
  2
ACANSGDT
 70
     0
 40
0.0
 41
1.0
 50
0.0
 71
     0
 42
0.333325
  3
amgdt.shx
  4

  0
ENDTAB
  0
TABLE
  2
VIEW
  5
2695
330
0
100
AcDbSymbolTable
 70
     1
  0
VIEW
  5
270E
330
2695
100
AcDbSymbolTableRecord
100
AcDbViewTableRecord
  2
VIEW_LIMITS
 70
     0
 40
29.3326
 10
22.6661
 20
14.6663
 41
45.3322
 11
0.0
 21
0.0
 31
1.0
 12
0.0
 22
0.0
 32
0.0
 42
50.0
 43
0.0
 44
0.0
 50
0.0
 71
     0
281
     0
 72
     0
 73
     0
348
26BE
  0
ENDTAB
  0
TABLE
  2
UCS
  5
2696
330
0
100
AcDbSymbolTable
 70
     0
  0
ENDTAB
  0
TABLE
  2
APPID
  5
2698
330
0
100
AcDbSymbolTable
 70
    23
  0
APPID
  5
26E5
330
2698
100
AcDbSymbolTableRecord
100
AcDbRegAppTableRecord
  2
ACAD
 70
     0
  0
APPID
  5
26EC
330
2698
100
AcDbSymbolTableRecord
100
AcDbRegAppTableRecord
  2
AcadAnnotative
 70
     0
  0
APPID
  5
270F
330
2698
100
AcDbSymbolTableRecord
100
AcDbRegAppTableRecord
  2
MASTER_SIZING
 70
     0
  0
APPID
  5
2710
330
2698
100
AcDbSymbolTableRecord
100
AcDbRegAppTableRecord
  2
PAPERSPACE
 70
     0
  0
APPID
  5
2711
330
2698
100
AcDbSymbolTableRecord
100
AcDbRegAppTableRecord
  2
MASTER-TITLE
 70
     0
  0
APPID
  5
272C
330
2698
100
AcDbSymbolTableRecord
100
AcDbRegAppTableRecord
  2
MCAD_NO_VIS
 70
     0
  0
APPID
  5
272D
330
2698
100
AcDbSymbolTableRecord
100
AcDbRegAppTableRecord
  2
ACAD_TEMP_GRAPHIC
 70
     0
  0
APPID
  5
2738
330
2698
100
AcDbSymbolTableRecord
100
AcDbRegAppTableRecord
  2
ACATTRIBSERVICES
 70
     0
  0
APPID
  5
2750
330
2698
100
AcDbSymbolTableRecord
100
AcDbRegAppTableRecord
  2
DESIGNERASSEMBLIES
 70
     0
  0
APPID
  5
276C
330
2698
100
AcDbSymbolTableRecord
100
AcDbRegAppTableRecord
  2
ACAD_DSTYLE_DIMJAG
 70
     0
  0
APPID
  5
276D
330
2698
100
AcDbSymbolTableRecord
100
AcDbRegAppTableRecord
  2
ACAD_DSTYLE_DIMBREAK
 70
     0
  0
APPID
  5
2797
330
2698
100
AcDbSymbolTableRecord
100
AcDbRegAppTableRecord
  2
ACAD_NAV_VCDISPLAY
 70
     0
  0
APPID
  5
279F
330
2698
100
AcDbSymbolTableRecord
100
AcDbRegAppTableRecord
  2
ACAD_EXEMPT_FROM_CAD_STANDARDS
 70
     0
  0
APPID
  5
27FC
330
2698
100
AcDbSymbolTableRecord
100
AcDbRegAppTableRecord
  2
ACAD_PSEXT
 70
     0
  0
APPID
  5
2893
330
2698
100
AcDbSymbolTableRecord
100
AcDbRegAppTableRecord
  2
AcDbDynamicBlockGUID
 70
     0
  0
APPID
  5
2894
330
2698
100
AcDbSymbolTableRecord
100
AcDbRegAppTableRecord
  2
GENIUS_AMGTXT_16
 70
     0
  0
APPID
  5
2895
330
2698
100
AcDbSymbolTableRecord
100
AcDbRegAppTableRecord
  2
GENIUS_GENSCREG_15
 70
     0
  0
APPID
  5
2896
330
2698
100
AcDbSymbolTableRecord
100
AcDbRegAppTableRecord
  2
GENIUS_GENODEF_13
 70
     0
  0
APPID
  5
2897
330
2698
100
AcDbSymbolTableRecord
100
AcDbRegAppTableRecord
  2
GENIUS_GENOBJ-N-SDF_13
 70
     0
  0
APPID
  5
2898
330
2698
100
AcDbSymbolTableRecord
100
AcDbRegAppTableRecord
  2
GENIUS_GENREC_14
 70
     0
  0
APPID
  5
2899
330
2698
100
AcDbSymbolTableRecord
100
AcDbRegAppTableRecord
  2
GENIUS_GENOBJ-N-REC_13
 70
     0
  0
APPID
  5
2959
330
2698
100
AcDbSymbolTableRecord
100
AcDbRegAppTableRecord
  2
AcAecLayerStandard
 70
     0
  0
APPID
  5
2B25
330
2698
100
AcDbSymbolTableRecord
100
AcDbRegAppTableRecord
  2
ACAD_DSTYLE_DIMTALN
 70
     0
  0
ENDTAB
  0
TABLE
  2
DIMSTYLE
  5
2699
330
0
100
AcDbSymbolTable
 70
     9
100
AcDbDimStyleTable
 71
     1
340
2712
  0
DIMSTYLE
105
26E6
330
2699
100
AcDbSymbolTableRecord
100
AcDbDimStyleTableRecord
  2
STANDARD
 70
     0
279
     2
340
2703
  0
DIMSTYLE
105
26E7
330
2699
100
AcDbSymbolTableRecord
100
AcDbDimStyleTableRecord
  2
Annotative
 70
     0
340
26E4
1001
AcadAnnotative
1000
AnnotativeData
1002
{
1070
     1
1070
     1
1002
}
  0
DIMSTYLE
105
2712
102
{ACAD_REACTORS
330
2C76
330
2C73
330
2C70
330
2C6C
330
2C5E
330
2C58
330
2C51
330
2C4E
330
2C47
102
}
330
2699
100
AcDbSymbolTableRecord
100
AcDbDimStyleTableRecord
  2
ENGLISH
 70
     0
  4
mm
 40
2.666599999999999
140
0.125
279
     2
340
2703
  0
DIMSTYLE
105
276B
102
{ACAD_REACTORS
330
275B
102
}
330
2699
100
AcDbSymbolTableRecord
100
AcDbDimStyleTableRecord
  2
AM_ANSI
 70
     0
  4
mm
 41
0.12
 42
0.05
 43
0.5
 44
0.1
 47
0.1
 48
0.1
 78
     7
 79
     2
 90
     1
140
0.12
141
0.0
146
0.71
147
0.06
176
   256
177
   256
178
     2
274
     4
284
     7
340
26E4
345
26E9
346
26E9
347
26E9
371
    -1
372
    -1
1001
ACAD_DSTYLE_DIMJAG
1070
   388
1040
1.5
1001
ACAD_DSTYLE_DIMBREAK
1070
   391
1040
0.125
  0
DIMSTYLE
105
2771
330
2699
100
AcDbSymbolTableRecord
100
AcDbDimStyleTableRecord
  2
AM_ANSI$3
 70
     0
  4
mm
 41
0.12
 42
0.05
 43
0.5
 44
0.1
 47
0.1
 48
0.1
 78
     7
 79
     2
 90
     1
140
0.12
141
0.0
146
0.71
147
0.06
176
   256
177
   256
178
     2
274
     4
284
     7
288
     1
289
     0
340
26E4
345
26E9
346
26E9
347
26E9
371
    -1
372
    -1
1001
ACAD_DSTYLE_DIMBREAK
1070
   391
1040
0.125
1001
ACAD_DSTYLE_DIMJAG
1070
   388
1040
1.5
  0
DIMSTYLE
105
2772
330
2699
100
AcDbSymbolTableRecord
100
AcDbDimStyleTableRecord
  2
AM_ANSI$4
 70
     0
  4
mm
 41
0.12
 42
0.05
 43
0.5
 44
0.1
 47
0.1
 48
0.1
 78
     7
 79
     2
 90
     1
140
0.12
141
0.0
146
0.71
147
0.06
176
   256
177
   256
178
     2
274
     4
284
     7
288
     1
289
     0
340
26E4
345
26E9
346
26E9
347
26E9
371
    -1
372
    -1
1001
ACAD_DSTYLE_DIMBREAK
1070
   391
1040
0.125
1001
ACAD_DSTYLE_DIMJAG
1070
   388
1040
1.5
  0
DIMSTYLE
105
2773
330
2699
100
AcDbSymbolTableRecord
100
AcDbDimStyleTableRecord
  2
AM_ANSI$7
 70
     0
  4
mm
 41
0.12
 42
0.05
 43
0.5
 44
0.1
 47
0.1
 48
0.1
 78
     7
 79
     2
 90
     1
140
0.12
141
0.0
146
0.71
147
0.06
176
   256
177
   256
178
     2
274
     4
284
     7
340
26E4
345
26E9
346
26E9
347
26E9
371
    -1
372
    -1
1001
ACAD_DSTYLE_DIMBREAK
1070
   391
1040
0.125
1001
ACAD_DSTYLE_DIMJAG
1070
   388
1040
1.5
  0
DIMSTYLE
105
2774
330
2699
100
AcDbSymbolTableRecord
100
AcDbDimStyleTableRecord
  2
AM_ANSI$SF
 70
     0
  4
mm
 41
0.12
 42
0.05
 43
0.5
 44
0.1
 47
0.1
 48
0.1
 75
     1
 76
     1
 78
     7
 79
     2
 90
     1
140
0.12
141
0.0
146
0.71
147
0.06
176
   256
177
   256
178
     2
274
     4
284
     7
340
26E4
345
26E9
346
26E9
347
26E9
371
    -1
372
    -1
1001
ACAD_DSTYLE_DIMBREAK
1070
   391
1040
0.125
1001
ACAD_DSTYLE_DIMJAG
1070
   388
1040
1.5
  0
DIMSTYLE
105
2779
330
2699
100
AcDbSymbolTableRecord
100
AcDbDimStyleTableRecord
  2
AM_ANSI$SH
 70
     0
  4
mm
 41
0.12
 42
0.05
 43
0.5
 44
0.1
 47
0.1
 48
0.1
 75
     1
 76
     1
 78
     7
 79
     2
 90
     1
140
0.12
141
0.0
146
0.71
147
0.06
173
     1
176
   256
177
   256
178
     2
274
     4
284
     7
340
26E4
343
2775
345
26E9
346
26E9
347
26E9
371
    -1
372
    -1
1001
ACAD_DSTYLE_DIMBREAK
1070
   391
1040
0.125
1001
ACAD_DSTYLE_DIMJAG
1070
   388
1040
1.5
  0
ENDTAB
  0
TABLE
  2
BLOCK_RECORD
  5
2690
330
0
100
AcDbSymbolTable
 70
    22
  0
BLOCK_RECORD
  5
26FE
102
{ACAD_XDICTIONARY
360
2E28
102
}
330
2690
100
AcDbSymbolTableRecord
100
AcDbBlockTableRecord
  2
*Model_Space
340
2701
 70
     0
280
     1
281
     0
  0
BLOCK_RECORD
  5
26FA
102
{ACAD_XDICTIONARY
360
28ED
102
}
330
2690
100
AcDbSymbolTableRecord
100
AcDbBlockTableRecord
  2
*Paper_Space
340
26FD
 70
     0
280
     1
281
     0
  0
BLOCK_RECORD
  5
2715
330
2690
100
AcDbSymbolTableRecord
100
AcDbBlockTableRecord
  2
$MODEL_SPACE
340
0
 70
     0
280
     1
281
     0
  0
BLOCK_RECORD
  5
2717
330
2690
100
AcDbSymbolTableRecord
100
AcDbBlockTableRecord
  2
$PAPER_SPACE
340
0
 70
     0
280
     1
281
     0
  0
BLOCK_RECORD
  5
2719
330
2690
100
AcDbSymbolTableRecord
100
AcDbBlockTableRecord
  2
MASTER-BORDER
340
0
 70
     0
280
     1
281
     0
  0
BLOCK_RECORD
  5
271B
330
2690
100
AcDbSymbolTableRecord
100
AcDbBlockTableRecord
  2
*X3
340
0
102
{BLKREFS
331
DD
102
}
 70
     0
280
     1
281
     0
  0
BLOCK_RECORD
  5
271D
330
2690
100
AcDbSymbolTableRecord
100
AcDbBlockTableRecord
  2
*X4
340
0
102
{BLKREFS
331
E5
102
}
 70
     0
280
     1
281
     0
  0
BLOCK_RECORD
  5
271F
330
2690
100
AcDbSymbolTableRecord
100
AcDbBlockTableRecord
  2
*X5
340
0
102
{BLKREFS
331
EC
102
}
 70
     0
280
     1
281
     0
  0
BLOCK_RECORD
  5
2721
330
2690
100
AcDbSymbolTableRecord
100
AcDbBlockTableRecord
  2
TITLEB
340
0
 70
     0
280
     1
281
     0
  0
BLOCK_RECORD
  5
2723
330
2690
100
AcDbSymbolTableRecord
100
AcDbBlockTableRecord
  2
REVISE12
340
0
102
{BLKREFS
331
283F
331
2845
331
284B
331
2851
331
2857
331
285D
102
}
 70
     0
280
     1
281
     0
  0
BLOCK_RECORD
  5
2775
330
2690
100
AcDbSymbolTableRecord
100
AcDbBlockTableRecord
  2
GENAXEH
340
0
 70
     0
280
     1
281
     0
  0
BLOCK_RECORD
  5
2783
330
2690
100
AcDbSymbolTableRecord
100
AcDbBlockTableRecord
  2
_ACMFILLEDHALF
340
0
 70
     0
280
     1
281
     0
  0
BLOCK_RECORD
  5
2814
102
{ACAD_XDICTIONARY
360
2815
102
}
330
2690
100
AcDbSymbolTableRecord
100
AcDbBlockTableRecord
  2
A$C04876F98
340
0
102
{BLKREFS
331
28C5
331
28DB
331
289E
102
}
 70
     1
280
     1
281
     0
1001
AcDbDynamicBlockGUID
1000
{C2958561-DA7A-4046-94BC-F911637FDFEA}
  0
BLOCK_RECORD
  5
289B
330
2690
100
AcDbSymbolTableRecord
100
AcDbBlockTableRecord
  2
A$C0C8B0C29
340
0
 70
     1
280
     1
281
     0
  0
BLOCK_RECORD
  5
28C2
330
2690
100
AcDbSymbolTableRecord
100
AcDbBlockTableRecord
  2
A$C32FB190D
340
0
 70
     1
280
     1
281
     0
  0
BLOCK_RECORD
  5
2C7E
330
2690
100
AcDbSymbolTableRecord
100
AcDbBlockTableRecord
  2
*D14
340
0
 70
     0
280
     1
281
     0
  0
BLOCK_RECORD
  5
2C93
330
2690
100
AcDbSymbolTableRecord
100
AcDbBlockTableRecord
  2
*D15
340
0
 70
     0
280
     1
281
     0
  0
BLOCK_RECORD
  5
2CA0
330
2690
100
AcDbSymbolTableRecord
100
AcDbBlockTableRecord
  2
*D16
340
0
 70
     0
280
     1
281
     0
  0
BLOCK_RECORD
  5
2CAD
330
2690
100
AcDbSymbolTableRecord
100
AcDbBlockTableRecord
  2
*D17
340
0
 70
     0
280
     1
281
     0
  0
BLOCK_RECORD
  5
2CBA
330
2690
100
AcDbSymbolTableRecord
100
AcDbBlockTableRecord
  2
*D18
340
0
 70
     0
280
     1
281
     0
  0
BLOCK_RECORD
  5
2CC6
330
2690
100
AcDbSymbolTableRecord
100
AcDbBlockTableRecord
  2
*D19
340
0
 70
     0
280
     1
281
     0
  0
BLOCK_RECORD
  5
2CD3
330
2690
100
AcDbSymbolTableRecord
100
AcDbBlockTableRecord
  2
*D20
340
0
 70
     0
280
     1
281
     0
  0
BLOCK_RECORD
  5
2CE0
330
2690
100
AcDbSymbolTableRecord
100
AcDbBlockTableRecord
  2
*D21
340
0
 70
     0
280
     1
281
     0
  0
ENDTAB
  0
ENDSEC
  0
SECTION
  2
BLOCKS
  0
BLOCK
  5
26FF
330
26FE
100
AcDbEntity
  8
0
100
AcDbBlockBegin
  2
*Model_Space
 70
     0
 10
0.0
 20
0.0
 30
0.0
  3
*Model_Space
  1

  0
ENDBLK
  5
2700
330
26FE
100
AcDbEntity
  8
0
100
AcDbBlockEnd
  0
BLOCK
  5
26FB
330
26FA
100
AcDbEntity
 67
     1
  8
0
100
AcDbBlockBegin
  2
*Paper_Space
 70
     0
 10
0.0
 20
0.0
 30
0.0
  3
*Paper_Space
  1

  0
ENDBLK
  5
26FC
330
26FA
100
AcDbEntity
 67
     1
  8
0
100
AcDbBlockEnd
  0
BLOCK
  5
2716
330
2715
100
AcDbEntity
  8
0
100
AcDbBlockBegin
  2
$MODEL_SPACE
 70
     0
 10
0.0
 20
0.0
 30
0.0
  3
$MODEL_SPACE
  1

  0
ENDBLK
  5
1B
330
2715
100
AcDbEntity
  8
0
100
AcDbBlockEnd
  0
BLOCK
  5
2718
330
2717
100
AcDbEntity
  8
0
100
AcDbBlockBegin
  2
$PAPER_SPACE
 70
     0
 10
0.0
 20
0.0
 30
0.0
  3
$PAPER_SPACE
  1

  0
ENDBLK
  5
18
330
2717
100
AcDbEntity
  8
0
100
AcDbBlockEnd
  0
BLOCK
  5
271A
330
2719
100
AcDbEntity
  8
0
100
AcDbBlockBegin
  2
MASTER-BORDER
 70
     0
 10
0.0
 20
0.0
 30
0.0
  3
MASTER-BORDER
  1

  0
POLYLINE
  5
54
330
2719
100
AcDbEntity
  8
BORDER
100
AcDb2dPolyline
 66
     1
 10
0.0
 20
0.0
 30
0.0
 70
     1
  0
VERTEX
  5
261D
330
54
100
AcDbEntity
  8
BORDER
100
AcDbVertex
100
AcDb2dVertex
 10
0.5
 20
0.5
 30
0.0
  0
VERTEX
  5
261E
330
54
100
AcDbEntity
  8
BORDER
100
AcDbVertex
100
AcDb2dVertex
 10
16.5
 20
0.5
 30
0.0
  0
VERTEX
  5
261F
330
54
100
AcDbEntity
  8
BORDER
100
AcDbVertex
100
AcDb2dVertex
 10
16.5
 20
10.5
 30
0.0
  0
VERTEX
  5
2620
330
54
100
AcDbEntity
  8
BORDER
100
AcDbVertex
100
AcDb2dVertex
 10
0.5
 20
10.5
 30
0.0
  0
SEQEND
  5
2621
330
54
100
AcDbEntity
  8
BORDER
  0
ENDBLK
  5
55
330
2719
100
AcDbEntity
  8
0
100
AcDbBlockEnd
  0
BLOCK
  5
271C
330
271B
100
AcDbEntity
  8
0
100
AcDbBlockBegin
  2
*X3
 70
     1
 10
0.0
 20
0.0
 30
0.0
  3
*X3
  1

  0
LINE
  5
5A
330
271B
100
AcDbEntity
  8
0
 62
     0
100
AcDbLine
 10
5.453967999999999
 20
1.575
 30
0.0
 11
5.807876999999999
 21
1.575
 31
0.0
  0
LINE
  5
5B
330
271B
100
AcDbEntity
  8
0
 62
     0
100
AcDbLine
 10
5.456967999999999
 20
1.581999999999999
 30
0.0
 11
5.810876999999999
 21
1.581999999999999
 31
0.0
  0
LINE
  5
5C
330
271B
100
AcDbEntity
  8
0
 62
     0
100
AcDbLine
 10
5.459967999999999
 20
1.588999999999999
 30
0.0
 11
5.813876999999999
 21
1.588999999999999
 31
0.0
  0
LINE
  5
5D
330
271B
100
AcDbEntity
  8
0
 62
     0
100
AcDbLine
 10
5.462968
 20
1.595999999999999
 30
0.0
 11
5.816876999999999
 21
1.595999999999999
 31
0.0
  0
LINE
  5
5E
330
271B
100
AcDbEntity
  8
0
 62
     0
100
AcDbLine
 10
5.465968
 20
1.603
 30
0.0
 11
5.819876999999999
 21
1.603
 31
0.0
  0
LINE
  5
5F
330
271B
100
AcDbEntity
  8
0
 62
     0
100
AcDbLine
 10
5.468968
 20
1.61
 30
0.0
 11
5.822877
 21
1.61
 31
0.0
  0
LINE
  5
60
330
271B
100
AcDbEntity
  8
0
 62
     0
100
AcDbLine
 10
5.471968
 20
1.616999999999999
 30
0.0
 11
5.825876999999999
 21
1.616999999999999
 31
0.0
  0
LINE
  5
61
330
271B
100
AcDbEntity
  8
0
 62
     0
100
AcDbLine
 10
5.474967999999999
 20
1.624
 30
0.0
 11
5.828876999999999
 21
1.624
 31
0.0
  0
LINE
  5
62
330
271B
100
AcDbEntity
  8
0
 62
     0
100
AcDbLine
 10
5.477967999999999
 20
1.631
 30
0.0
 11
5.831876999999999
 21
1.631
 31
0.0
  0
LINE
  5
63
330
271B
100
AcDbEntity
  8
0
 62
     0
100
AcDbLine
 10
5.480967999999999
 20
1.638
 30
0.0
 11
5.834876999999999
 21
1.638
 31
0.0
  0
LINE
  5
64
330
271B
100
AcDbEntity
  8
0
 62
     0
100
AcDbLine
 10
5.483967999999999
 20
1.645
 30
0.0
 11
5.837876999999999
 21
1.645
 31
0.0
  0
LINE
  5
65
330
271B
100
AcDbEntity
  8
0
 62
     0
100
AcDbLine
 10
5.486968
 20
1.651999999999999
 30
0.0
 11
5.840876999999999
 21
1.651999999999999
 31
0.0
  0
LINE
  5
66
330
271B
100
AcDbEntity
  8
0
 62
     0
100
AcDbLine
 10
5.489968
 20
1.658999999999999
 30
0.0
 11
5.843876999999999
 21
1.658999999999999
 31
0.0
  0
LINE
  5
67
330
271B
100
AcDbEntity
  8
0
 62
     0
100
AcDbLine
 10
5.492968
 20
1.665999999999999
 30
0.0
 11
5.846877
 21
1.665999999999999
 31
0.0
  0
LINE
  5
68
330
271B
100
AcDbEntity
  8
0
 62
     0
100
AcDbLine
 10
5.495968
 20
1.673
 30
0.0
 11
5.849876999999999
 21
1.673
 31
0.0
  0
LINE
  5
69
330
271B
100
AcDbEntity
  8
0
 62
     0
100
AcDbLine
 10
5.498967999999999
 20
1.679999999999999
 30
0.0
 11
5.852876999999999
 21
1.679999999999999
 31
0.0
  0
LINE
  5
6A
330
271B
100
AcDbEntity
  8
0
 62
     0
100
AcDbLine
 10
5.511084999999999
 20
1.428
 30
0.0
 11
5.62476
 21
1.428
 31
0.0
  0
LINE
  5
6B
330
271B
100
AcDbEntity
  8
0
 62
     0
100
AcDbLine
 10
5.508084999999999
 20
1.421
 30
0.0
 11
5.62176
 21
1.421
 31
0.0
  0
LINE
  5
6C
330
271B
100
AcDbEntity
  8
0
 62
     0
100
AcDbLine
 10
5.505085
 20
1.414
 30
0.0
 11
5.618759999999999
 21
1.414
 31
0.0
  0
LINE
  5
6D
330
271B
100
AcDbEntity
  8
0
 62
     0
100
AcDbLine
 10
5.502085
 20
1.406999999999999
 30
0.0
 11
5.615759999999999
 21
1.406999999999999
 31
0.0
  0
LINE
  5
6E
330
271B
100
AcDbEntity
  8
0
 62
     0
100
AcDbLine
 10
5.499085
 20
1.399999999999999
 30
0.0
 11
5.612759999999999
 21
1.399999999999999
 31
0.0
  0
LINE
  5
6F
330
271B
100
AcDbEntity
  8
0
 62
     0
100
AcDbLine
 10
5.496084999999999
 20
1.393
 30
0.0
 11
5.609759999999999
 21
1.393
 31
0.0
  0
LINE
  5
70
330
271B
100
AcDbEntity
  8
0
 62
     0
100
AcDbLine
 10
5.493084999999999
 20
1.385999999999999
 30
0.0
 11
5.606759999999999
 21
1.385999999999999
 31
0.0
  0
LINE
  5
71
330
271B
100
AcDbEntity
  8
0
 62
     0
100
AcDbLine
 10
5.490084999999999
 20
1.379
 30
0.0
 11
5.60376
 21
1.379
 31
0.0
  0
LINE
  5
72
330
271B
100
AcDbEntity
  8
0
 62
     0
100
AcDbLine
 10
5.487084999999999
 20
1.371999999999999
 30
0.0
 11
5.60076
 21
1.371999999999999
 31
0.0
  0
LINE
  5
73
330
271B
100
AcDbEntity
  8
0
 62
     0
100
AcDbLine
 10
5.484084999999999
 20
1.364999999999999
 30
0.0
 11
5.59776
 21
1.364999999999999
 31
0.0
  0
LINE
  5
74
330
271B
100
AcDbEntity
  8
0
 62
     0
100
AcDbLine
 10
5.481085
 20
1.358
 30
0.0
 11
5.594759999999999
 21
1.358
 31
0.0
  0
LINE
  5
75
330
271B
100
AcDbEntity
  8
0
 62
     0
100
AcDbLine
 10
5.478085
 20
1.350999999999999
 30
0.0
 11
5.591759999999999
 21
1.350999999999999
 31
0.0
  0
LINE
  5
76
330
271B
100
AcDbEntity
  8
0
 62
     0
100
AcDbLine
 10
5.475084999999999
 20
1.344
 30
0.0
 11
5.588759999999999
 21
1.344
 31
0.0
  0
LINE
  5
77
330
271B
100
AcDbEntity
  8
0
 62
     0
100
AcDbLine
 10
5.472084999999999
 20
1.336999999999999
 30
0.0
 11
5.585759999999999
 21
1.336999999999999
 31
0.0
  0
LINE
  5
78
330
271B
100
AcDbEntity
  8
0
 62
     0
100
AcDbLine
 10
5.469084999999999
 20
1.33
 30
0.0
 11
5.582759999999999
 21
1.33
 31
0.0
  0
LINE
  5
79
330
271B
100
AcDbEntity
  8
0
 62
     0
100
AcDbLine
 10
5.466084999999999
 20
1.323
 30
0.0
 11
5.57976
 21
1.323
 31
0.0
  0
ENDBLK
  5
7B
330
271B
100
AcDbEntity
  8
0
100
AcDbBlockEnd
  0
BLOCK
  5
271E
330
271D
100
AcDbEntity
  8
0
100
AcDbBlockBegin
  2
*X4
 70
     1
 10
0.0
 20
0.0
 30
0.0
  3
*X4
  1

  0
LINE
  5
7D
330
271D
100
AcDbEntity
  8
0
 62
     0
100
AcDbLine
 10
5.838430999999999
 20
1.575
 30
0.0
 11
6.177018
 21
1.575
 31
0.0
  0
LINE
  5
7E
330
271D
100
AcDbEntity
  8
0
 62
     0
100
AcDbLine
 10
5.842373
 20
1.581999999999999
 30
0.0
 11
6.180018
 21
1.581999999999999
 31
0.0
  0
LINE
  5
7F
330
271D
100
AcDbEntity
  8
0
 62
     0
100
AcDbLine
 10
5.846611
 20
1.588999999999999
 30
0.0
 11
6.183017999999999
 21
1.588999999999999
 31
0.0
  0
LINE
  5
80
330
271D
100
AcDbEntity
  8
0
 62
     0
100
AcDbLine
 10
5.851163999999999
 20
1.595999999999999
 30
0.0
 11
6.186017999999999
 21
1.595999999999999
 31
0.0
  0
LINE
  5
81
330
271D
100
AcDbEntity
  8
0
 62
     0
100
AcDbLine
 10
5.856050999999999
 20
1.603
 30
0.0
 11
6.189017999999999
 21
1.603
 31
0.0
  0
LINE
  5
82
330
271D
100
AcDbEntity
  8
0
 62
     0
100
AcDbLine
 10
5.861297
 20
1.61
 30
0.0
 11
6.192018
 21
1.61
 31
0.0
  0
LINE
  5
83
330
271D
100
AcDbEntity
  8
0
 62
     0
100
AcDbLine
 10
5.866929999999999
 20
1.616999999999999
 30
0.0
 11
6.195018
 21
1.616999999999999
 31
0.0
  0
LINE
  5
84
330
271D
100
AcDbEntity
  8
0
 62
     0
100
AcDbLine
 10
5.873041999999999
 20
1.624
 30
0.0
 11
6.198018
 21
1.624
 31
0.0
  0
LINE
  5
85
330
271D
100
AcDbEntity
  8
0
 62
     0
100
AcDbLine
 10
5.879780999999999
 20
1.631
 30
0.0
 11
6.201018
 21
1.631
 31
0.0
  0
LINE
  5
86
330
271D
100
AcDbEntity
  8
0
 62
     0
100
AcDbLine
 10
5.887247
 20
1.638
 30
0.0
 11
6.204017999999999
 21
1.638
 31
0.0
  0
LINE
  5
87
330
271D
100
AcDbEntity
  8
0
 62
     0
100
AcDbLine
 10
5.895573999999999
 20
1.645
 30
0.0
 11
6.207017999999999
 21
1.645
 31
0.0
  0
LINE
  5
88
330
271D
100
AcDbEntity
  8
0
 62
     0
100
AcDbLine
 10
5.904954
 20
1.651999999999999
 30
0.0
 11
6.210017999999999
 21
1.651999999999999
 31
0.0
  0
LINE
  5
89
330
271D
100
AcDbEntity
  8
0
 62
     0
100
AcDbLine
 10
5.91568
 20
1.658999999999999
 30
0.0
 11
6.213017999999999
 21
1.658999999999999
 31
0.0
  0
LINE
  5
8A
330
271D
100
AcDbEntity
  8
0
 62
     0
100
AcDbLine
 10
5.928513999999999
 20
1.665999999999999
 30
0.0
 11
6.216018
 21
1.665999999999999
 31
0.0
  0
LINE
  5
8B
330
271D
100
AcDbEntity
  8
0
 62
     0
100
AcDbLine
 10
5.945645999999999
 20
1.673
 30
0.0
 11
6.219018
 21
1.673
 31
0.0
  0
LINE
  5
8C
330
271D
100
AcDbEntity
  8
0
 62
     0
100
AcDbLine
 10
5.977808999999999
 20
1.679999999999999
 30
0.0
 11
6.222018
 21
1.679999999999999
 31
0.0
  0
LINE
  5
8D
330
271D
100
AcDbEntity
  8
0
 62
     0
100
AcDbLine
 10
5.810219
 20
1.428
 30
0.0
 11
6.114017999999999
 21
1.428
 31
0.0
  0
LINE
  5
8E
330
271D
100
AcDbEntity
  8
0
 62
     0
100
AcDbLine
 10
5.811488999999999
 20
1.421
 30
0.0
 11
6.111017999999999
 21
1.421
 31
0.0
  0
LINE
  5
8F
330
271D
100
AcDbEntity
  8
0
 62
     0
100
AcDbLine
 10
5.813026999999999
 20
1.414
 30
0.0
 11
6.108018
 21
1.414
 31
0.0
  0
LINE
  5
90
330
271D
100
AcDbEntity
  8
0
 62
     0
100
AcDbLine
 10
5.814898
 20
1.406999999999999
 30
0.0
 11
6.105018
 21
1.406999999999999
 31
0.0
  0
LINE
  5
91
330
271D
100
AcDbEntity
  8
0
 62
     0
100
AcDbLine
 10
5.817143999999999
 20
1.399999999999999
 30
0.0
 11
6.102018
 21
1.399999999999999
 31
0.0
  0
LINE
  5
92
330
271D
100
AcDbEntity
  8
0
 62
     0
100
AcDbLine
 10
5.819782
 20
1.393
 30
0.0
 11
6.099018
 21
1.393
 31
0.0
  0
LINE
  5
93
330
271D
100
AcDbEntity
  8
0
 62
     0
100
AcDbLine
 10
5.822834999999999
 20
1.385999999999999
 30
0.0
 11
6.096017999999999
 21
1.385999999999999
 31
0.0
  0
LINE
  5
94
330
271D
100
AcDbEntity
  8
0
 62
     0
100
AcDbLine
 10
5.826333999999999
 20
1.379
 30
0.0
 11
6.093017999999999
 21
1.379
 31
0.0
  0
LINE
  5
95
330
271D
100
AcDbEntity
  8
0
 62
     0
100
AcDbLine
 10
5.830313999999999
 20
1.371999999999999
 30
0.0
 11
6.090017999999999
 21
1.371999999999999
 31
0.0
  0
LINE
  5
96
330
271D
100
AcDbEntity
  8
0
 62
     0
100
AcDbLine
 10
5.834821999999999
 20
1.364999999999999
 30
0.0
 11
6.087017999999999
 21
1.364999999999999
 31
0.0
  0
LINE
  5
97
330
271D
100
AcDbEntity
  8
0
 62
     0
100
AcDbLine
 10
5.839922
 20
1.358
 30
0.0
 11
6.084018
 21
1.358
 31
0.0
  0
LINE
  5
98
330
271D
100
AcDbEntity
  8
0
 62
     0
100
AcDbLine
 10
5.845921999999999
 20
1.350999999999999
 30
0.0
 11
6.081018
 21
1.350999999999999
 31
0.0
  0
LINE
  5
99
330
271D
100
AcDbEntity
  8
0
 62
     0
100
AcDbLine
 10
5.853203999999999
 20
1.344
 30
0.0
 11
6.078018
 21
1.344
 31
0.0
  0
LINE
  5
9A
330
271D
100
AcDbEntity
  8
0
 62
     0
100
AcDbLine
 10
5.862264999999999
 20
1.336999999999999
 30
0.0
 11
6.075018
 21
1.336999999999999
 31
0.0
  0
LINE
  5
9B
330
271D
100
AcDbEntity
  8
0
 62
     0
100
AcDbLine
 10
5.874173
 20
1.33
 30
0.0
 11
6.072017999999999
 21
1.33
 31
0.0
  0
LINE
  5
9C
330
271D
100
AcDbEntity
  8
0
 62
     0
100
AcDbLine
 10
5.892559999999999
 20
1.323
 30
0.0
 11
6.069017999999999
 21
1.323
 31
0.0
  0
ENDBLK
  5
9E
330
271D
100
AcDbEntity
  8
0
100
AcDbBlockEnd
  0
BLOCK
  5
2720
330
271F
100
AcDbEntity
  8
0
100
AcDbBlockBegin
  2
*X5
 70
     1
 10
0.0
 20
0.0
 30
0.0
  3
*X5
  1

  0
LINE
  5
A0
330
271F
100
AcDbEntity
  8
0
 62
     0
100
AcDbLine
 10
6.221546
 20
1.575
 30
0.0
 11
6.335220999999999
 21
1.575
 31
0.0
  0
LINE
  5
A1
330
271F
100
AcDbEntity
  8
0
 62
     0
100
AcDbLine
 10
6.224546
 20
1.581999999999999
 30
0.0
 11
6.338220999999999
 21
1.581999999999999
 31
0.0
  0
LINE
  5
A2
330
271F
100
AcDbEntity
  8
0
 62
     0
100
AcDbLine
 10
6.227546
 20
1.588999999999999
 30
0.0
 11
6.341220999999999
 21
1.588999999999999
 31
0.0
  0
LINE
  5
A3
330
271F
100
AcDbEntity
  8
0
 62
     0
100
AcDbLine
 10
6.230545999999999
 20
1.595999999999999
 30
0.0
 11
6.344221
 21
1.595999999999999
 31
0.0
  0
LINE
  5
A4
330
271F
100
AcDbEntity
  8
0
 62
     0
100
AcDbLine
 10
6.233545999999999
 20
1.603
 30
0.0
 11
6.347221
 21
1.603
 31
0.0
  0
LINE
  5
A5
330
271F
100
AcDbEntity
  8
0
 62
     0
100
AcDbLine
 10
6.236545999999999
 20
1.61
 30
0.0
 11
6.350221
 21
1.61
 31
0.0
  0
LINE
  5
A6
330
271F
100
AcDbEntity
  8
0
 62
     0
100
AcDbLine
 10
6.239545999999999
 20
1.616999999999999
 30
0.0
 11
6.353220999999999
 21
1.616999999999999
 31
0.0
  0
LINE
  5
A7
330
271F
100
AcDbEntity
  8
0
 62
     0
100
AcDbLine
 10
6.242545999999999
 20
1.624
 30
0.0
 11
6.356220999999999
 21
1.624
 31
0.0
  0
LINE
  5
A8
330
271F
100
AcDbEntity
  8
0
 62
     0
100
AcDbLine
 10
6.245546
 20
1.631
 30
0.0
 11
6.359220999999999
 21
1.631
 31
0.0
  0
LINE
  5
A9
330
271F
100
AcDbEntity
  8
0
 62
     0
100
AcDbLine
 10
6.248546
 20
1.638
 30
0.0
 11
6.362220999999999
 21
1.638
 31
0.0
  0
LINE
  5
AA
330
271F
100
AcDbEntity
  8
0
 62
     0
100
AcDbLine
 10
6.251546
 20
1.645
 30
0.0
 11
6.365221
 21
1.645
 31
0.0
  0
LINE
  5
AB
330
271F
100
AcDbEntity
  8
0
 62
     0
100
AcDbLine
 10
6.254545999999999
 20
1.651999999999999
 30
0.0
 11
6.368221
 21
1.651999999999999
 31
0.0
  0
LINE
  5
AC
330
271F
100
AcDbEntity
  8
0
 62
     0
100
AcDbLine
 10
6.257545999999999
 20
1.658999999999999
 30
0.0
 11
6.371221
 21
1.658999999999999
 31
0.0
  0
LINE
  5
AD
330
271F
100
AcDbEntity
  8
0
 62
     0
100
AcDbLine
 10
6.260545999999999
 20
1.665999999999999
 30
0.0
 11
6.374220999999999
 21
1.665999999999999
 31
0.0
  0
LINE
  5
AE
330
271F
100
AcDbEntity
  8
0
 62
     0
100
AcDbLine
 10
6.263545999999999
 20
1.673
 30
0.0
 11
6.377220999999999
 21
1.673
 31
0.0
  0
LINE
  5
AF
330
271F
100
AcDbEntity
  8
0
 62
     0
100
AcDbLine
 10
6.266545999999999
 20
1.679999999999999
 30
0.0
 11
6.380220999999999
 21
1.679999999999999
 31
0.0
  0
LINE
  5
B0
330
271F
100
AcDbEntity
  8
0
 62
     0
100
AcDbLine
 10
6.158546
 20
1.428
 30
0.0
 11
6.272221
 21
1.428
 31
0.0
  0
LINE
  5
B1
330
271F
100
AcDbEntity
  8
0
 62
     0
100
AcDbLine
 10
6.155546
 20
1.421
 30
0.0
 11
6.269220999999999
 21
1.421
 31
0.0
  0
LINE
  5
B2
330
271F
100
AcDbEntity
  8
0
 62
     0
100
AcDbLine
 10
6.152546
 20
1.414
 30
0.0
 11
6.266220999999999
 21
1.414
 31
0.0
  0
LINE
  5
B3
330
271F
100
AcDbEntity
  8
0
 62
     0
100
AcDbLine
 10
6.149545999999999
 20
1.406999999999999
 30
0.0
 11
6.263220999999999
 21
1.406999999999999
 31
0.0
  0
LINE
  5
B4
330
271F
100
AcDbEntity
  8
0
 62
     0
100
AcDbLine
 10
6.146545999999999
 20
1.399999999999999
 30
0.0
 11
6.260220999999999
 21
1.399999999999999
 31
0.0
  0
LINE
  5
B5
330
271F
100
AcDbEntity
  8
0
 62
     0
100
AcDbLine
 10
6.143545999999999
 20
1.393
 30
0.0
 11
6.257220999999999
 21
1.393
 31
0.0
  0
LINE
  5
B6
330
271F
100
AcDbEntity
  8
0
 62
     0
100
AcDbLine
 10
6.140545999999999
 20
1.385999999999999
 30
0.0
 11
6.254221
 21
1.385999999999999
 31
0.0
  0
LINE
  5
B7
330
271F
100
AcDbEntity
  8
0
 62
     0
100
AcDbLine
 10
6.137545999999999
 20
1.379
 30
0.0
 11
6.251221
 21
1.379
 31
0.0
  0
LINE
  5
B8
330
271F
100
AcDbEntity
  8
0
 62
     0
100
AcDbLine
 10
6.134546
 20
1.371999999999999
 30
0.0
 11
6.248221
 21
1.371999999999999
 31
0.0
  0
LINE
  5
B9
330
271F
100
AcDbEntity
  8
0
 62
     0
100
AcDbLine
 10
6.131546
 20
1.364999999999999
 30
0.0
 11
6.245220999999999
 21
1.364999999999999
 31
0.0
  0
LINE
  5
BA
330
271F
100
AcDbEntity
  8
0
 62
     0
100
AcDbLine
 10
6.128546
 20
1.358
 30
0.0
 11
6.242220999999999
 21
1.358
 31
0.0
  0
LINE
  5
BB
330
271F
100
AcDbEntity
  8
0
 62
     0
100
AcDbLine
 10
6.125545999999999
 20
1.350999999999999
 30
0.0
 11
6.239220999999999
 21
1.350999999999999
 31
0.0
  0
LINE
  5
BC
330
271F
100
AcDbEntity
  8
0
 62
     0
100
AcDbLine
 10
6.122545999999999
 20
1.344
 30
0.0
 11
6.236220999999999
 21
1.344
 31
0.0
  0
LINE
  5
BD
330
271F
100
AcDbEntity
  8
0
 62
     0
100
AcDbLine
 10
6.119545999999999
 20
1.336999999999999
 30
0.0
 11
6.233221
 21
1.336999999999999
 31
0.0
  0
LINE
  5
BE
330
271F
100
AcDbEntity
  8
0
 62
     0
100
AcDbLine
 10
6.116545999999999
 20
1.33
 30
0.0
 11
6.230221
 21
1.33
 31
0.0
  0
LINE
  5
BF
330
271F
100
AcDbEntity
  8
0
 62
     0
100
AcDbLine
 10
6.113545999999999
 20
1.323
 30
0.0
 11
6.227221
 21
1.323
 31
0.0
  0
ENDBLK
  5
C1
330
271F
100
AcDbEntity
  8
0
100
AcDbBlockEnd
  0
BLOCK
  5
2722
330
2721
100
AcDbEntity
  8
0
100
AcDbBlockBegin
  2
TITLEB
 70
     2
 10
0.0
 20
0.0
 30
0.0
  3
TITLEB
  1

  0
LINE
  5
C3
330
2721
100
AcDbEntity
  8
0
100
AcDbLine
 10
0.0
 20
1.75
 30
0.0
 11
-8.75
 21
1.75
 31
0.0
  0
LINE
  5
C4
330
2721
100
AcDbEntity
  8
0
100
AcDbLine
 10
-8.75
 20
0.0
 30
0.0
 11
-8.75
 21
1.75
 31
0.0
  0
LINE
  5
C5
330
2721
100
AcDbEntity
  8
0
100
AcDbLine
 10
-3.75
 20
0.0
 30
0.0
 11
-3.75
 21
1.75
 31
0.0
  0
LINE
  5
C6
330
2721
100
AcDbEntity
  8
0
100
AcDbLine
 10
-4.75
 20
0.0
 30
0.0
 11
-4.75
 21
1.75
 31
0.0
  0
LINE
  5
C7
330
2721
100
AcDbEntity
  8
0
100
AcDbLine
 10
0.0
 20
1.25
 30
0.0
 11
-3.75
 21
1.25
 31
0.0
  0
LINE
  5
C8
330
2721
100
AcDbEntity
  8
0
100
AcDbLine
 10
0.0
 20
0.5
 30
0.0
 11
-3.75
 21
0.5
 31
0.0
  0
LINE
  5
C9
330
2721
100
AcDbEntity
  8
0
100
AcDbLine
 10
-1.75
 20
0.25
 30
0.0
 11
-3.75
 21
0.25
 31
0.0
  0
LINE
  5
CA
330
2721
100
AcDbEntity
  8
0
100
AcDbLine
 10
-2.75
 20
0.0
 30
0.0
 11
-2.75
 21
0.5
 31
0.0
  0
LINE
  5
CB
330
2721
100
AcDbEntity
  8
0
100
AcDbLine
 10
-1.75
 20
0.0
 30
0.0
 11
-1.75
 21
0.5
 31
0.0
  0
LINE
  5
CC
330
2721
100
AcDbEntity
  8
0
100
AcDbLine
 10
-8.75
 20
0.25
 30
0.0
 11
-4.75
 21
0.25
 31
0.0
  0
LINE
  5
CD
330
2721
100
AcDbEntity
  8
0
100
AcDbLine
 10
-8.75
 20
0.5
 30
0.0
 11
-4.75
 21
0.5
 31
0.0
  0
LINE
  5
CE
330
2721
100
AcDbEntity
  8
0
100
AcDbLine
 10
-8.75
 20
0.75
 30
0.0
 11
-4.75
 21
0.75
 31
0.0
  0
LINE
  5
CF
330
2721
100
AcDbEntity
  8
0
100
AcDbLine
 10
-8.75
 20
1.0
 30
0.0
 11
-4.75
 21
1.0
 31
0.0
  0
LINE
  5
D0
330
2721
100
AcDbEntity
  8
0
100
AcDbLine
 10
-8.75
 20
1.25
 30
0.0
 11
-4.75
 21
1.25
 31
0.0
  0
LINE
  5
D1
330
2721
100
AcDbEntity
  8
0
100
AcDbLine
 10
-8.75
 20
1.5
 30
0.0
 11
-4.75
 21
1.5
 31
0.0
  0
LINE
  5
D2
330
2721
100
AcDbEntity
  8
0
100
AcDbLine
 10
-8.5
 20
0.0
 30
0.0
 11
-8.5
 21
0.25
 31
0.0
  0
LINE
  5
D3
330
2721
100
AcDbEntity
  8
0
100
AcDbLine
 10
-5.25
 20
0.0
 30
0.0
 11
-5.25
 21
0.25
 31
0.0
  0
LINE
  5
D4
330
2721
100
AcDbEntity
  8
0
100
AcDbLine
 10
-6.0
 20
0.0
 30
0.0
 11
-6.0
 21
0.25
 31
0.0
  0
TEXT
  5
D5
330
2721
100
AcDbEntity
  8
0
100
AcDbText
 10
-2.0625
 20
1.5
 30
0.0
 40
0.125
  1
7878 N. 86th STREET
 41
0.8
100
AcDbText
  0
TEXT
  5
D6
330
2721
100
AcDbEntity
  8
0
100
AcDbText
 10
-2.0625
 20
1.3125
 30
0.0
 40
0.125
  1
MILWAUKEE, WI 53224
 41
0.8
100
AcDbText
  0
POLYLINE
  5
D7
330
2721
100
AcDbEntity
  8
0
100
AcDb2dPolyline
 66
     1
 10
0.0
 20
0.0
 30
0.0
 70
     1
  0
VERTEX
  5
2622
330
D7
100
AcDbEntity
  8
0
100
AcDbVertex
100
AcDb2dVertex
 10
-3.285414999999999
 20
1.319499999999999
 30
0.0
  0
VERTEX
  5
2623
330
D7
100
AcDbEntity
  8
0
100
AcDbVertex
100
AcDb2dVertex
 10
-3.238681
 20
1.428547
 30
0.0
  0
VERTEX
  5
2624
330
D7
100
AcDbEntity
  8
0
100
AcDbVertex
100
AcDb2dVertex
 10
-3.125005999999999
 20
1.428547
 30
0.0
  0
VERTEX
  5
2625
330
D7
100
AcDbEntity
  8
0
100
AcDbVertex
100
AcDb2dVertex
 10
-3.17174
 20
1.319499999999999
 30
0.0
  0
SEQEND
  5
2626
330
D7
100
AcDbEntity
  8
0
  0
POLYLINE
  5
D8
330
2721
100
AcDbEntity
  8
0
100
AcDb2dPolyline
 66
     1
 10
0.0
 20
0.0
 30
0.0
 70
     1
  0
VERTEX
  5
2627
330
D8
100
AcDbEntity
  8
0
100
AcDbVertex
100
AcDb2dVertex
 10
-3.250818
 20
1.6805
 30
0.0
  0
VERTEX
  5
2628
330
D8
100
AcDbEntity
  8
0
100
AcDbVertex
100
AcDb2dVertex
 10
-2.896908999999999
 20
1.6805
 30
0.0
  0
VERTEX
  5
2629
330
D8
100
AcDbEntity
  8
0
100
AcDbVertex
100
AcDb2dVertex
 10
-2.943643
 20
1.571452999999999
 30
0.0
  0
VERTEX
  5
262A
330
D8
100
AcDbEntity
  8
0
100
AcDbVertex
100
AcDb2dVertex
 10
-3.297551999999999
 20
1.571452999999999
 30
0.0
  0
SEQEND
  5
262B
330
D8
100
AcDbEntity
  8
0
  0
POLYLINE
  5
D9
330
2721
100
AcDbEntity
  8
0
100
AcDb2dPolyline
 66
     1
 10
0.0
 20
0.0
 30
0.0
 70
     1
  0
VERTEX
  5
262C
330
D9
100
AcDbEntity
  8
0
100
AcDbVertex
100
AcDb2dVertex
 10
-3.189991
 20
1.542155999999999
 30
0.0
  0
VERTEX
  5
262D
330
D9
100
AcDbEntity
  8
0
100
AcDbVertex
100
AcDb2dVertex
 10
-3.188457
 20
1.545733999999999
 30
0.0
  0
VERTEX
  5
262E
330
D9
100
AcDbEntity
  8
0
100
AcDbVertex
100
AcDb2dVertex
 10
-3.074783
 20
1.545733999999999
 30
0.0
  0
VERTEX
  5
262F
330
D9
100
AcDbEntity
  8
0
100
AcDbVertex
100
AcDb2dVertex
 10
-3.076315999999999
 20
1.542155999999999
 30
0.0
  0
SEQEND
  5
2630
330
D9
100
AcDbEntity
  8
0
  0
POLYLINE
  5
DA
330
2721
100
AcDbEntity
  8
0
100
AcDb2dPolyline
 66
     1
 10
0.0
 20
0.0
 30
0.0
 70
     1
  0
VERTEX
  5
2631
330
DA
100
AcDbEntity
  8
0
100
AcDbVertex
100
AcDb2dVertex
 10
-3.202547
 20
1.512858999999999
 30
0.0
  0
VERTEX
  5
2632
330
DA
100
AcDbEntity
  8
0
100
AcDbVertex
100
AcDb2dVertex
 10
-3.201013
 20
1.516437999999999
 30
0.0
  0
VERTEX
  5
2633
330
DA
100
AcDbEntity
  8
0
100
AcDbVertex
100
AcDb2dVertex
 10
-3.087337999999999
 20
1.516437999999999
 30
0.0
  0
VERTEX
  5
2634
330
DA
100
AcDbEntity
  8
0
100
AcDbVertex
100
AcDb2dVertex
 10
-3.088872
 20
1.512858999999999
 30
0.0
  0
SEQEND
  5
2635
330
DA
100
AcDbEntity
  8
0
  0
POLYLINE
  5
DB
330
2721
100
AcDbEntity
  8
0
100
AcDb2dPolyline
 66
     1
 10
0.0
 20
0.0
 30
0.0
 70
     1
  0
VERTEX
  5
2636
330
DB
100
AcDbEntity
  8
0
100
AcDbVertex
100
AcDb2dVertex
 10
-3.215101999999999
 20
1.483563
 30
0.0
  0
VERTEX
  5
2637
330
DB
100
AcDbEntity
  8
0
100
AcDbVertex
100
AcDb2dVertex
 10
-3.213568999999999
 20
1.487141
 30
0.0
  0
VERTEX
  5
2638
330
DB
100
AcDbEntity
  8
0
100
AcDbVertex
100
AcDb2dVertex
 10
-3.099893999999999
 20
1.487141
 30
0.0
  0
VERTEX
  5
2639
330
DB
100
AcDbEntity
  8
0
100
AcDbVertex
100
AcDb2dVertex
 10
-3.101427999999999
 20
1.483563
 30
0.0
  0
SEQEND
  5
263A
330
DB
100
AcDbEntity
  8
0
  0
POLYLINE
  5
DC
330
2721
100
AcDbEntity
  8
0
100
AcDb2dPolyline
 66
     1
 10
0.0
 20
0.0
 30
0.0
 70
     1
  0
VERTEX
  5
263B
330
DC
100
AcDbEntity
  8
0
100
AcDbVertex
100
AcDb2dVertex
 10
-3.227658
 20
1.454266
 30
0.0
  0
VERTEX
  5
263C
330
DC
100
AcDbEntity
  8
0
100
AcDbVertex
100
AcDb2dVertex
 10
-3.226125
 20
1.457844
 30
0.0
  0
VERTEX
  5
263D
330
DC
100
AcDbEntity
  8
0
100
AcDbVertex
100
AcDb2dVertex
 10
-3.112449999999999
 20
1.457844
 30
0.0
  0
VERTEX
  5
263E
330
DC
100
AcDbEntity
  8
0
100
AcDbVertex
100
AcDb2dVertex
 10
-3.113983999999999
 20
1.454266
 30
0.0
  0
SEQEND
  5
263F
330
DC
100
AcDbEntity
  8
0
  0
INSERT
  5
DD
330
2721
100
AcDbEntity
  8
0
100
AcDbBlockReference
  2
*X3
 10
-8.75
 20
0.0
 30
0.0
  0
POLYLINE
  5
DE
330
2721
100
AcDbEntity
  8
0
100
AcDb2dPolyline
 66
     1
 10
0.0
 20
0.0
 30
0.0
 70
     1
  0
VERTEX
  5
2640
330
DE
100
AcDbEntity
  8
0
100
AcDbVertex
100
AcDb2dVertex
 10
-2.762231
 20
1.6805
 30
0.0
  0
VERTEX
  5
2641
330
DE
100
AcDbEntity
  8
0
100
AcDbVertex
100
AcDb2dVertex
 10
-2.527768
 20
1.6805
 30
0.0
  0
VERTEX
  5
2642
330
DE
100
AcDbEntity
  8
0
100
AcDbVertex
100
AcDb2dVertex
 10
-2.574502999999999
 20
1.571452999999999
 30
0.0
  0
VERTEX
  5
2643
330
DE
100
AcDbEntity
  8
0
100
AcDbVertex
100
AcDb2dVertex
 10
-2.913458999999999
 20
1.571452999999999
 30
0.0
 42
-0.054429
  0
VERTEX
  5
2644
330
DE
100
AcDbEntity
  8
0
100
AcDbVertex
100
AcDb2dVertex
 10
-2.882411
 20
1.617787
 30
0.0
 42
-0.084542
  0
VERTEX
  5
2645
330
DE
100
AcDbEntity
  8
0
100
AcDbVertex
100
AcDb2dVertex
 10
-2.832468999999999
 20
1.660109
 30
0.0
 42
-0.106399
  0
VERTEX
  5
2646
330
DE
100
AcDbEntity
  8
0
100
AcDbVertex
100
AcDb2dVertex
 10
-2.773239999999999
 20
1.679889
 30
0.0
 42
-0.027585
  0
SEQEND
  5
2647
330
DE
100
AcDbEntity
  8
0
  0
POLYLINE
  5
DF
330
2721
100
AcDbEntity
  8
0
100
AcDb2dPolyline
 66
     1
 10
0.0
 20
0.0
 30
0.0
 70
     1
  0
VERTEX
  5
2648
330
DF
100
AcDbEntity
  8
0
100
AcDbVertex
100
AcDb2dVertex
 10
-2.926511999999999
 20
1.542155999999999
 30
0.0
 42
-0.003726
  0
VERTEX
  5
2649
330
DF
100
AcDbEntity
  8
0
100
AcDbVertex
100
AcDb2dVertex
 10
-2.925148
 20
1.545733999999999
 30
0.0
  0
VERTEX
  5
264A
330
DF
100
AcDbEntity
  8
0
100
AcDbVertex
100
AcDb2dVertex
 10
-2.798667
 20
1.545733999999999
 30
0.0
 42
0.007822
  0
VERTEX
  5
264B
330
DF
100
AcDbEntity
  8
0
100
AcDbVertex
100
AcDb2dVertex
 10
-2.801529999999999
 20
1.542155999999999
 30
0.0
  0
SEQEND
  5
264C
330
DF
100
AcDbEntity
  8
0
  0
POLYLINE
  5
E0
330
2721
100
AcDbEntity
  8
0
100
AcDb2dPolyline
 66
     1
 10
0.0
 20
0.0
 30
0.0
 70
     1
  0
VERTEX
  5
264D
330
E0
100
AcDbEntity
  8
0
100
AcDbVertex
100
AcDb2dVertex
 10
-2.940789
 20
1.483563
 30
0.0
 42
-0.00463
  0
VERTEX
  5
264E
330
E0
100
AcDbEntity
  8
0
100
AcDbVertex
100
AcDb2dVertex
 10
-2.940305999999999
 20
1.487141
 30
0.0
  0
VERTEX
  5
264F
330
E0
100
AcDbEntity
  8
0
100
AcDbVertex
100
AcDb2dVertex
 10
-2.828052999999999
 20
1.487141
 30
0.0
 42
0.006268
  0
VERTEX
  5
2650
330
E0
100
AcDbEntity
  8
0
100
AcDbVertex
100
AcDb2dVertex
 10
-2.828877999999999
 20
1.483563
 30
0.0
  0
SEQEND
  5
2651
330
E0
100
AcDbEntity
  8
0
  0
POLYLINE
  5
E1
330
2721
100
AcDbEntity
  8
0
100
AcDb2dPolyline
 66
     1
 10
0.0
 20
0.0
 30
0.0
 70
     1
  0
VERTEX
  5
2652
330
E1
100
AcDbEntity
  8
0
100
AcDbVertex
100
AcDb2dVertex
 10
-2.942241999999999
 20
1.454266
 30
0.0
 42
-0.004589
  0
VERTEX
  5
2653
330
E1
100
AcDbEntity
  8
0
100
AcDbVertex
100
AcDb2dVertex
 10
-2.942301
 20
1.457844
 30
0.0
  0
VERTEX
  5
2654
330
E1
100
AcDbEntity
  8
0
100
AcDbVertex
100
AcDb2dVertex
 10
-2.831831999999999
 20
1.457844
 30
0.0
 42
0.010595
  0
VERTEX
  5
2655
330
E1
100
AcDbEntity
  8
0
100
AcDbVertex
100
AcDb2dVertex
 10
-2.831694999999999
 20
1.454266
 30
0.0
  0
SEQEND
  5
2656
330
E1
100
AcDbEntity
  8
0
  0
POLYLINE
  5
E2
330
2721
100
AcDbEntity
  8
0
100
AcDb2dPolyline
 66
     1
 10
0.0
 20
0.0
 30
0.0
 70
     1
  0
VERTEX
  5
2657
330
E2
100
AcDbEntity
  8
0
100
AcDbVertex
100
AcDb2dVertex
 10
-2.831224999999999
 20
1.319503
 30
0.0
 42
-0.10157
  0
VERTEX
  5
2658
330
E2
100
AcDbEntity
  8
0
100
AcDbVertex
100
AcDb2dVertex
 10
-2.870618999999999
 20
1.327588999999999
 30
0.0
 42
-0.129518
  0
VERTEX
  5
2659
330
E2
100
AcDbEntity
  8
0
100
AcDbVertex
100
AcDb2dVertex
 10
-2.910793999999999
 20
1.358929999999999
 30
0.0
 42
-0.106399
  0
VERTEX
  5
265A
330
E2
100
AcDbEntity
  8
0
100
AcDbVertex
100
AcDb2dVertex
 10
-2.937317999999999
 20
1.415461
 30
0.0
 42
-0.017101
  0
VERTEX
  5
265B
330
E2
100
AcDbEntity
  8
0
100
AcDbVertex
100
AcDb2dVertex
 10
-2.939868999999999
 20
1.428547
 30
0.0
  0
VERTEX
  5
265C
330
E2
100
AcDbEntity
  8
0
100
AcDbVertex
100
AcDb2dVertex
 10
-2.635747999999999
 20
1.428547
 30
0.0
  0
VERTEX
  5
265D
330
E2
100
AcDbEntity
  8
0
100
AcDbVertex
100
AcDb2dVertex
 10
-2.682481999999999
 20
1.319499999999999
 30
0.0
  0
SEQEND
  5
265E
330
E2
100
AcDbEntity
  8
0
  0
ARC
  5
E3
330
2721
100
AcDbEntity
  8
0
100
AcDbCircle
 10
-2.685747
 20
1.452436
 30
0.0
 40
0.139477
100
AcDbArc
 50
156.801409
 51
157.478869
  0
POLYLINE
  5
E4
330
2721
100
AcDbEntity
  8
0
100
AcDb2dPolyline
 66
     1
 10
0.0
 20
0.0
 30
0.0
 70
     1
  0
VERTEX
  5
265F
330
E4
100
AcDbEntity
  8
0
100
AcDbVertex
100
AcDb2dVertex
 10
-2.819179999999999
 20
1.512858999999999
 30
0.0
  0
VERTEX
  5
2660
330
E4
100
AcDbEntity
  8
0
100
AcDbVertex
100
AcDb2dVertex
 10
-2.93548
 20
1.512858999999999
 30
0.0
 42
-0.003588
  0
VERTEX
  5
2661
330
E4
100
AcDbEntity
  8
0
100
AcDbVertex
100
AcDb2dVertex
 10
-2.934587
 20
1.516437999999999
 30
0.0
  0
VERTEX
  5
2662
330
E4
100
AcDbEntity
  8
0
100
AcDbVertex
100
AcDb2dVertex
 10
-2.817501
 20
1.516437999999999
 30
0.0
 42
0.006746
  0
SEQEND
  5
2663
330
E4
100
AcDbEntity
  8
0
  0
INSERT
  5
E5
330
2721
100
AcDbEntity
  8
0
100
AcDbBlockReference
  2
*X4
 10
-8.75
 20
0.0
 30
0.0
  0
POLYLINE
  5
E6
330
2721
100
AcDbEntity
  8
0
100
AcDb2dPolyline
 66
     1
 10
0.0
 20
0.0
 30
0.0
 70
     1
  0
VERTEX
  5
2664
330
E6
100
AcDbEntity
  8
0
100
AcDbVertex
100
AcDb2dVertex
 10
-2.416298999999999
 20
1.571452999999999
 30
0.0
  0
VERTEX
  5
2665
330
E6
100
AcDbEntity
  8
0
100
AcDbVertex
100
AcDb2dVertex
 10
-2.529974
 20
1.571452999999999
 30
0.0
  0
VERTEX
  5
2666
330
E6
100
AcDbEntity
  8
0
100
AcDbVertex
100
AcDb2dVertex
 10
-2.48324
 20
1.6805
 30
0.0
  0
VERTEX
  5
2667
330
E6
100
AcDbEntity
  8
0
100
AcDbVertex
100
AcDb2dVertex
 10
-2.369565
 20
1.6805
 30
0.0
  0
SEQEND
  5
2668
330
E6
100
AcDbEntity
  8
0
  0
POLYLINE
  5
E7
330
2721
100
AcDbEntity
  8
0
100
AcDb2dPolyline
 66
     1
 10
0.0
 20
0.0
 30
0.0
 70
     1
  0
VERTEX
  5
2669
330
E7
100
AcDbEntity
  8
0
100
AcDbVertex
100
AcDb2dVertex
 10
-2.542529999999999
 20
1.542155999999999
 30
0.0
  0
VERTEX
  5
266A
330
E7
100
AcDbEntity
  8
0
100
AcDbVertex
100
AcDb2dVertex
 10
-2.540995999999999
 20
1.545733999999999
 30
0.0
  0
VERTEX
  5
266B
330
E7
100
AcDbEntity
  8
0
100
AcDbVertex
100
AcDb2dVertex
 10
-2.427322
 20
1.545733999999999
 30
0.0
  0
VERTEX
  5
266C
330
E7
100
AcDbEntity
  8
0
100
AcDbVertex
100
AcDb2dVertex
 10
-2.428854999999999
 20
1.542155999999999
 30
0.0
  0
SEQEND
  5
266D
330
E7
100
AcDbEntity
  8
0
  0
POLYLINE
  5
E8
330
2721
100
AcDbEntity
  8
0
100
AcDb2dPolyline
 66
     1
 10
0.0
 20
0.0
 30
0.0
 70
     1
  0
VERTEX
  5
266E
330
E8
100
AcDbEntity
  8
0
100
AcDbVertex
100
AcDb2dVertex
 10
-2.555086
 20
1.512858999999999
 30
0.0
  0
VERTEX
  5
266F
330
E8
100
AcDbEntity
  8
0
100
AcDbVertex
100
AcDb2dVertex
 10
-2.553551999999999
 20
1.516437999999999
 30
0.0
  0
VERTEX
  5
2670
330
E8
100
AcDbEntity
  8
0
100
AcDbVertex
100
AcDb2dVertex
 10
-2.439877999999999
 20
1.516437999999999
 30
0.0
  0
VERTEX
  5
2671
330
E8
100
AcDbEntity
  8
0
100
AcDbVertex
100
AcDb2dVertex
 10
-2.441410999999999
 20
1.512858999999999
 30
0.0
  0
SEQEND
  5
2672
330
E8
100
AcDbEntity
  8
0
  0
POLYLINE
  5
E9
330
2721
100
AcDbEntity
  8
0
100
AcDb2dPolyline
 66
     1
 10
0.0
 20
0.0
 30
0.0
 70
     1
  0
VERTEX
  5
2673
330
E9
100
AcDbEntity
  8
0
100
AcDbVertex
100
AcDb2dVertex
 10
-2.567641
 20
1.483563
 30
0.0
  0
VERTEX
  5
2674
330
E9
100
AcDbEntity
  8
0
100
AcDbVertex
100
AcDb2dVertex
 10
-2.566108
 20
1.487141
 30
0.0
  0
VERTEX
  5
2675
330
E9
100
AcDbEntity
  8
0
100
AcDbVertex
100
AcDb2dVertex
 10
-2.452433
 20
1.487141
 30
0.0
  0
VERTEX
  5
2676
330
E9
100
AcDbEntity
  8
0
100
AcDbVertex
100
AcDb2dVertex
 10
-2.453967
 20
1.483563
 30
0.0
  0
SEQEND
  5
2677
330
E9
100
AcDbEntity
  8
0
  0
POLYLINE
  5
EA
330
2721
100
AcDbEntity
  8
0
100
AcDb2dPolyline
 66
     1
 10
0.0
 20
0.0
 30
0.0
 70
     1
  0
VERTEX
  5
2678
330
EA
100
AcDbEntity
  8
0
100
AcDbVertex
100
AcDb2dVertex
 10
-2.580197
 20
1.454266
 30
0.0
  0
VERTEX
  5
2679
330
EA
100
AcDbEntity
  8
0
100
AcDbVertex
100
AcDb2dVertex
 10
-2.578663999999999
 20
1.457844
 30
0.0
  0
VERTEX
  5
267A
330
EA
100
AcDbEntity
  8
0
100
AcDbVertex
100
AcDb2dVertex
 10
-2.464989
 20
1.457844
 30
0.0
  0
VERTEX
  5
267B
330
EA
100
AcDbEntity
  8
0
100
AcDbVertex
100
AcDb2dVertex
 10
-2.466523
 20
1.454266
 30
0.0
  0
SEQEND
  5
267C
330
EA
100
AcDbEntity
  8
0
  0
POLYLINE
  5
EB
330
2721
100
AcDbEntity
  8
0
100
AcDb2dPolyline
 66
     1
 10
0.0
 20
0.0
 30
0.0
 70
     1
  0
VERTEX
  5
267D
330
EB
100
AcDbEntity
  8
0
100
AcDbVertex
100
AcDb2dVertex
 10
-2.637954
 20
1.319499999999999
 30
0.0
  0
VERTEX
  5
267E
330
EB
100
AcDbEntity
  8
0
100
AcDbVertex
100
AcDb2dVertex
 10
-2.591219999999999
 20
1.428547
 30
0.0
  0
VERTEX
  5
267F
330
EB
100
AcDbEntity
  8
0
100
AcDbVertex
100
AcDb2dVertex
 10
-2.477545
 20
1.428547
 30
0.0
  0
VERTEX
  5
2680
330
EB
100
AcDbEntity
  8
0
100
AcDbVertex
100
AcDb2dVertex
 10
-2.524278999999999
 20
1.319499999999999
 30
0.0
  0
SEQEND
  5
2681
330
EB
100
AcDbEntity
  8
0
  0
INSERT
  5
EC
330
2721
100
AcDbEntity
  8
0
100
AcDbBlockReference
  2
*X5
 10
-8.75
 20
0.0
 30
0.0
  0
TEXT
  5
ED
330
2721
100
AcDbEntity
  8
0
100
AcDbText
 10
-3.71875
 20
0.40625
 30
0.0
 40
0.0625
  1
DRN. BY
 41
0.8
100
AcDbText
  0
TEXT
  5
EE
330
2721
100
AcDbEntity
  8
0
100
AcDbText
 10
-2.71875
 20
0.40625
 30
0.0
 40
0.0625
  1
DATE
 41
0.8
100
AcDbText
  0
TEXT
  5
EF
330
2721
100
AcDbEntity
  8
0
100
AcDbText
 10
-1.71875
 20
0.40625
 30
0.0
 40
0.0625
  1
DWG. NO.
 41
0.8
100
AcDbText
  0
TEXT
  5
F0
330
2721
100
AcDbEntity
  8
0
100
AcDbText
 10
-2.71875
 20
0.15625
 30
0.0
 40
0.0625
  1
APRVD.
 41
0.8
100
AcDbText
  0
TEXT
  5
F1
330
2721
100
AcDbEntity
  8
0
100
AcDbText
 10
-3.71875
 20
0.15625
 30
0.0
 40
0.0625
  1
SCALE
 41
0.8
100
AcDbText
  0
TEXT
  5
F2
330
2721
100
AcDbEntity
  8
0
100
AcDbText
 10
-4.59375
 20
1.625
 30
0.0
 40
0.09
  1
TOLERANCES
 41
0.8
100
AcDbText
  0
TEXT
  5
F3
330
2721
100
AcDbEntity
  8
0
100
AcDbText
 10
-4.71875
 20
1.375
 30
0.0
 40
0.0625
  1
DECIMAL
 41
0.8
100
AcDbText
  0
TEXT
  5
F4
330
2721
100
AcDbEntity
  8
0
100
AcDbText
 10
-4.71875
 20
0.65625
 30
0.0
 40
0.0625
  1
FRACTIONAL
 41
0.8
100
AcDbText
  0
TEXT
  5
F5
330
2721
100
AcDbEntity
  8
0
100
AcDbText
 10
-4.71875
 20
0.28125
 30
0.0
 40
0.0625
  1
ANGULAR
 41
0.8
100
AcDbText
  0
LINE
  5
F6
330
2721
100
AcDbEntity
  8
0
100
AcDbLine
 10
-4.75
 20
1.46875
 30
0.0
 11
-3.75
 21
1.46875
 31
0.0
  0
TEXT
  5
F7
330
2721
100
AcDbEntity
  8
0
100
AcDbText
 10
-4.625
 20
1.5
 30
0.0
 40
0.0625
  1
(EXCEPT AS NOTED)
 41
0.8
100
AcDbText
  0
LINE
  5
F8
330
2721
100
AcDbEntity
  8
0
100
AcDbLine
 10
-4.75
 20
0.375
 30
0.0
 11
-3.75
 21
0.375
 31
0.0
  0
LINE
  5
F9
330
2721
100
AcDbEntity
  8
0
100
AcDbLine
 10
-4.75
 20
0.75
 30
0.0
 11
-3.75
 21
0.75
 31
0.0
  0
TEXT
  5
FA
330
2721
100
AcDbEntity
  8
0
100
AcDbText
 10
-4.6875
 20
1.09375
 30
0.0
 40
0.125
  1
.XX %%p
 41
0.8
100
AcDbText
  0
TEXT
  5
FB
330
2721
100
AcDbEntity
  8
0
100
AcDbText
 10
-4.6875
 20
0.84375
 30
0.0
 40
0.125
  1
.XXX%%p
 41
0.8
100
AcDbText
  0
TEXT
  5
FC
330
2721
100
AcDbEntity
  8
0
100
AcDbText
 10
-4.625
 20
0.46875
 30
0.0
 40
0.125
  1
%%p
 41
0.8
100
AcDbText
  0
TEXT
  5
FD
330
2721
100
AcDbEntity
  8
0
100
AcDbText
 10
-4.625
 20
0.09375
 30
0.0
 40
0.125
  1
%%p
 41
0.8
100
AcDbText
  0
TEXT
  5
FE
330
2721
100
AcDbEntity
  8
0
100
AcDbText
 10
-5.09375
 20
0.0625
 30
0.0
 40
0.125
  1
BY
 41
0.8
100
AcDbText
  0
TEXT
  5
FF
330
2721
100
AcDbEntity
  8
0
100
AcDbText
 10
-8.71875
 20
0.0625
 30
0.0
 40
0.125
  1
NO
 41
0.8
100
AcDbText
  0
TEXT
  5
100
330
2721
100
AcDbEntity
  8
0
100
AcDbText
 10
-7.53125
 20
0.0625
 30
0.0
 40
0.125
  1
REVISION
 41
0.8
100
AcDbText
  0
TEXT
  5
101
330
2721
100
AcDbEntity
  8
0
100
AcDbText
 10
-5.8125
 20
0.0625
 30
0.0
 40
0.125
  1
DATE
 41
0.8
100
AcDbText
  0
TEXT
  5
102
330
2721
100
AcDbEntity
  8
0
100
AcDbText
 10
-0.9375
 20
0.03125
 30
0.0
 40
0.09
  1
SHT.    OF
 41
0.8
100
AcDbText
  0
ATTDEF
  5
103
330
2721
100
AcDbEntity
  8
0
100
AcDbText
 10
-1.28125
 20
0.25
 30
0.0
 40
0.1875
  1

 41
0.8
100
AcDbAttributeDefinition
280
     0
  3
DRAWING NUMBER
  2
DWGNO
 70
     0
280
     0
  0
ATTDEF
  5
104
330
2721
100
AcDbEntity
  8
0
100
AcDbText
 10
-3.34375
 20
0.28125
 30
0.0
 40
0.125
  1

 41
0.8
100
AcDbAttributeDefinition
280
     0
  3
DRAWN BY
  2
DRNBY
 70
     0
280
     0
  0
ATTDEF
  5
105
330
2721
100
AcDbEntity
  8
0
100
AcDbText
 10
-2.5
 20
0.28125
 30
0.0
 40
0.125
  1

 41
1.568181818181818
 72
     5
 11
-1.78125
 21
0.28125
 31
0.0
100
AcDbAttributeDefinition
280
     0
  3
DRAWING DATE
  2
DATE
 70
     0
280
     0
  0
ATTDEF
  5
106
330
2721
100
AcDbEntity
  8
0
100
AcDbText
 10
-3.40625
 20
0.03125
 30
0.0
 40
0.125
  1

 41
0.8
100
AcDbAttributeDefinition
280
     0
  3
SCALE
  2
SCALE
 70
     0
280
     0
  0
ATTDEF
  5
107
330
2721
100
AcDbEntity
  8
0
100
AcDbText
 10
-2.40625
 20
0.03125
 30
0.0
 40
0.125
  1

 41
0.8
100
AcDbAttributeDefinition
280
     0
  3
APPROVED BY
  2
APRVD
 70
     0
280
     0
  0
ATTDEF
  5
108
330
2721
100
AcDbEntity
  8
0
100
AcDbText
 10
-0.65625
 20
0.03125
 30
0.0
 40
0.125
  1

 41
0.8
100
AcDbAttributeDefinition
280
     0
  3
SHEET
  2
SHT
 70
     0
280
     0
  0
ATTDEF
  5
109
330
2721
100
AcDbEntity
  8
0
100
AcDbText
 10
-0.28125
 20
0.03125
 30
0.0
 40
0.125
  1

 41
0.8
100
AcDbAttributeDefinition
280
     0
  3
OF SHEET
  2
OFSHT
 70
     0
280
     0
  0
ATTDEF
  5
10A
330
2721
100
AcDbEntity
  8
0
100
AcDbText
 10
-3.59375
 20
0.875
 30
0.0
 40
0.1875
  1

 41
0.8
100
AcDbAttributeDefinition
280
     0
  3
DESCRIPTION (LINE 1 OF 2)
  2
DESC1
 70
     0
280
     0
  0
ATTDEF
  5
10B
330
2721
100
AcDbEntity
  8
0
100
AcDbText
 10
-3.59375
 20
0.59375
 30
0.0
 40
0.1875
  1

 41
0.8
100
AcDbAttributeDefinition
280
     0
  3
DESCRIPTION (LINE 2 OF 2)
  2
DESC2
 70
     0
280
     0
  0
ATTDEF
  5
10C
330
2721
100
AcDbEntity
  8
0
100
AcDbText
 10
-4.21875
 20
1.09375
 30
0.0
 40
0.125
  1
.01
 41
0.8
100
AcDbAttributeDefinition
280
     0
  3
TOLERANCE .XX
  2
TOLXX
 70
     0
280
     0
  0
ATTDEF
  5
10D
330
2721
100
AcDbEntity
  8
0
100
AcDbText
 10
-4.21875
 20
0.84375
 30
0.0
 40
0.125
  1
.005
 41
0.8
100
AcDbAttributeDefinition
280
     0
  3
TOLERANCE .XXX
  2
TOLXXX
 70
     0
280
     0
  0
ATTDEF
  5
10E
330
2721
100
AcDbEntity
  8
0
100
AcDbText
 10
-4.46875
 20
0.46875
 30
0.0
 40
0.125
  1
1/32
 41
0.8
100
AcDbAttributeDefinition
280
     0
  3
TOLERANCE - FRACTIONAL
  2
TOLFRAC
 70
     0
280
     0
  0
ATTDEF
  5
10F
330
2721
100
AcDbEntity
  8
0
100
AcDbText
 10
-4.46875
 20
0.09375
 30
0.0
 40
0.125
  1
1/2%%d
 41
0.8
100
AcDbAttributeDefinition
280
     0
  3
TOLERANCE - ANGULAR
  2
TOLANG
 70
     0
280
     0
  0
ATTDEF
  5
110
330
2721
100
AcDbEntity
  8
0
100
AcDbText
 10
-1.59375
 20
0.09375
 30
0.0
 40
0.25
  1

 41
0.8
100
AcDbAttributeDefinition
280
     0
  3

  2
DWG.SIZE
 70
     0
280
     0
  0
ENDBLK
  5
112
330
2721
100
AcDbEntity
  8
0
100
AcDbBlockEnd
  0
BLOCK
  5
2724
330
2723
100
AcDbEntity
  8
0
100
AcDbBlockBegin
  2
REVISE12
 70
     2
 10
0.0
 20
0.0
 30
0.0
  3
REVISE12
  1

  0
ATTDEF
  5
18D8
330
2723
100
AcDbEntity
  8
0
100
AcDbText
 10
0.03125
 20
0.0625
 30
0.0
 40
0.125
  1

 41
0.9
 72
     5
 11
0.21875
 21
0.0625
 31
0.0
100
AcDbAttributeDefinition
280
     0
  3
REVISION NO.
  2
NO
 70
     8
280
     0
  0
ATTDEF
  5
18D9
330
2723
100
AcDbEntity
  8
0
100
AcDbText
 10
0.3125
 20
0.0625
 30
0.0
 40
0.125
  1

100
AcDbAttributeDefinition
280
     0
  3
REVISION
  2
REV
 70
     8
280
     0
  0
ATTDEF
  5
18DA
330
2723
100
AcDbEntity
  8
0
100
AcDbText
 10
2.8125
 20
0.0625
 30
0.0
 40
0.125
  1

 41
1.125
 72
     5
 11
3.46875
 21
0.0625
 31
0.0
100
AcDbAttributeDefinition
280
     0
  3
REVISION DATE
  2
RDATE
 70
     8
280
     0
  0
ATTDEF
  5
18DB
330
2723
100
AcDbEntity
  8
0
100
AcDbText
 10
3.53125
 20
0.0625
 30
0.0
 40
0.125
  1

100
AcDbAttributeDefinition
280
     0
  3
REVISION BY
  2
BY
 70
     8
280
     0
  0
LINE
  5
18DC
330
2723
100
AcDbEntity
  8
0
100
AcDbLine
 10
0.0
 20
0.0
 30
0.0
 11
0.0
 21
0.25
 31
0.0
  0
LINE
  5
18DD
330
2723
100
AcDbEntity
  8
0
100
AcDbLine
 10
0.25
 20
0.25
 30
0.0
 11
0.25
 21
0.0
 31
0.0
  0
LINE
  5
18DE
330
2723
100
AcDbEntity
  8
0
100
AcDbLine
 10
2.75
 20
0.25
 30
0.0
 11
2.75
 21
0.0
 31
0.0
  0
LINE
  5
18DF
330
2723
100
AcDbEntity
  8
0
100
AcDbLine
 10
3.5
 20
0.25
 30
0.0
 11
3.5
 21
0.0
 31
0.0
  0
ENDBLK
  5
18E1
330
2723
100
AcDbEntity
  8
0
100
AcDbBlockEnd
  0
BLOCK
  5
2777
330
2775
100
AcDbEntity
  8
0
100
AcDbBlockBegin
  2
GENAXEH
 70
     0
 10
0.0
 20
0.0
 30
0.0
  3
GENAXEH
  1

  0
LINE
  5
2776
330
2775
100
AcDbEntity
  8
0
100
AcDbLine
 10
-1.0
 20
0.0
 30
0.0
 11
1.0
 21
0.0
 31
0.0
  0
ENDBLK
  5
2778
330
2775
100
AcDbEntity
  8
0
100
AcDbBlockEnd
  0
BLOCK
  5
2786
330
2783
100
AcDbEntity
  8
0
100
AcDbBlockBegin
  2
_ACMFILLEDHALF
 70
     0
 10
0.0
 20
0.0
 30
0.0
  3
_ACMFILLEDHALF
  1

  0
TRACE
  5
2784
330
2783
100
AcDbEntity
  8
DIMENSION
 62
     0
100
AcDbTrace
 10
-0.8
 20
0.0
 30
0.0
 11
-1.0
 21
0.166666666
 31
0.0
 12
0.0
 22
0.0
 32
0.0
 13
0.0
 23
0.0
 33
0.0
  0
LINE
  5
2785
330
2783
100
AcDbEntity
  8
DIMENSION
 62
     0
100
AcDbLine
 10
-1.0
 20
0.0
 30
0.0
 11
-0.8
 21
0.0
 31
0.0
  0
ENDBLK
  5
2787
330
2783
100
AcDbEntity
  8
0
100
AcDbBlockEnd
  0
BLOCK
  5
2816
330
2814
100
AcDbEntity
  8
0
 62
     7
100
AcDbBlockBegin
  2
A$C04876F98
 70
     2
 10
0.0
 20
0.0
 30
0.0
  3
A$C04876F98
  1

  0
LINE
  5
2817
330
2814
100
AcDbEntity
  8
0
100
AcDbLine
 10
8.7499999810043
 20
1.749999994680436
 30
0.0
 11
-1.397475132733923
 21
1.749999994680436
 31
0.0
  0
LINE
  5
2818
330
2814
100
AcDbEntity
  8
0
100
AcDbLine
 10
-0.0000000189956992
 20
-0.0000000053195635
 30
0.0
 11
-0.0000000189956992
 21
1.749999994680436
 31
0.0
  0
LINE
  5
2819
330
2814
100
AcDbEntity
  8
0
100
AcDbLine
 10
4.9999999810043
 20
-0.0000000053195635
 30
0.0
 11
4.9999999810043
 21
1.749999994680436
 31
0.0
  0
LINE
  5
281A
330
2814
100
AcDbEntity
  8
0
100
AcDbLine
 10
3.9999999810043
 20
-0.0000000053195635
 30
0.0
 11
3.9999999810043
 21
1.749999994680436
 31
0.0
  0
LINE
  5
281B
330
2814
100
AcDbEntity
  8
0
100
AcDbLine
 10
8.7499999810043
 20
1.249999994680436
 30
0.0
 11
4.9999999810043
 21
1.249999994680436
 31
0.0
  0
LINE
  5
281C
330
2814
100
AcDbEntity
  8
0
100
AcDbLine
 10
8.7499999810043
 20
0.4999999946804366
 30
0.0
 11
4.9999999810043
 21
0.4999999946804366
 31
0.0
  0
LINE
  5
281D
330
2814
100
AcDbEntity
  8
0
100
AcDbLine
 10
6.9999999810043
 20
0.2499999946804365
 30
0.0
 11
4.9999999810043
 21
0.2499999946804365
 31
0.0
  0
LINE
  5
281E
330
2814
100
AcDbEntity
  8
0
100
AcDbLine
 10
5.9999999810043
 20
-0.0000000053195635
 30
0.0
 11
5.9999999810043
 21
0.4999999946804366
 31
0.0
  0
LINE
  5
281F
330
2814
100
AcDbEntity
  8
0
100
AcDbLine
 10
6.9999999810043
 20
-0.0000000053195635
 30
0.0
 11
6.9999999810043
 21
0.4999999946804366
 31
0.0
  0
LINE
  5
2820
330
2814
100
AcDbEntity
  8
0
100
AcDbLine
 10
-0.0000000189956992
 20
0.2499999946804365
 30
0.0
 11
3.9999999810043
 21
0.2499999946804365
 31
0.0
  0
LINE
  5
2821
330
2814
100
AcDbEntity
  8
0
100
AcDbLine
 10
-0.0000000189956992
 20
0.4999999946804366
 30
0.0
 11
3.9999999810043
 21
0.4999999946804366
 31
0.0
  0
LINE
  5
2822
330
2814
100
AcDbEntity
  8
0
100
AcDbLine
 10
-0.0000000189956992
 20
0.7499999946804366
 30
0.0
 11
3.9999999810043
 21
0.7499999946804366
 31
0.0
  0
LINE
  5
2823
330
2814
100
AcDbEntity
  8
0
100
AcDbLine
 10
-0.0000000189956992
 20
0.9999999946804365
 30
0.0
 11
3.9999999810043
 21
0.9999999946804365
 31
0.0
  0
LINE
  5
2824
330
2814
100
AcDbEntity
  8
0
100
AcDbLine
 10
-0.0000000189956992
 20
1.249999994680436
 30
0.0
 11
3.9999999810043
 21
1.249999994680436
 31
0.0
  0
LINE
  5
2825
330
2814
100
AcDbEntity
  8
0
100
AcDbLine
 10
-0.0000000189956992
 20
1.499999994680436
 30
0.0
 11
3.9999999810043
 21
1.499999994680436
 31
0.0
  0
LINE
  5
2826
330
2814
100
AcDbEntity
  8
0
100
AcDbLine
 10
0.2499999810043008
 20
-0.0000000053195635
 30
0.0
 11
0.2499999810043008
 21
0.2499999946804365
 31
0.0
  0
LINE
  5
2827
330
2814
100
AcDbEntity
  8
0
100
AcDbLine
 10
3.4999999810043
 20
-0.0000000053195635
 30
0.0
 11
3.4999999810043
 21
0.2499999946804365
 31
0.0
  0
LINE
  5
2828
330
2814
100
AcDbEntity
  8
0
100
AcDbLine
 10
2.7499999810043
 20
-0.0000000053195635
 30
0.0
 11
2.7499999810043
 21
0.2499999946804365
 31
0.0
  0
TEXT
  5
2829
330
2814
100
AcDbEntity
  8
0
100
AcDbText
 10
5.0312499810043
 20
0.4062499946804366
 30
0.0
 40
0.0625
  1
DRN. BY
 41
0.8
100
AcDbText
  0
TEXT
  5
282A
330
2814
100
AcDbEntity
  8
0
100
AcDbText
 10
6.0312499810043
 20
0.4062499946804366
 30
0.0
 40
0.0625
  1
DATE
 41
0.8
100
AcDbText
  0
TEXT
  5
282B
330
2814
100
AcDbEntity
  8
0
100
AcDbText
 10
7.0312499810043
 20
0.4062499946804366
 30
0.0
 40
0.0625
  1
DWG. NO.
 41
0.8
100
AcDbText
  0
TEXT
  5
282C
330
2814
100
AcDbEntity
  8
0
100
AcDbText
 10
6.0312499810043
 20
0.1562499946804365
 30
0.0
 40
0.0625
  1
SIZE
 41
0.8
100
AcDbText
  0
TEXT
  5
282D
330
2814
100
AcDbEntity
  8
0
100
AcDbText
 10
5.0312499810043
 20
0.1562499946804365
 30
0.0
 40
0.0625
  1
SCALE
 41
0.8
100
AcDbText
  0
TEXT
  5
282E
330
2814
100
AcDbEntity
  8
0
100
AcDbText
 10
4.1562499810043
 20
1.624999994680436
 30
0.0
 40
0.09
  1
TOLERANCES
 41
0.8
100
AcDbText
  0
TEXT
  5
282F
330
2814
100
AcDbEntity
  8
0
100
AcDbText
 10
4.0312499810043
 20
1.374999994680436
 30
0.0
 40
0.0625
  1
DECIMAL
 41
0.8
100
AcDbText
  0
TEXT
  5
2830
330
2814
100
AcDbEntity
  8
0
100
AcDbText
 10
4.0312499810043
 20
0.6562499946804366
 30
0.0
 40
0.0625
  1
FRACTIONAL
 41
0.8
100
AcDbText
  0
TEXT
  5
2831
330
2814
100
AcDbEntity
  8
0
100
AcDbText
 10
4.0312499810043
 20
0.2812499946804365
 30
0.0
 40
0.0625
  1
ANGULAR
 41
0.8
100
AcDbText
  0
LINE
  5
2832
330
2814
100
AcDbEntity
  8
0
100
AcDbLine
 10
3.9999999810043
 20
1.468749994680436
 30
0.0
 11
4.9999999810043
 21
1.468749994680436
 31
0.0
  0
TEXT
  5
2833
330
2814
100
AcDbEntity
  8
0
100
AcDbText
 10
4.1249999810043
 20
1.499999994680436
 30
0.0
 40
0.0625
  1
(EXCEPT AS NOTED)
 41
0.8
100
AcDbText
  0
LINE
  5
2834
330
2814
100
AcDbEntity
  8
0
100
AcDbLine
 10
3.9999999810043
 20
0.3749999946804365
 30
0.0
 11
4.9999999810043
 21
0.3749999946804365
 31
0.0
  0
LINE
  5
2835
330
2814
100
AcDbEntity
  8
0
100
AcDbLine
 10
3.9999999810043
 20
0.7499999946804366
 30
0.0
 11
4.9999999810043
 21
0.7499999946804366
 31
0.0
  0
TEXT
  5
2836
330
2814
100
AcDbEntity
  8
0
100
AcDbText
 10
4.0624999810043
 20
1.093749994680436
 30
0.0
 40
0.125
  1
.XX %%p
 41
0.8
100
AcDbText
  0
TEXT
  5
2837
330
2814
100
AcDbEntity
  8
0
100
AcDbText
 10
4.0624999810043
 20
0.8437499946804365
 30
0.0
 40
0.125
  1
.XXX%%p
 41
0.8
100
AcDbText
  0
TEXT
  5
2838
330
2814
100
AcDbEntity
  8
0
100
AcDbText
 10
4.1249999810043
 20
0.4687499946804366
 30
0.0
 40
0.125
  1
%%p
 41
0.8
100
AcDbText
  0
TEXT
  5
2839
330
2814
100
AcDbEntity
  8
0
100
AcDbText
 10
4.1249999810043
 20
0.0937499946804366
 30
0.0
 40
0.125
  1
%%p
 41
0.8
100
AcDbText
  0
TEXT
  5
283A
330
2814
100
AcDbEntity
  8
0
100
AcDbText
 10
3.6562499810043
 20
0.0624999946804366
 30
0.0
 40
0.125
  1
BY
 41
0.8
100
AcDbText
  0
TEXT
  5
283B
330
2814
100
AcDbEntity
  8
0
100
AcDbText
 10
0.0312499810043008
 20
0.0624999946804366
 30
0.0
 40
0.125
  1
NO
 41
0.8
100
AcDbText
  0
TEXT
  5
283C
330
2814
100
AcDbEntity
  8
0
100
AcDbText
 10
1.2187499810043
 20
0.0624999946804366
 30
0.0
 40
0.125
  1
REVISION
 41
0.8
100
AcDbText
  0
TEXT
  5
283D
330
2814
100
AcDbEntity
  8
0
100
AcDbText
 10
2.9374999810043
 20
0.0624999946804366
 30
0.0
 40
0.125
  1
DATE
 41
0.8
100
AcDbText
  0
TEXT
  5
283E
330
2814
100
AcDbEntity
  8
0
100
AcDbText
 10
7.8124999810043
 20
0.0312499946804366
 30
0.0
 40
0.09
  1
SHT.    OF
 41
0.8
100
AcDbText
  0
INSERT
  5
283F
330
2814
100
AcDbEntity
  8
BORDER
100
AcDbBlockReference
 66
     1
  2
REVISE12
 10
-0.0000000189956992
 20
0.2499999946804365
 30
0.0
  0
ATTRIB
  5
2840
330
283F
100
AcDbEntity
  8
0
100
AcDbText
 10
0.0312499810043008
 20
0.3124999946804365
 30
0.0
 40
0.125
  1

 41
0.9
 72
     5
 11
0.2187499810043008
 21
0.3124999946804365
 31
0.0
100
AcDbAttribute
280
     0
  2
NO
 70
     8
280
     0
  0
ATTRIB
  5
2841
330
283F
100
AcDbEntity
  8
0
100
AcDbText
 10
0.3124999810043008
 20
0.3124999946804365
 30
0.0
 40
0.125
  1

100
AcDbAttribute
280
     0
  2
REV
 70
     8
280
     0
  0
ATTRIB
  5
2842
330
283F
100
AcDbEntity
  8
0
100
AcDbText
 10
2.8124999810043
 20
0.3124999946804365
 30
0.0
 40
0.125
  1

 41
1.125
 72
     5
 11
3.4687499810043
 21
0.3124999946804365
 31
0.0
100
AcDbAttribute
280
     0
  2
RDATE
 70
     8
280
     0
  0
ATTRIB
  5
2843
330
283F
100
AcDbEntity
  8
0
100
AcDbText
 10
3.5312499810043
 20
0.3124999946804365
 30
0.0
 40
0.125
  1

100
AcDbAttribute
280
     0
  2
BY
 70
     8
280
     0
  0
SEQEND
  5
2844
330
283F
100
AcDbEntity
  8
BORDER
  0
INSERT
  5
2845
330
2814
100
AcDbEntity
  8
BORDER
100
AcDbBlockReference
 66
     1
  2
REVISE12
 10
-0.0000000189956992
 20
0.4999999946804366
 30
0.0
  0
ATTRIB
  5
2846
330
2845
100
AcDbEntity
  8
0
100
AcDbText
 10
0.0312499810043008
 20
0.5624999946804366
 30
0.0
 40
0.125
  1

 41
0.9
 72
     5
 11
0.2187499810043008
 21
0.5624999946804366
 31
0.0
100
AcDbAttribute
280
     0
  2
NO
 70
     8
280
     0
  0
ATTRIB
  5
2847
330
2845
100
AcDbEntity
  8
0
100
AcDbText
 10
0.3124999810043008
 20
0.5624999946804366
 30
0.0
 40
0.125
  1

100
AcDbAttribute
280
     0
  2
REV
 70
     8
280
     0
  0
ATTRIB
  5
2848
330
2845
100
AcDbEntity
  8
0
100
AcDbText
 10
2.8124999810043
 20
0.5624999946804366
 30
0.0
 40
0.125
  1

 41
1.125
 72
     5
 11
3.4687499810043
 21
0.5624999946804366
 31
0.0
100
AcDbAttribute
280
     0
  2
RDATE
 70
     8
280
     0
  0
ATTRIB
  5
2849
330
2845
100
AcDbEntity
  8
0
100
AcDbText
 10
3.5312499810043
 20
0.5624999946804366
 30
0.0
 40
0.125
  1

100
AcDbAttribute
280
     0
  2
BY
 70
     8
280
     0
  0
SEQEND
  5
284A
330
2845
100
AcDbEntity
  8
BORDER
  0
INSERT
  5
284B
330
2814
100
AcDbEntity
  8
BORDER
100
AcDbBlockReference
 66
     1
  2
REVISE12
 10
-0.0000000189956992
 20
0.7499999946804366
 30
0.0
  0
ATTRIB
  5
284C
330
284B
100
AcDbEntity
  8
0
100
AcDbText
 10
0.0312499810043008
 20
0.8124999946804365
 30
0.0
 40
0.125
  1

 41
0.9
 72
     5
 11
0.2187499810043008
 21
0.8124999946804365
 31
0.0
100
AcDbAttribute
280
     0
  2
NO
 70
     8
280
     0
  0
ATTRIB
  5
284D
330
284B
100
AcDbEntity
  8
0
100
AcDbText
 10
0.3124999810043008
 20
0.8124999946804365
 30
0.0
 40
0.125
  1

100
AcDbAttribute
280
     0
  2
REV
 70
     8
280
     0
  0
ATTRIB
  5
284E
330
284B
100
AcDbEntity
  8
0
100
AcDbText
 10
2.8124999810043
 20
0.8124999946804365
 30
0.0
 40
0.125
  1

 41
1.125
 72
     5
 11
3.4687499810043
 21
0.8124999946804365
 31
0.0
100
AcDbAttribute
280
     0
  2
RDATE
 70
     8
280
     0
  0
ATTRIB
  5
284F
330
284B
100
AcDbEntity
  8
0
100
AcDbText
 10
3.5312499810043
 20
0.8124999946804365
 30
0.0
 40
0.125
  1

100
AcDbAttribute
280
     0
  2
BY
 70
     8
280
     0
  0
SEQEND
  5
2850
330
284B
100
AcDbEntity
  8
BORDER
  0
INSERT
  5
2851
330
2814
100
AcDbEntity
  8
BORDER
100
AcDbBlockReference
 66
     1
  2
REVISE12
 10
-0.0000000189956992
 20
0.9999999946804365
 30
0.0
  0
ATTRIB
  5
2852
330
2851
100
AcDbEntity
  8
0
100
AcDbText
 10
0.0312499810043008
 20
1.062499994680436
 30
0.0
 40
0.125
  1

 41
0.9
 72
     5
 11
0.2187499810043008
 21
1.062499994680436
 31
0.0
100
AcDbAttribute
280
     0
  2
NO
 70
     8
280
     0
  0
ATTRIB
  5
2853
330
2851
100
AcDbEntity
  8
0
100
AcDbText
 10
0.3124999810043008
 20
1.062499994680436
 30
0.0
 40
0.125
  1

100
AcDbAttribute
280
     0
  2
REV
 70
     8
280
     0
  0
ATTRIB
  5
2854
330
2851
100
AcDbEntity
  8
0
100
AcDbText
 10
2.8124999810043
 20
1.062499994680436
 30
0.0
 40
0.125
  1

 41
1.125
 72
     5
 11
3.4687499810043
 21
1.062499994680436
 31
0.0
100
AcDbAttribute
280
     0
  2
RDATE
 70
     8
280
     0
  0
ATTRIB
  5
2855
330
2851
100
AcDbEntity
  8
0
100
AcDbText
 10
3.5312499810043
 20
1.062499994680436
 30
0.0
 40
0.125
  1

100
AcDbAttribute
280
     0
  2
BY
 70
     8
280
     0
  0
SEQEND
  5
2856
330
2851
100
AcDbEntity
  8
BORDER
  0
INSERT
  5
2857
330
2814
100
AcDbEntity
  8
BORDER
100
AcDbBlockReference
 66
     1
  2
REVISE12
 10
-0.0000000189956992
 20
1.249999994680436
 30
0.0
  0
ATTRIB
  5
2858
330
2857
100
AcDbEntity
  8
0
100
AcDbText
 10
0.0312499810043008
 20
1.312499994680436
 30
0.0
 40
0.125
  1

 41
0.9
 72
     5
 11
0.2187499810043008
 21
1.312499994680436
 31
0.0
100
AcDbAttribute
280
     0
  2
NO
 70
     8
280
     0
  0
ATTRIB
  5
2859
330
2857
100
AcDbEntity
  8
0
100
AcDbText
 10
0.3124999810043008
 20
1.312499994680436
 30
0.0
 40
0.125
  1

100
AcDbAttribute
280
     0
  2
REV
 70
     8
280
     0
  0
ATTRIB
  5
285A
330
2857
100
AcDbEntity
  8
0
100
AcDbText
 10
2.8124999810043
 20
1.312499994680436
 30
0.0
 40
0.125
  1

 41
1.125
 72
     5
 11
3.4687499810043
 21
1.312499994680436
 31
0.0
100
AcDbAttribute
280
     0
  2
RDATE
 70
     8
280
     0
  0
ATTRIB
  5
285B
330
2857
100
AcDbEntity
  8
0
100
AcDbText
 10
3.5312499810043
 20
1.312499994680436
 30
0.0
 40
0.125
  1

100
AcDbAttribute
280
     0
  2
BY
 70
     8
280
     0
  0
SEQEND
  5
285C
330
2857
100
AcDbEntity
  8
BORDER
  0
INSERT
  5
285D
330
2814
100
AcDbEntity
  8
BORDER
100
AcDbBlockReference
 66
     1
  2
REVISE12
 10
-0.0000000189956992
 20
1.499999994680436
 30
0.0
  0
ATTRIB
  5
285E
330
285D
100
AcDbEntity
  8
0
100
AcDbText
 10
0.0312499810043008
 20
1.562499994680436
 30
0.0
 40
0.125
  1

 41
0.9
 72
     5
 11
0.2187499810043008
 21
1.562499994680436
 31
0.0
100
AcDbAttribute
280
     0
  2
NO
 70
     8
280
     0
  0
ATTRIB
  5
285F
330
285D
100
AcDbEntity
  8
0
100
AcDbText
 10
0.3124999810043008
 20
1.562499994680436
 30
0.0
 40
0.125
  1

100
AcDbAttribute
280
     0
  2
REV
 70
     8
280
     0
  0
ATTRIB
  5
2860
330
285D
100
AcDbEntity
  8
0
100
AcDbText
 10
2.8124999810043
 20
1.562499994680436
 30
0.0
 40
0.125
  1

 41
1.125
 72
     5
 11
3.4687499810043
 21
1.562499994680436
 31
0.0
100
AcDbAttribute
280
     0
  2
RDATE
 70
     8
280
     0
  0
ATTRIB
  5
2861
330
285D
100
AcDbEntity
  8
0
100
AcDbText
 10
3.5312499810043
 20
1.562499994680436
 30
0.0
 40
0.125
  1

100
AcDbAttribute
280
     0
  2
BY
 70
     8
280
     0
  0
SEQEND
  5
2862
330
285D
100
AcDbEntity
  8
BORDER
  0
LINE
  5
2863
330
2814
100
AcDbEntity
  8
BORDER
100
AcDbLine
 10
-0.0000000189956992
 20
0.4999999946804366
 30
0.0
 11
-0.0000000189956992
 21
1.749999994680436
 31
0.0
  0
LINE
  5
2864
330
2814
100
AcDbEntity
  8
BORDER
100
AcDbLine
 10
-0.0000000189956992
 20
0.4999999946804366
 30
0.0
 11
3.9999999810043
 21
0.4999999946804366
 31
0.0
  0
LINE
  5
2865
330
2814
100
AcDbEntity
  8
BORDER
100
AcDbLine
 10
-0.0000000189956992
 20
0.7499999946804366
 30
0.0
 11
3.9999999810043
 21
0.7499999946804366
 31
0.0
  0
LINE
  5
2866
330
2814
100
AcDbEntity
  8
BORDER
100
AcDbLine
 10
-0.0000000189956992
 20
0.9999999946804365
 30
0.0
 11
3.9999999810043
 21
0.9999999946804365
 31
0.0
  0
LINE
  5
2867
330
2814
100
AcDbEntity
  8
BORDER
100
AcDbLine
 10
-0.0000000189956992
 20
1.249999994680436
 30
0.0
 11
3.9999999810043
 21
1.249999994680436
 31
0.0
  0
LINE
  5
2868
330
2814
100
AcDbEntity
  8
BORDER
100
AcDbLine
 10
-0.0000000189956992
 20
1.499999994680436
 30
0.0
 11
3.9999999810043
 21
1.499999994680436
 31
0.0
  0
ATTDEF
  5
2869
330
2814
100
AcDbEntity
  8
0
100
AcDbText
 10
7.4687499810043
 20
0.2499999946804365
 30
0.0
 40
0.1875
  1

 41
0.8
100
AcDbAttributeDefinition
280
     0
  3
DRAWING NUMBER
  2
DWGNO
 70
     0
280
     0
  0
ATTDEF
  5
286A
330
2814
100
AcDbEntity
  8
0
100
AcDbText
 10
5.4062499810043
 20
0.2812499946804365
 30
0.0
 40
0.125
  1

 41
0.8
100
AcDbAttributeDefinition
280
     0
  3
DRAWN BY
  2
DRNBY
 70
     0
280
     0
  0
ATTDEF
  5
286B
330
2814
100
AcDbEntity
  8
0
100
AcDbText
 10
6.2499999810043
 20
0.2812499946804365
 30
0.0
 40
0.125
  1

 41
1.568181818181818
 72
     5
 11
6.9687499810043
 21
0.2812499946804365
 31
0.0
100
AcDbAttributeDefinition
280
     0
  3
DRAWING DATE
  2
DATE
 70
     0
280
     0
  0
ATTDEF
  5
286C
330
2814
100
AcDbEntity
  8
0
100
AcDbText
 10
5.3437499810043
 20
0.0312499946804366
 30
0.0
 40
0.125
  1

 41
0.8
100
AcDbAttributeDefinition
280
     0
  3
SCALE
  2
SCALE
 70
     0
280
     0
  0
ATTDEF
  5
286D
330
2814
100
AcDbEntity
  8
0
100
AcDbText
 10
8.0937499810043
 20
0.0312499946804366
 30
0.0
 40
0.125
  1

 41
0.8
100
AcDbAttributeDefinition
280
     0
  3
SHEET
  2
SHT
 70
     0
280
     0
  0
ATTDEF
  5
286E
330
2814
100
AcDbEntity
  8
0
100
AcDbText
 10
8.4687499810043
 20
0.0312499946804366
 30
0.0
 40
0.125
  1

 41
0.8
100
AcDbAttributeDefinition
280
     0
  3
OF SHEET
  2
OFSHT
 70
     0
280
     0
  0
ATTDEF
  5
286F
330
2814
100
AcDbEntity
  8
0
100
AcDbText
 10
5.1562499810043
 20
0.8749999946804365
 30
0.0
 40
0.1875
  1

 41
0.8
100
AcDbAttributeDefinition
280
     0
  3
DESCRIPTION (LINE 1 OF 2)
  2
DESC1
 70
     0
280
     0
  0
ATTDEF
  5
2870
330
2814
100
AcDbEntity
  8
0
100
AcDbText
 10
5.1562499810043
 20
0.5937499946804366
 30
0.0
 40
0.1875
  1

 41
0.8
100
AcDbAttributeDefinition
280
     0
  3
DESCRIPTION (LINE 2 OF 2)
  2
DESC2
 70
     0
280
     0
  0
ATTDEF
  5
2871
330
2814
100
AcDbEntity
  8
0
100
AcDbText
 10
4.5312499810043
 20
1.093749994680436
 30
0.0
 40
0.125
  1
.01
 41
0.8
100
AcDbAttributeDefinition
280
     0
  3
TOLERANCE .XX
  2
TOLXX
 70
     0
280
     0
  0
ATTDEF
  5
2872
330
2814
100
AcDbEntity
  8
0
100
AcDbText
 10
4.5312499810043
 20
0.8437499946804365
 30
0.0
 40
0.125
  1
.005
 41
0.8
100
AcDbAttributeDefinition
280
     0
  3
TOLERANCE .XXX
  2
TOLXXX
 70
     0
280
     0
  0
ATTDEF
  5
2873
330
2814
100
AcDbEntity
  8
0
100
AcDbText
 10
4.2812499810043
 20
0.4687499946804366
 30
0.0
 40
0.125
  1
1/32
 41
0.8
100
AcDbAttributeDefinition
280
     0
  3
TOLERANCE - FRACTIONAL
  2
TOLFRAC
 70
     0
280
     0
  0
ATTDEF
  5
2874
330
2814
100
AcDbEntity
  8
0
100
AcDbText
 10
4.2812499810043
 20
0.0937499946804366
 30
0.0
 40
0.125
  1
1/2%%d
 41
0.8
100
AcDbAttributeDefinition
280
     0
  3
TOLERANCE - ANGULAR
  2
TOLANG
 70
     0
280
     0
  0
ATTDEF
  5
2875
330
2814
100
AcDbEntity
  8
0
100
AcDbText
 10
6.292243078173896
 20
-0.0289961904291971
 30
0.0
 40
0.25
  1

 41
0.8
100
AcDbAttributeDefinition
280
     0
  3

  2
DWG.SIZE
 70
     0
280
     0
  0
POINT
  5
2876
330
2814
100
AcDbEntity
  8
0
 62
     7
100
AcDbPoint
 10
8.7499999810043
 20
-0.0000000053195635
 30
0.0
  0
MTEXT
  5
2877
330
2814
100
AcDbEntity
  8
BORDER
100
AcDbMText
 10
6.670784314441806
 20
1.615437761957373
 30
0.0
 40
0.0951216930872209
 41
0.0
 46
0.271776265963488
 71
     1
 72
     5
  1
W132 N10611 Grant Drive\PGermantown, WI 53022
 73
     1
 44
1.0
1001
GENIUS_AMGTXT_16
1040
3.5
1040
0.12
  0
SPLINE
  5
2878
330
2814
100
AcDbEntity
  8
BORDER
 62
     4
100
AcDbSpline
210
0.0
220
0.0
230
1.0
 70
    24
 71
     3
 72
     8
 73
     4
 74
     0
 42
0.000000001
 43
0.0000000001
 40
2.0
 40
2.0
 40
2.0
 40
2.0
 40
3.0
 40
3.0
 40
3.0
 40
3.0
 10
5.861084449983253
 20
1.420019117079718
 30
0.0
 10
5.861084449983253
 20
1.420019117079718
 30
0.0
 10
5.861078254223607
 20
1.420019117079718
 30
0.0
 10
5.861078254223607
 20
1.420019117079718
 30
0.0
  0
SPLINE
  5
2879
330
2814
100
AcDbEntity
  8
BORDER
 62
     4
100
AcDbSpline
210
0.0
220
0.0
230
1.0
 70
     8
 71
     3
 72
     8
 73
     4
 74
     0
 42
0.000000001
 43
0.0000000001
 40
3.0
 40
3.0
 40
3.0
 40
3.0
 40
4.0
 40
4.0
 40
4.0
 40
4.0
 10
5.861078254223607
 20
1.420019117079718
 30
0.0
 10
5.860055953882089
 20
1.421592840029695
 30
0.0
 10
5.859151372973838
 20
1.423265695133997
 30
0.0
 10
5.858314945421683
 20
1.424988116315466
 30
0.0
  0
SPLINE
  5
287A
330
2814
100
AcDbEntity
  8
BORDER
 62
     4
100
AcDbSpline
210
0.0
220
0.0
230
1.0
 70
     8
 71
     3
 72
     8
 73
     4
 74
     0
 42
0.000000001
 43
0.0000000001
 40
4.0
 40
4.0
 40
4.0
 40
4.0
 40
5.0
 40
5.0
 40
5.0
 40
5.0
 10
5.858314945421683
 20
1.424988116315466
 30
0.0
 10
5.8580857023148
 20
1.425458994048531
 30
0.0
 10
5.857899829525433
 20
1.425967046339468
 30
0.0
 10
5.857682977937835
 20
1.426450315591822
 30
0.0
  0
SPLINE
  5
287B
330
2814
100
AcDbEntity
  8
BORDER
 62
     4
100
AcDbSpline
210
0.0
220
0.0
230
1.0
 70
     8
 71
     3
 72
     8
 73
     4
 74
     0
 42
0.000000001
 43
0.0000000001
 40
5.0
 40
5.0
 40
5.0
 40
5.0
 40
6.0
 40
6.0
 40
6.0
 40
6.0
 10
5.857682977937835
 20
1.426450315591822
 30
0.0
 10
5.85711916381009
 20
1.427739033598101
 30
0.0
 10
5.85657393696128
 20
1.42904014312367
 30
0.0
 10
5.856103059228215
 20
1.430390818726404
 30
0.0
  0
SPLINE
  5
287C
330
2814
100
AcDbEntity
  8
BORDER
 62
     4
100
AcDbSpline
210
0.0
220
0.0
230
1.0
 70
     8
 71
     3
 72
     8
 73
     4
 74
     0
 42
0.000000001
 43
0.0000000001
 40
6.0
 40
6.0
 40
6.0
 40
6.0
 40
7.0
 40
7.0
 40
7.0
 40
7.0
 10
5.856103059228215
 20
1.430390818726404
 30
0.0
 10
5.855892403400265
 20
1.430973220133088
 30
0.0
 10
5.855718922130191
 20
1.431580404578354
 30
0.0
 10
5.855533049340821
 20
1.432187589023619
 30
0.0
  0
SPLINE
  5
287D
330
2814
100
AcDbEntity
  8
BORDER
 62
     4
100
AcDbSpline
210
0.0
220
0.0
230
1.0
 70
     8
 71
     3
 72
     8
 73
     4
 74
     0
 42
0.000000001
 43
0.0000000001
 40
7.0
 40
7.0
 40
7.0
 40
7.0
 40
8.0
 40
8.0
 40
8.0
 40
8.0
 10
5.855533049340821
 20
1.432187589023619
 30
0.0
 10
5.855111737684922
 20
1.433513481587771
 30
0.0
 10
5.854721404827253
 20
1.43487035295015
 30
0.0
 10
5.854393029566037
 20
1.43625820311076
 30
0.0
  0
SPLINE
  5
287E
330
2814
100
AcDbEntity
  8
BORDER
 62
     4
100
AcDbSpline
210
0.0
220
0.0
230
1.0
 70
     8
 71
     3
 72
     8
 73
     4
 74
     0
 42
0.000000001
 43
0.0000000001
 40
8.0
 40
8.0
 40
8.0
 40
8.0
 40
9.0
 40
9.0
 40
9.0
 40
9.0
 10
5.854393029566037
 20
1.43625820311076
 30
0.0
 10
5.854244331334546
 20
1.436852996036733
 30
0.0
 10
5.854114220381988
 20
1.43744778896271
 30
0.0
 10
5.853984109429426
 20
1.438042581888685
 30
0.0
  0
SPLINE
  5
287F
330
2814
100
AcDbEntity
  8
BORDER
 62
     4
100
AcDbSpline
210
0.0
220
0.0
230
1.0
 70
     8
 71
     3
 72
     8
 73
     4
 74
     0
 42
0.000000001
 43
0.0000000001
 40
9.0
 40
9.0
 40
9.0
 40
9.0
 40
10.0
 40
10.0
 40
10.0
 40
10.0
 10
5.853984109429426
 20
1.438042581888685
 30
0.0
 10
5.85366192992786
 20
1.439541955722914
 30
0.0
 10
5.853376924984162
 20
1.441066112595724
 30
0.0
 10
5.853153877636924
 20
1.442615052507116
 30
0.0
  0
SPLINE
  5
2880
330
2814
100
AcDbEntity
  8
BORDER
 62
     4
100
AcDbSpline
210
0.0
220
0.0
230
1.0
 70
     8
 71
     3
 72
     8
 73
     4
 74
     0
 42
0.000000001
 43
0.0000000001
 40
10.0
 40
10.0
 40
10.0
 40
10.0
 40
11.0
 40
11.0
 40
11.0
 40
11.0
 10
5.853153877636924
 20
1.442615052507116
 30
0.0
 10
5.853079528521178
 20
1.443110713278761
 30
0.0
 10
5.852992787886138
 20
1.443606374050408
 30
0.0
 10
5.852930830289683
 20
1.444102034822051
 30
0.0
  0
SPLINE
  5
2881
330
2814
100
AcDbEntity
  8
BORDER
 62
     4
100
AcDbSpline
210
0.0
220
0.0
230
1.0
 70
     8
 71
     3
 72
     8
 73
     4
 74
     0
 42
0.000000001
 43
0.0000000001
 40
11.0
 40
11.0
 40
11.0
 40
11.0
 40
12.0
 40
12.0
 40
12.0
 40
12.0
 10
5.852930830289683
 20
1.444102034822051
 30
0.0
 10
5.852682999903859
 20
1.445948371196433
 30
0.0
 10
5.852497127114493
 20
1.447819490609395
 30
0.0
 10
5.852367016161935
 20
1.449715393060941
 30
0.0
  0
SPLINE
  5
2882
330
2814
100
AcDbEntity
  8
BORDER
 62
     4
100
AcDbSpline
210
0.0
220
0.0
230
1.0
 70
     8
 71
     3
 72
     8
 73
     4
 74
     0
 42
0.000000001
 43
0.0000000001
 40
12.0
 40
12.0
 40
12.0
 40
12.0
 40
13.0
 40
13.0
 40
13.0
 40
13.0
 10
5.852367016161935
 20
1.449715393060941
 30
0.0
 10
5.852354624642644
 20
1.449938440408181
 30
0.0
 10
5.852336037363706
 20
1.45014909623613
 30
0.0
 10
5.852317450084769
 20
1.450372143583372
 30
0.0
  0
SPLINE
  5
2883
330
2814
100
AcDbEntity
  8
BORDER
 62
     4
100
AcDbSpline
210
0.0
220
0.0
230
1.0
 70
     8
 71
     3
 72
     8
 73
     4
 74
     0
 42
0.000000001
 43
0.0000000001
 40
13.0
 40
13.0
 40
13.0
 40
13.0
 40
14.0
 40
14.0
 40
14.0
 40
14.0
 10
5.852317450084769
 20
1.450372143583372
 30
0.0
 10
5.851902334188516
 20
1.457137913116335
 30
0.0
 10
5.85215636033399
 20
1.464225862150867
 30
0.0
 10
5.852937026049329
 20
1.471338594223983
 30
0.0
  0
SPLINE
  5
2884
330
2814
100
AcDbEntity
  8
BORDER
 62
     4
100
AcDbSpline
210
0.0
220
0.0
230
1.0
 70
     8
 71
     3
 72
     8
 73
     4
 74
     0
 42
0.000000001
 43
0.0000000001
 40
14.0
 40
14.0
 40
14.0
 40
14.0
 40
15.0
 40
15.0
 40
15.0
 40
15.0
 10
5.852937026049329
 20
1.471338594223983
 30
0.0
 10
5.856710243673483
 20
1.467026345510666
 30
0.0
 10
5.859386811840367
 20
1.463965640245754
 30
0.0
 10
5.859386811840367
 20
1.463965640245754
 30
0.0
  0
SPLINE
  5
2885
330
2814
100
AcDbEntity
  8
BORDER
 62
     4
100
AcDbSpline
210
0.0
220
0.0
230
1.0
 70
     8
 71
     3
 72
     8
 73
     4
 74
     0
 42
0.000000001
 43
0.0000000001
 40
15.0
 40
15.0
 40
15.0
 40
15.0
 40
16.0
 40
16.0
 40
16.0
 40
16.0
 10
5.859386811840367
 20
1.463965640245754
 30
0.0
 10
5.878860084406398
 20
1.441648514002408
 30
0.0
 10
5.898060743548019
 20
1.419647371500985
 30
0.0
 10
5.917267598449289
 20
1.399164190112728
 30
0.0
  0
SPLINE
  5
2886
330
2814
100
AcDbEntity
  8
BORDER
 62
     4
100
AcDbSpline
210
0.0
220
0.0
230
1.0
 70
     8
 71
     3
 72
     8
 73
     4
 74
     0
 42
0.000000001
 43
0.0000000001
 40
16.0
 40
16.0
 40
16.0
 40
16.0
 40
17.0
 40
17.0
 40
17.0
 40
17.0
 10
5.917267598449289
 20
1.399164190112728
 30
0.0
 10
5.915557568787112
 20
1.399127015554853
 30
0.0
 10
5.913946671279266
 20
1.399027883400524
 30
0.0
 10
5.912199467059211
 20
1.399027883400524
 30
0.0
  0
HATCH
  5
2887
330
2814
100
AcDbEntity
  8
BORDER
100
AcDbHatch
 10
0.0
 20
0.0
 30
0.0
210
0.0
220
0.0
230
1.0
  2
SOLID
 70
     1
 71
     0
 91
        1
 92
        1
 93
        1
 72
     4
 94
        3
 73
     0
 74
     0
 95
       26
 96
       22
 40
0.0
 40
0.0
 40
0.0
 40
0.0
 40
1.0
 40
1.0
 40
1.0
 40
2.0
 40
2.0
 40
2.0
 40
3.0
 40
3.0
 40
3.0
 40
4.0
 40
4.0
 40
4.0
 40
5.0
 40
5.0
 40
5.0
 40
6.0
 40
6.0
 40
6.0
 40
7.0
 40
7.0
 40
7.0
 40
7.0
 10
5.337276342267757
 20
1.511449942169406
 10
5.393676342321389
 20
1.569120072950379
 10
5.52684800014329
 20
1.694342571147013
 10
5.620063204010901
 20
1.694342571147013
 10
5.660837498238405
 20
1.694342571147013
 10
5.699300774118108
 20
1.673698300007972
 10
5.737144474033255
 20
1.642112317334852
 10
5.737144474033255
 20
1.642112317334852
 10
5.765558227767841
 20
1.724478746063068
 10
5.765558227767841
 20
1.724478746063068
 10
5.765558227767841
 20
1.724478746063068
 10
5.229042617019278
 20
1.724478746063068
 10
5.229042617019278
 20
1.724478746063068
 10
5.229042617019278
 20
1.724478746063068
 10
5.193788744635981
 20
1.622236320391861
 10
5.193788744635981
 20
1.622236320391861
 10
5.193788744635981
 20
1.622236320391861
 10
5.335522942288062
 20
1.622236320391861
 10
5.375497983521282
 20
1.622236320391861
 10
5.370058106552474
 20
1.606449524814946
 10
5.354735992948975
 20
1.562044515435141
 10
5.337276342267757
 20
1.511449942169406
 97
        0
 97
        0
 75
     2
 76
     1
 98
        1
 10
4.866287085530751
 20
0.2545409659110311
450
        0
451
        0
460
0.0
461
0.0
452
        0
462
0.0
453
        0
470

  0
HATCH
  5
2888
330
2814
100
AcDbEntity
  8
BORDER
100
AcDbHatch
 10
0.0
 20
0.0
 30
0.0
210
0.0
220
0.0
230
1.0
  2
SOLID
 70
     1
 71
     0
 91
        1
 92
        1
 93
        1
 72
     4
 94
        3
 73
     0
 74
     0
 95
       38
 96
       34
 40
0.0
 40
0.0
 40
0.0
 40
0.0
 40
1.0
 40
1.0
 40
1.0
 40
2.0
 40
2.0
 40
2.0
 40
3.0
 40
3.0
 40
3.0
 40
4.0
 40
4.0
 40
4.0
 40
5.0
 40
5.0
 40
5.0
 40
6.0
 40
6.0
 40
6.0
 40
7.0
 40
7.0
 40
7.0
 40
8.0
 40
8.0
 40
8.0
 40
9.0
 40
9.0
 40
9.0
 40
10.0
 40
10.0
 40
10.0
 40
11.0
 40
11.0
 40
11.0
 40
11.0
 10
5.85132612854148
 20
1.523135144860953
 10
5.85132612854148
 20
1.523135144860953
 10
5.862026205449383
 20
1.510892323801305
 10
5.862026205449383
 20
1.510892323801305
 10
5.867478473937482
 20
1.526369331395943
 10
5.909008650841745
 20
1.634218919546393
 10
6.007056547232903
 20
1.634218919546393
 10
6.059237234967903
 20
1.634218919546393
 10
6.074999247506235
 20
1.619708450456467
 10
6.079367258056362
 20
1.613463124733732
 10
6.080953372525628
 20
1.611195476703452
 10
6.085786065049171
 20
1.604281008938993
 10
6.080401949917171
 20
1.589590862819347
 10
6.080401949917171
 20
1.589590862819347
 10
6.07061264967717
 20
1.562862355708356
 10
6.07061264967717
 20
1.562862355708356
 10
6.07061264967717
 20
1.562862355708356
 10
6.253598215049458
 20
1.562862355708356
 10
6.253598215049458
 20
1.562862355708356
 10
6.253598215049458
 20
1.562862355708356
 10
6.257675024896244
 20
1.577360433278988
 10
6.257675024896244
 20
1.577360433278988
 10
6.26763780640632
 20
1.612682459018389
 10
6.263164467942218
 20
1.643177987993891
 10
6.24437892469685
 20
1.667985809614755
 10
6.21207423390484
 20
1.710662202053448
 10
6.138989053125691
 20
1.732297794735781
 10
6.027174178802071
 20
1.732297794735781
 10
5.911189558236988
 20
1.732297794735781
 10
5.814684405997572
 20
1.695482590921798
 10
5.750824711330673
 20
1.630204067296064
 10
5.784263226137821
 20
1.599956368706387
 10
5.817379561443396
 20
1.562032123915848
 10
5.85132612854148
 20
1.523135144860953
 97
        0
 97
        0
 75
     2
 76
     1
 98
        1
 10
4.866287085530751
 20
0.2545409659110311
450
        0
451
        0
460
0.0
461
0.0
452
        0
462
0.0
453
        0
470

  0
HATCH
  5
2889
330
2814
100
AcDbEntity
  8
BORDER
100
AcDbHatch
 10
0.0
 20
0.0
 30
0.0
210
0.0
220
0.0
230
1.0
  2
SOLID
 70
     1
 71
     0
 91
        1
 92
        1
 93
        1
 72
     4
 94
        3
 73
     0
 74
     0
 95
       17
 96
       13
 40
0.0
 40
0.0
 40
0.0
 40
0.0
 40
1.0
 40
1.0
 40
1.0
 40
2.0
 40
2.0
 40
2.0
 40
3.0
 40
3.0
 40
3.0
 40
4.0
 40
4.0
 40
4.0
 40
4.0
 10
6.322309189518841
 20
1.713152897430966
 10
6.322309189518841
 20
1.713152897430966
 10
6.191417571246511
 20
1.357194114273631
 10
6.191417571246511
 20
1.357194114273631
 10
6.28270589386435
 20
1.413240956027465
 10
6.388114352714446
 20
1.520235529346827
 10
6.422531797545592
 20
1.556344416561215
 10
6.422531797545592
 20
1.556344416561215
 10
6.480189536807273
 20
1.713152897430966
 10
6.480189536807273
 20
1.713152897430966
 10
6.480189536807273
 20
1.713152897430966
 10
6.322309189518841
 20
1.713152897430966
 10
6.322309189518841
 20
1.713152897430966
 97
        0
 97
        0
 75
     2
 76
     1
 98
        1
 10
4.866287085530751
 20
0.2545409659110311
450
        0
451
        0
460
0.0
461
0.0
452
        0
462
0.0
453
        0
470

  0
HATCH
  5
288A
330
2814
100
AcDbEntity
  8
BORDER
100
AcDbHatch
 10
0.0
 20
0.0
 30
0.0
210
0.0
220
0.0
230
1.0
  2
SOLID
 70
     1
 71
     0
 91
        2
 92
        1
 93
      248
 72
     1
 10
6.178567565741595
 20
1.322262421391901
 11
6.178551259262778
 21
1.322257595024858
 72
     1
 10
6.178551259262776
 20
1.322257595024858
 11
6.178532083289371
 21
1.322250767909295
 72
     1
 10
6.178532083289373
 20
1.322250767909295
 11
6.175669983133553
 21
1.320847247908567
 72
     1
 10
6.175669983133551
 20
1.320847247908567
 11
6.171297366162462
 21
1.318771585799525
 72
     1
 10
6.171297366162462
 20
1.318771585799525
 11
6.168239188656648
 21
1.317371693229958
 72
     1
 10
6.168239188656648
 20
1.317371693229957
 11
6.16784936343333
 21
1.31719449994663
 72
     1
 10
6.16784936343333
 20
1.31719449994663
 11
6.159687900005342
 21
1.31367303263966
 72
     1
 10
6.159687900005343
 20
1.31367303263966
 11
6.151208544344082
 21
1.310352072594161
 72
     1
 10
6.151208544344082
 20
1.310352072594161
 11
6.147678490013508
 21
1.309082846972299
 72
     1
 10
6.147678490013508
 20
1.309082846972299
 11
6.14734325502678
 21
1.308960894619668
 72
     1
 10
6.14734325502678
 20
1.308960894619668
 11
6.146061224272938
 21
1.308512496924834
 72
     1
 10
6.14606122427294
 20
1.308512496924834
 11
6.142059374534096
 21
1.30719102523032
 72
     1
 10
6.142059374534096
 20
1.30719102523032
 11
6.138077269024067
 21
1.305963904623898
 72
     1
 10
6.138077269024067
 20
1.305963904623898
 11
6.13727119378007
 21
1.305726664963456
 72
     1
 10
6.13727119378007
 20
1.305726664963456
 11
6.13678764042826
 21
1.305584210895981
 72
     1
 10
6.13678764042826
 20
1.30558421089598
 11
6.132169618013995
 21
1.304316665563034
 72
     1
 10
6.132169618013997
 20
1.304316665563034
 11
6.124389052473872
 21
1.302481265560367
 72
     1
 10
6.12438905247387
 20
1.302481265560367
 11
6.118201852205289
 21
1.301312823802668
 72
     1
 10
6.118201852205289
 20
1.301312823802668
 11
6.117578347251281
 21
1.301211650429404
 72
     1
 10
6.117578347251282
 20
1.301211650429404
 11
6.116955263507485
 21
1.301110898266355
 72
     1
 10
6.116955263507485
 20
1.301110898266355
 11
6.11376831464839
 21
1.300650187423499
 72
     1
 10
6.11376831464839
 20
1.300650187423499
 11
6.110198987299381
 21
1.300234509779203
 72
     1
 10
6.110198987299381
 20
1.300234509779203
 11
6.108137461588058
 21
1.300038331755416
 72
     1
 10
6.108137461588058
 20
1.300038331755416
 11
6.107480590054696
 21
1.299985494911005
 72
     1
 10
6.107480590054696
 20
1.299985494911005
 11
6.106332514042201
 21
1.299899549826079
 72
     1
 10
6.106332514042203
 20
1.299899549826079
 11
6.102713426365938
 21
1.29968343259698
 72
     1
 10
6.102713426365938
 20
1.29968343259698
 11
6.09912787755302
 21
1.299588413304609
 72
     1
 10
6.09912787755302
 20
1.299588413304608
 11
6.09572915841838
 21
1.299617392775367
 72
     1
 10
6.095729158418381
 20
1.299617392775367
 11
6.09237087215989
 21
1.299741607281251
 72
     1
 10
6.09237087215989
 20
1.299741607281251
 11
6.090196547158059
 21
1.299879624784008
 72
     1
 10
6.09019654715806
 20
1.299879624784008
 11
6.089364842310073
 21
1.299964511684331
 72
     1
 10
6.089364842310073
 20
1.299964511684332
 11
6.088327876255111
 21
1.300056680777096
 72
     1
 10
6.088327876255111
 20
1.300056680777096
 11
6.085796029274139
 21
1.30027749242302
 72
     1
 10
6.085796029274139
 20
1.30027749242302
 11
6.083267394021055
 21
1.300543900074687
 72
     1
 10
6.083267394021055
 20
1.300543900074687
 11
6.082070408850358
 21
1.300709203213507
 72
     1
 10
6.082070408850358
 20
1.300709203213508
 11
6.081264955937053
 21
1.300842148653603
 72
     1
 10
6.081264955937053
 20
1.300842148653603
 11
6.079716458226294
 21
1.301073708669268
 72
     1
 10
6.079716458226294
 20
1.301073708669268
 11
6.07715630281134
 21
1.301479406481407
 72
     1
 10
6.07715630281134
 20
1.301479406481406
 11
6.074744852088344
 21
1.301912555855064
 72
     1
 10
6.074744852088346
 20
1.301912555855065
 11
6.074067511244023
 21
1.302056454773406
 72
     1
 10
6.074067511244023
 20
1.302056454773406
 11
6.073393829663442
 21
1.302209988875409
 72
     1
 10
6.073393829663442
 20
1.302209988875408
 11
6.071254494961846
 21
1.302655049025404
 72
     1
 10
6.071254494961846
 20
1.302655049025404
 11
6.068564035969147
 21
1.30326832932687
 72
     1
 10
6.068564035969147
 20
1.30326832932687
 11
6.066701004078066
 21
1.303736867315365
 72
     1
 10
6.066701004078066
 20
1.303736867315365
 11
6.066197731092192
 21
1.303877344464257
 72
     1
 10
6.066197731092192
 20
1.303877344464257
 11
6.065626757335453
 21
1.304030639560069
 72
     1
 10
6.065626757335452
 20
1.304030639560069
 11
6.062762885405004
 21
1.304815876194465
 72
     1
 10
6.062762885405004
 20
1.304815876194465
 11
6.059904910417562
 21
1.305665136781497
 72
     1
 10
6.059904910417562
 20
1.305665136781497
 11
6.058763743398738
 21
1.306024971141478
 72
     1
 10
6.058763743398738
 20
1.306024971141477
 11
6.058431350574626
 21
1.306139039166668
 72
     1
 10
6.058431350574626
 20
1.306139039166668
 11
6.057209937595282
 21
1.306542529071451
 72
     1
 10
6.057209937595282
 20
1.306542529071451
 11
6.054184476038234
 21
1.307573077987449
 72
     1
 10
6.054184476038234
 20
1.307573077987449
 11
6.051163726770462
 21
1.30867281068121
 72
     1
 10
6.051163726770464
 20
1.30867281068121
 11
6.050937482474563
 21
1.30876054368417
 72
     1
 10
6.050937482474563
 20
1.30876054368417
 11
6.050763371947648
 21
1.308830750378026
 72
     1
 10
6.05076337194765
 20
1.308830750378026
 11
6.048693106619965
 21
1.309637602570694
 72
     1
 10
6.048693106619963
 20
1.309637602570694
 11
6.045532856908638
 21
1.310925309017473
 72
     1
 10
6.045532856908638
 20
1.310925309017473
 11
6.043270944805333
 21
1.311893225293372
 72
     1
 10
6.043270944805333
 20
1.311893225293372
 11
6.043128587345703
 21
1.311952540901552
 72
     1
 10
6.043128587345703
 20
1.311952540901552
 11
6.040094804395274
 21
1.313309881478201
 72
     1
 10
6.040094804395274
 20
1.313309881478202
 11
6.036859693544765
 21
1.314835597860915
 72
     1
 10
6.036859693544767
 20
1.314835597860915
 11
6.035522384072012
 21
1.315486196514537
 72
     1
 10
6.03552238407201
 20
1.315486196514536
 11
6.035518166092885
 21
1.315493588786007
 72
     1
 10
6.035518166092885
 20
1.315493588786008
 11
6.047718998983843
 21
1.318510397219156
 72
     1
 10
6.047718998983843
 20
1.318510397219155
 11
6.094679505756642
 21
1.334185516462108
 72
     1
 10
6.094679505756642
 20
1.334185516462108
 11
6.134739983722893
 21
1.354714925475702
 72
     1
 10
6.134739983722892
 20
1.354714925475702
 11
6.143211219198033
 21
1.360282563349879
 72
     1
 10
6.143211219198035
 20
1.360282563349879
 11
6.148122698801679
 21
1.363766410827645
 72
     1
 10
6.148122698801679
 20
1.363766410827646
 11
6.150331501218373
 21
1.365398971219793
 72
     1
 10
6.150331501218373
 20
1.365398971219793
 11
6.150337740112905
 21
1.365406305526557
 72
     1
 10
6.150337740112905
 20
1.365406305526557
 11
6.151075670317347
 21
1.365962890541522
 72
     1
 10
6.151075670317347
 20
1.365962890541522
 11
6.154834644143996
 21
1.368872865185872
 72
     1
 10
6.154834644143996
 20
1.368872865185872
 11
6.15849947748766
 21
1.371843388798588
 72
     1
 10
6.158499477487661
 20
1.371843388798588
 11
6.159263133345567
 21
1.372481216720527
 72
     1
 10
6.159263133345567
 20
1.372481216720526
 11
6.159495134112378
 21
1.372674290482315
 72
     1
 10
6.159495134112378
 20
1.372674290482316
 11
6.161346329832677
 21
1.37424477011408
 72
     1
 10
6.161346329832677
 20
1.37424477011408
 11
6.164785732870243
 21
1.377268651206998
 72
     1
 10
6.164785732870243
 20
1.377268651206998
 11
6.167663169440598
 21
1.379913964893938
 72
     1
 10
6.167663169440598
 20
1.379913964893939
 11
6.167796353864356
 21
1.380040590731695
 72
     1
 10
6.167796353864354
 20
1.380040590731695
 11
6.167933144900573
 21
1.380167216569452
 72
     1
 10
6.167933144900575
 20
1.380167216569451
 11
6.173338753732381
 21
1.385454587485567
 72
     1
 10
6.173338753732381
 20
1.385454587485567
 11
6.179720578568717
 21
1.392281691214443
 72
     1
 10
6.179720578568717
 20
1.392281691214444
 11
6.18316799862032
 21
1.396282317044866
 72
     1
 10
6.18316799862032
 20
1.396282317044865
 11
6.183402617298782
 21
1.396574371101277
 72
     1
 10
6.183402617298782
 20
1.396574371101277
 11
6.183871509260126
 21
1.397143012153704
 72
     1
 10
6.183871509260128
 20
1.397143012153705
 11
6.186352201741841
 21
1.400217885605707
 72
     1
 10
6.186352201741841
 20
1.400217885605706
 11
6.18876192030238
 21
1.403338670971111
 72
     1
 10
6.188761920302382
 20
1.403338670971111
 11
6.189929497608557
 21
1.404913097735105
 72
     1
 10
6.189929497608557
 20
1.404913097735105
 11
6.19068738379654
 21
1.405977302007412
 72
     1
 10
6.19068738379654
 20
1.405977302007412
 11
6.191847851632254
 21
1.407598688891772
 72
     1
 10
6.191847851632254
 20
1.407598688891772
 11
6.193574867089645
 21
1.410070194812517
 72
     1
 10
6.193574867089645
 20
1.410070194812517
 11
6.19521434145911
 21
1.412507863927769
 72
     1
 10
6.195214341459112
 20
1.412507863927769
 11
6.19608588847021
 21
1.413834323324435
 72
     1
 10
6.19608588847021
 20
1.413834323324435
 11
6.196946984202855
 21
1.415175630381167
 72
     1
 10
6.196946984202855
 20
1.415175630381167
 11
6.198221230152326
 21
1.417220618047323
 72
     1
 10
6.198221230152326
 20
1.417220618047323
 11
6.199635051099577
 21
1.419575474339675
 72
     1
 10
6.199635051099577
 20
1.419575474339675
 11
6.200831069124164
 21
1.421623911044839
 72
     1
 10
6.200831069124164
 20
1.421623911044838
 11
6.20168109243015
 21
1.42309828695819
 72
     1
 10
6.201681092430152
 20
1.42309828695819
 11
6.202520176081013
 21
1.424589023400158
 72
     1
 10
6.202520176081013
 20
1.424589023400158
 11
6.203819856064147
 21
1.427023485524856
 72
     1
 10
6.203819856064147
 20
1.427023485524856
 11
6.205078204794966
 21
1.429479113462841
 72
     1
 10
6.205078204794966
 20
1.429479113462841
 11
6.20598690043123
 21
1.431273858554536
 72
     1
 10
6.20598690043123
 20
1.431273858554536
 11
6.206725377981908
 21
1.432719290112753
 72
     1
 10
6.206725377981908
 20
1.432719290112753
 11
6.207691838437372
 21
1.434740366267194
 72
     1
 10
6.20769183843737
 20
1.434740366267194
 11
6.209168971981473
 21
1.438019361433655
 72
     1
 10
6.209168971981475
 20
1.438019361433655
 11
6.210591585128413
 21
1.441328288851
 72
     1
 10
6.210591585128413
 20
1.441328288851
 11
6.210923473873749
 21
1.442082406987643
 72
     1
 10
6.210923473873749
 20
1.442082406987644
 11
6.211221337604077
 21
1.442739662939731
 72
     1
 10
6.211221337604079
 20
1.442739662939731
 11
6.213225742928153
 21
1.4476447252674
 72
     1
 10
6.213225742928153
 20
1.4476447252674
 11
6.219910777732839
 21
1.464032886019874
 72
     1
 10
6.219910777732839
 20
1.464032886019875
 11
6.215969959834674
 21
1.470384447238565
 72
     1
 10
6.215969959834674
 20
1.470384447238564
 11
6.039641640218447
 21
1.470384447238564
 72
     1
 10
6.039641640218447
 20
1.470384447238564
 11
6.037468925390983
 21
1.465723576528169
 72
     1
 10
6.037468925390983
 20
1.465723576528169
 11
6.034917679191971
 21
1.457839196758763
 72
     1
 10
6.034917679191969
 20
1.457839196758763
 11
6.034146624489864
 21
1.455516896825733
 72
     1
 10
6.034146624489864
 20
1.455516896825734
 11
6.033396860687159
 21
1.453571446637744
 72
     1
 10
6.033396860687159
 20
1.453571446637743
 11
6.032687935212956
 21
1.451919840863769
 72
     1
 10
6.032687935212956
 20
1.45191984086377
 11
6.032423577660318
 21
1.451356276892737
 72
     1
 10
6.032423577660318
 20
1.451356276892736
 11
6.032153007257012
 21
1.450792186408935
 72
     1
 10
6.032153007257012
 20
1.450792186408935
 11
6.031527974633065
 21
1.449532081709731
 72
     1
 10
6.031527974633067
 20
1.449532081709732
 11
6.030806399027825
 21
1.448165216805449
 72
     1
 10
6.030806399027825
 20
1.448165216805449
 11
6.030225853526947
 21
1.447114105716414
 72
     1
 10
6.030225853526947
 20
1.447114105716414
 11
6.029798301047315
 21
1.446364896805031
 72
     1
 10
6.029798301047315
 20
1.446364896805031
 11
6.0293055592334
 21
1.445546136952883
 72
     1
 10
6.0293055592334
 20
1.445546136952883
 11
6.028559705552811
 21
1.444382392946016
 72
     1
 10
6.028559705552813
 20
1.444382392946016
 11
6.027776785373331
 21
1.443225388302581
 72
     1
 10
6.027776785373329
 20
1.443225388302581
 11
6.025250430547743
 21
1.439776764283806
 72
     1
 10
6.025250430547743
 20
1.439776764283805
 11
6.021965506839459
 21
1.43587717318663
 72
     1
 10
6.021965506839461
 20
1.43587717318663
 11
6.01992621301973
 21
1.433718299678258
 72
     1
 10
6.01992621301973
 20
1.433718299678258
 11
6.019637784776592
 21
1.433424775894462
 72
     1
 10
6.019637784776592
 20
1.433424775894462
 11
6.018865614429263
 21
1.432654993530261
 72
     1
 10
6.018865614429262
 20
1.432654993530261
 11
6.014529774173777
 21
1.428731063253279
 72
     1
 10
6.014529774173777
 20
1.428731063253279
 11
6.009685506863505
 21
1.424927388492594
 72
     1
 10
6.009685506863505
 20
1.424927388492594
 11
5.994935216596718
 21
1.415958333089221
 72
     1
 10
5.99493521659672
 20
1.41595833308922
 11
5.973184265959134
 21
1.407341822180152
 72
     1
 10
5.973184265959132
 20
1.407341822180153
 11
5.958587521754002
 21
1.403618539069496
 72
     1
 10
5.958587521754002
 20
1.403618539069495
 11
5.958630101662746
 21
1.403575959160749
 72
     1
 10
5.958630101662746
 20
1.403575959160749
 11
5.957760452370261
 21
1.403366955308525
 72
     1
 10
5.957760452370263
 20
1.403366955308525
 11
5.946470237368736
 21
1.401426224494388
 72
     1
 10
5.946470237368736
 20
1.401426224494388
 11
5.934341234875902
 21
1.400041175255999
 72
     1
 10
5.934341234875902
 20
1.400041175255999
 11
5.930958248737286
 21
1.3997886186156
 72
     1
 10
5.930958248737286
 20
1.3997886186156
 11
5.930921171450516
 21
1.399833111359725
 72
     1
 10
5.930921171450516
 20
1.399833111359725
 11
5.928380487732387
 21
1.402507772797911
 72
     1
 10
5.928380487732387
 20
1.402507772797912
 11
5.921818728968855
 21
1.409500449737722
 72
     1
 10
5.921818728968855
 20
1.409500449737722
 11
5.915494843291217
 21
1.416352062628583
 72
     1
 10
5.915494843291216
 20
1.416352062628582
 11
5.914487236967837
 21
1.417448055471556
 72
     1
 10
5.914487236967837
 20
1.417448055471557
 11
5.910147343466964
 21
1.422216796968097
 72
     1
 10
5.910147343466964
 20
1.422216796968097
 11
5.903902921355537
 21
1.42913484627794
 72
     1
 10
5.903902921355538
 20
1.42913484627794
 11
5.89958774424639
 21
1.433956146107997
 72
     1
 10
5.89958774424639
 20
1.433956146107997
 11
5.899046188267555
 21
1.434570059714155
 72
     1
 10
5.899046188267555
 20
1.434570059714155
 11
5.898505580011705
 21
1.43518686914054
 72
     1
 10
5.898505580011705
 20
1.435186869140539
 11
5.892265247763217
 21
1.442208381235751
 72
     1
 10
5.892265247763215
 20
1.442208381235751
 11
5.885963601321734
 21
1.449352659798588
 72
     1
 10
5.885963601321734
 20
1.449352659798588
 11
5.883444699969577
 21
1.452223758244191
 72
     1
 10
5.883444699969577
 20
1.452223758244191
 11
5.883035373767955
 21
1.452691175187246
 72
     1
 10
5.883035373767953
 20
1.452691175187246
 11
5.88080854190509
 21
1.455233443090905
 72
     1
 10
5.88080854190509
 20
1.455233443090905
 11
5.874199016478244
 21
1.46279054542172
 72
     1
 10
5.874199016478246
 20
1.46279054542172
 11
5.867565561046078
 21
1.470386714999949
 72
     1
 10
5.867565561046078
 20
1.470386714999949
 11
5.855536527039419
 21
1.4841444955891
 72
     1
 10
5.855536527039419
 20
1.4841444955891
 11
5.836955972996382
 21
1.505394447711566
 72
     1
 10
5.836955972996384
 20
1.505394447711566
 11
5.808975535590508
 21
1.537318183593813
 72
     1
 10
5.808975535590508
 20
1.537318183593813
 11
5.766947907663353
 21
1.583124803660945
 72
     1
 10
5.766947907663353
 20
1.583124803660945
 11
5.735656338393449
 21
1.613585886601777
 72
     1
 10
5.735656338393449
 20
1.613585886601777
 11
5.735620517169709
 21
1.613550065378034
 72
     1
 10
5.735620517169709
 20
1.613550065378034
 11
5.731889796452798
 21
1.616916910466217
 72
     1
 10
5.731889796452798
 20
1.616916910466217
 11
5.727739227305549
 21
1.620593363318729
 72
     1
 10
5.727739227305549
 20
1.620593363318729
 11
5.701133815929128
 21
1.641483193891493
 72
     1
 10
5.701133815929128
 20
1.641483193891493
 11
5.656171900302184
 21
1.665416346859082
 72
     1
 10
5.656171900302184
 20
1.665416346859082
 11
5.597926846525042
 21
1.669088100482839
 72
     1
 10
5.59792684652504
 20
1.669088100482838
 11
5.467024130496406
 21
1.595479808534171
 72
     1
 10
5.467024130496406
 20
1.595479808534172
 11
5.345879012347787
 21
1.488096222681006
 72
     1
 10
5.345879012347787
 20
1.488096222681005
 11
5.32793259634757
 21
1.470174893570253
 72
     1
 10
5.327932596347571
 20
1.470174893570253
 11
5.322786035796913
 21
1.464941957875383
 72
     1
 10
5.322786035796913
 20
1.464941957875383
 11
5.31865475087999
 21
1.457482893650479
 72
     1
 10
5.31865475087999
 20
1.457482893650479
 11
5.315253452754919
 21
1.447614042978449
 72
     1
 10
5.315253452754919
 20
1.447614042978449
 11
5.307693163289857
 21
1.425690455752785
 72
     1
 10
5.307693163289857
 20
1.425690455752785
 11
5.28133032134979
 21
1.349287009518569
 72
     1
 10
5.28133032134979
 20
1.349287009518569
 11
5.267769110860137
 21
1.309980020754885
 72
     1
 10
5.267769110860137
 20
1.309980020754886
 11
5.314642086082078
 21
1.308768056883848
 72
     1
 10
5.314642086082078
 20
1.308768056883847
 11
5.417076681476863
 21
1.308768056883847
 72
     1
 10
5.417076681476864
 20
1.308768056883847
 11
5.440461453842069
 21
1.308896180456401
 72
     1
 10
5.440461453842067
 20
1.308896180456402
 11
5.440856998894003
 21
1.310043340840691
 72
     1
 10
5.440856998894003
 20
1.310043340840691
 11
5.443574643083842
 21
1.317928469793613
 72
     1
 10
5.443574643083842
 20
1.317928469793613
 11
5.492185125064088
 21
1.458828844703308
 72
     1
 10
5.49218512506409
 20
1.458828844703308
 11
5.543822213042097
 21
1.608503186339129
 72
     1
 10
5.543822213042095
 20
1.608503186339129
 11
5.588357980073149
 21
1.622230124632214
 72
     1
 10
5.58835798007315
 20
1.622230124632214
 11
5.684409459427466
 21
1.622230124632214
 72
     1
 10
5.684409459427466
 20
1.622230124632214
 11
5.713002290990465
 21
1.619455801304452
 72
     1
 10
5.713002290990465
 20
1.619455801304452
 11
5.721334959912685
 21
1.612424720088581
 72
     1
 10
5.721334959912685
 20
1.612424720088581
 11
5.727609518033355
 21
1.603473992202409
 72
     1
 10
5.727609518033355
 20
1.603473992202409
 11
5.705902383200654
 21
1.570401362232715
 72
     1
 10
5.705902383200654
 20
1.570401362232715
 11
5.688739053559079
 21
1.5340383433683
 72
     1
 10
5.688739053559079
 20
1.5340383433683
 11
5.67275197685396
 21
1.471071937568543
 72
     1
 10
5.672751976853962
 20
1.471071937568543
 11
5.678541696903157
 21
1.407132920057173
 72
     1
 10
5.678541696903157
 20
1.407132920057173
 11
5.714013288162875
 21
1.352325178220057
 72
     1
 10
5.714013288162875
 20
1.352325178220058
 11
5.787359631073045
 21
1.313615422832107
 72
     1
 10
5.787359631073047
 20
1.313615422832107
 11
5.892209221064319
 21
1.300961411069295
 72
     1
 10
5.892209221064319
 20
1.300961411069295
 11
5.89944731860728
 21
1.300995334351367
 72
     1
 10
5.89944731860728
 20
1.300995334351367
 11
5.906612415154902
 21
1.301090806976063
 72
     1
 10
5.9066124151549
 20
1.301090806976063
 11
5.910123853692447
 21
1.301161265771346
 72
     1
 10
5.910123853692449
 20
1.301161265771346
 11
5.911840569062669
 21
1.301211959048638
 72
     1
 10
5.911840569062669
 20
1.301211959048638
 11
5.914720205918478
 21
1.301287885882799
 72
     1
 10
5.914720205918478
 20
1.301287885882799
 11
5.920022195976849
 21
1.301434274143847
 72
     1
 10
5.920022195976849
 20
1.301434274143847
 11
5.925277431701389
 21
1.301624468267226
 72
     1
 10
5.925277431701389
 20
1.301624468267226
 11
5.927427539517407
 21
1.301717612687853
 72
     1
 10
5.927427539517407
 20
1.301717612687853
 11
5.929480725569232
 21
1.301817065877887
 72
     1
 10
5.929480725569232
 20
1.301817065877887
 11
5.933281827830602
 21
1.301997310067317
 72
     1
 10
5.9332818278306
 20
1.301997310067317
 11
5.938110492530728
 21
1.302253064932664
 72
     1
 10
5.938110492530728
 20
1.302253064932663
 11
5.942142951053095
 21
1.30249270015382
 72
     1
 10
5.942142951053095
 20
1.30249270015382
 11
5.944177699497241
 21
1.302625026901158
 72
     1
 10
5.944177699497241
 20
1.302625026901158
 11
5.946207446070086
 21
1.302761197191706
 72
     1
 10
5.946207446070086
 20
1.302761197191706
 11
5.950771514464723
 21
1.303091243550795
 72
     1
 10
5.950771514464723
 20
1.303091243550795
 11
5.955503567775154
 21
1.303450631425201
 72
     1
 10
5.955503567775155
 20
1.303450631425201
 11
5.958560651268741
 21
1.303706735810058
 72
     1
 10
5.958560651268741
 20
1.303706735810058
 11
5.960408980541147
 21
1.303875974322721
 72
     1
 10
5.960408980541147
 20
1.303875974322721
 11
5.962942586820077
 21
1.304112083246659
 72
     1
 10
5.962942586820077
 20
1.304112083246659
 11
5.967775359607903
 21
1.304576700896828
 72
     1
 10
5.967775359607903
 20
1.304576700896828
 11
5.972560956851681
 21
1.305075331271835
 72
     1
 10
5.972560956851681
 20
1.305075331271835
 11
5.97453524687516
 21
1.305290686782773
 72
     1
 10
5.97453524687516
 20
1.305290686782773
 11
5.976122478868258
 21
1.305464797309687
 72
     1
 10
5.976122478868259
 20
1.305464797309687
 11
5.979550220636244
 21
1.305870127959567
 72
     1
 10
5.979550220636242
 20
1.305870127959567
 11
5.984569170069858
 21
1.306499423748963
 72
     1
 10
5.98456917006986
 20
1.306499423748963
 11
5.988851297062368
 21
1.307062286806429
 72
     1
 10
5.988851297062368
 20
1.307062286806428
 11
5.990060295807759
 21
1.307220569103622
 72
     1
 10
5.990060295807759
 20
1.307220569103623
 11
5.991269189250595
 21
1.307378851400818
 72
     1
 10
5.991269189250595
 20
1.307378851400818
 11
5.996004051824907
 21
1.308066586961103
 72
     1
 10
5.996004051824908
 20
1.308066586961103
 11
6.001380182005896
 21
1.308896146953866
 72
     1
 10
6.001380182005896
 20
1.308896146953865
 11
6.004444320033832
 21
1.309390567382676
 72
     1
 10
6.004444320033832
 20
1.309390567382676
 11
6.005114823457756
 21
1.309494132122189
 72
     1
 10
6.005114823457756
 20
1.309494132122189
 11
6.006515508900041
 21
1.309725812263951
 72
     1
 10
6.006515508900041
 20
1.309725812263951
 11
6.012496664805479
 21
1.310773195902424
 72
     1
 10
6.012496664805479
 20
1.310773195902425
 11
6.018404108923346
 21
1.31187449444838
 72
     1
 10
6.018404108923346
 20
1.31187449444838
 11
6.045485768223024
 21
1.299680421034938
 72
     1
 10
6.045485768223024
 20
1.299680421034938
 11
6.079130374453076
 21
1.290602522961611
 72
     1
 10
6.079130374453076
 20
1.290602522961611
 11
6.115967738562489
 21
1.290442219037374
 72
     1
 10
6.115967738562489
 20
1.290442219037375
 11
6.157743895337012
 21
1.301657295313168
 72
     1
 10
6.157743895337014
 20
1.301657295313167
 11
6.197710683187154
 21
1.32008151399666
 72
     1
 10
6.197710683187154
 20
1.32008151399666
 11
6.331050640748256
 21
1.32008151399666
 72
     1
 10
6.331050640748256
 20
1.32008151399666
 11
6.34974213054781
 21
1.358377937593042
 72
     1
 10
6.34974213054781
 20
1.358377937593042
 11
6.385266822136551
 21
1.454994726541687
 72
     1
 10
6.385266822136549
 20
1.454994726541687
 11
6.395769934676363
 21
1.483559769132874
 72
     1
 10
6.395769934676363
 20
1.483559769132874
 11
6.4009574246712
 21
1.497665550007721
 72
     1
 10
6.400957424671198
 20
1.497665550007721
 11
6.40427854250139
 21
1.506697247392905
 72
     1
 10
6.404278542501391
 20
1.506697247392905
 11
6.404274207831361
 21
1.506694226684139
 72
     1
 10
6.404274207831361
 20
1.506694226684139
 11
6.404277924254743
 21
1.506701659530905
 72
     1
 10
6.404277924254743
 20
1.506701659530905
 11
6.389483814445793
 21
1.49096666689723
 72
     1
 10
6.389483814445793
 20
1.49096666689723
 11
6.301218819754159
 21
1.407400759335949
 72
     1
 10
6.301218819754159
 20
1.407400759335949
 11
6.178567565741594
 21
1.322262421391901
 97
        0
 92
        1
 93
       42
 72
     1
 10
5.878779539530998
 20
1.441798359596807
 11
5.898052482535196
 21
1.420108840858281
 72
     1
 10
5.898052482535196
 20
1.420108840858281
 11
5.917267598449291
 21
1.399164190112727
 72
     1
 10
5.917267598449289
 20
1.399164190112728
 11
5.914747473213446
 21
1.399082096297423
 72
     1
 10
5.914747473213446
 20
1.399082096297422
 11
5.912199467059214
 21
1.399027883400523
 72
     1
 10
5.912199467059214
 20
1.399027883400524
 11
5.904096739284377
 21
1.399283464860142
 72
     1
 10
5.904096739284377
 20
1.399283464860141
 11
5.896618788852562
 21
1.400051841044006
 72
     1
 10
5.896618788852562
 20
1.400051841044007
 11
5.889757048787481
 21
1.401335459659632
 72
     1
 10
5.889757048787481
 20
1.401335459659632
 11
5.883502952112817
 21
1.40313676841453
 72
     1
 10
5.883502952112817
 20
1.403136768414529
 11
5.877848186821817
 21
1.405458249012156
 72
     1
 10
5.877848186821817
 20
1.405458249012156
 11
5.87278617470053
 21
1.408303165062523
 72
     1
 10
5.87278617470053
 20
1.408303165062523
 11
5.868309776602031
 21
1.411675562082223
 72
     1
 10
5.868309776602033
 20
1.411675562082223
 11
5.864411649403785
 21
1.415579519583777
 72
     1
 10
5.864411649403785
 20
1.415579519583777
 11
5.861053873710248
 21
1.420059916060456
 72
     1
 10
5.861053873710248
 20
1.420059916060456
 11
5.859626897526628
 21
1.422447854860797
 72
     1
 10
5.859626897526628
 20
1.422447854860796
 11
5.858314945421692
 21
1.42498811631547
 72
     1
 10
5.85831494542169
 20
1.42498811631547
 11
5.857994314860033
 21
1.425714569133898
 72
     1
 10
5.857994314860033
 20
1.425714569133898
 11
5.857682977937835
 21
1.426450315591822
 72
     1
 10
5.857682977937835
 20
1.426450315591822
 11
5.856858167435022
 21
1.428397333060441
 72
     1
 10
5.856858167435022
 20
1.428397333060441
 11
5.85610305922822
 21
1.430390818726401
 72
     1
 10
5.85610305922822
 20
1.430390818726401
 11
5.855808760645065
 21
1.431279910235504
 72
     1
 10
5.855808760645065
 20
1.431279910235505
 11
5.855533049340912
 21
1.432187589023581
 72
     1
 10
5.855533049340912
 20
1.432187589023581
 11
5.854928188305422
 21
1.434199661968492
 72
     1
 10
5.854928188305422
 20
1.434199661968492
 11
5.854393029566026
 21
1.436258203110735
 72
     1
 10
5.854393029566026
 20
1.436258203110735
 11
5.854181599268152
 21
1.437150392499688
 72
     1
 10
5.854181599268152
 20
1.437150392499688
 11
5.85398410942943
 21
1.438042581888665
 72
     1
 10
5.85398410942943
 20
1.438042581888665
 11
5.853531818975302
 21
1.440310229919006
 72
     1
 10
5.853531818975302
 20
1.440310229919006
 11
5.853153877636917
 21
1.442615052507048
 72
     1
 10
5.853153877636917
 20
1.442615052507048
 11
5.853037707143568
 21
1.443358543664734
 72
     1
 10
5.853037707143568
 20
1.443358543664734
 11
5.852930830289689
 21
1.444102034822024
 72
     1
 10
5.852930830289689
 20
1.444102034822023
 11
5.852604778438341
 21
1.446890126662529
 72
     1
 10
5.852604778438341
 20
1.446890126662529
 11
5.852367016161928
 21
1.449715393060945
 72
     1
 10
5.85236701616193
 20
1.449715393060945
 11
5.852344556533217
 21
1.450043768322165
 72
     1
 10
5.852344556533217
 20
1.450043768322165
 11
5.852317450084773
 21
1.450372143583387
 72
     1
 10
5.852317450084773
 20
1.450372143583387
 11
5.852120103666432
 21
1.457234291599702
 72
     1
 10
5.85212010366643
 20
1.457234291599702
 11
5.852337184726605
 21
1.464245137847524
 72
     1
 10
5.852337184726605
 20
1.464245137847523
 11
5.852937026049329
 21
1.471338594223983
 72
     1
 10
5.852937026049329
 20
1.471338594223983
 11
5.855056719339271
 21
1.468915903504333
 72
     1
 10
5.855056719339271
 20
1.468915903504334
 11
5.856837380661407
 21
1.466880422979494
 72
     1
 10
5.856837380661407
 20
1.466880422979493
 11
5.858203173917677
 21
1.465318992416655
 72
     1
 10
5.858203173917678
 20
1.465318992416655
 11
5.859078263010018
 21
1.464318451583011
 72
     1
 10
5.859078263010018
 20
1.464318451583011
 11
5.859386811840367
 21
1.463965640245754
 72
     1
 10
5.859386811840367
 20
1.463965640245754
 11
5.878779539530996
 21
1.441798359596807
 97
        0
 75
     2
 76
     1
 98
        1
 10
4.866287085530751
 20
0.2545409659110311
450
        0
451
        0
460
0.0
461
0.0
452
        0
462
0.0
453
        0
470

  0
MTEXT
  5
288B
330
2814
100
AcDbEntity
  8
0
100
AcDbMText
 10
6.49741331627462
 20
1.727923528168528
 30
0.0
 40
0.125
 41
0.2960640206524797
 46
0.1827628344066295
 71
     1
 72
     1
  1
®
 73
     1
 44
1.0
  0
MTEXT
  5
288C
102
{ACAD_XDICTIONARY
360
288D
102
}
330
2814
100
AcDbEntity
  8
0
100
AcDbMText
 10
-1.320255464405228
 20
0.9180309537745223
 30
0.0
 40
0.07
 41
1.406663961186193
 46
1.667105944530477
 71
     4
 72
     1
  3
{\fMS Shell Dlg 2|b0|i0|c0|p0;TCI, LLC\fArial|b0|i0|c0|p34; \fMS Shell Dlg 2|b0|i0|c0|p0;CLAIMS PROPRIETARY RIGHTS IN THE MATERIAL HEREIN DISCLOSED. IT IS SUPPLIED WITHOUT PREDJUDICE TO ANY PATENT RIGHTS OF TCI AND MAY NOT BE REPRODUCED OR USED TO MA
  1
NUFACTURE ANYTHING SHOWN THEREIN WITHOUT WRITTEN PERMISSION FROM TCI.}
 73
     1
 44
1.0
  0
LINE
  5
288E
330
2814
100
AcDbEntity
  8
0
 62
     7
100
AcDbLine
 10
-1.397475132733923
 20
1.749999994680436
 30
0.0
 11
-1.397475132733923
 21
-0.0000000053195632
 31
0.0
  0
LINE
  5
288F
330
2814
100
AcDbEntity
  8
0
 62
     7
100
AcDbLine
 10
-0.0000000189956992
 20
-0.0000000053195635
 30
0.0
 11
-1.397475132733923
 21
-0.0000000053195632
 31
0.0
  0
ENDBLK
  5
2890
330
2814
100
AcDbEntity
  8
0
 62
     7
100
AcDbBlockEnd
  0
BLOCK
  5
28AF
330
289B
100
AcDbEntity
  8
0
100
AcDbBlockBegin
  2
A$C0C8B0C29
 70
     0
 10
0.0
 20
0.0
 30
0.0
  3
A$C0C8B0C29
  1

  0
VIEWPORT
  5
289C
330
289B
100
AcDbEntity
  8
VIEWPORT
100
AcDbViewport
 10
9.358343446465191
 20
6.856441523275258
 30
0.0
 40
18.62490857108814
 41
10.15230391457333
 69
     0
 12
7.5209744871595
 22
5.622179906958295
 13
0.0
 23
0.0
 14
0.5
 24
0.5
 15
0.5
 25
0.5
 16
0.0
 26
0.0
 36
1.0
 17
0.0
 27
0.0
 37
0.0
 42
50.0
 43
0.0
 44
0.0
 45
11.39271146226824
 50
0.0
 51
0.0
 72
   100
 90
    32864
  1

281
     0
 71
     1
 74
     0
110
0.0
120
0.0
130
0.0
111
1.0
121
0.0
131
0.0
112
0.0
122
1.0
132
0.0
 79
     0
146
0.0
170
     0
 61
     5
348
26BE
292
     1
282
     1
141
0.0
142
0.0
 63
   250
421
  3355443
1001
GENIUS_GENODEF_13
1002
{
1000
HIER
1070
     0
1002
}
1002
{
1000
MANEDIT
1070
     0
1002
}
1002
{
1000
NOSEL
1070
     0
1002
}
1002
{
1000
BEHIND
1070
     0
1002
}
1002
{
1000
OTHER
1070
     0
1002
}
1002
{
1000
REACTOR
1002
}
1001
GENIUS_GENOBJ-N-SDF_13
1002
{
1000
OWNER
1000
GEN
1002
}
1001
GENIUS_GENSCREG_15
1000
PF
1040
0.0
1000
DF
1040
0.0
1000
MIN
1011
0.0458891609211207
1021
1.780289565988592
1031
0.0
1000
MAX
1011
18.67079773200926
1021
11.93259348056192
1031
0.0
1000
FLAGS
1070
     4
  0
TEXT
  5
289D
330
289B
100
AcDbEntity
  8
BORDER
100
AcDbText
 10
11.22003986291056
 20
1.958199497621369
 30
0.0
 40
0.1163276926494053
  1
HOLE TOL.+/-.005
100
AcDbText
  0
INSERT
  5
289E
330
289B
100
AcDbEntity
  8
BORDER
 62
     7
100
AcDbBlockReference
 66
     1
  2
A$C04876F98
 10
9.935991415676873
 20
0.0000000199519192
 30
0.0
  0
ATTRIB
  5
289F
330
289E
100
AcDbEntity
  8
0
100
AcDbText
 10
17.40474139668117
 20
0.2500000146323558
 30
0.0
 40
0.1875
  1

 41
0.8000000000000001
100
AcDbAttribute
280
     0
  2
DWGNO
 70
     0
280
     0
  0
ATTRIB
  5
28A0
330
289E
100
AcDbEntity
  8
0
100
AcDbText
 10
15.34224139668117
 20
0.2812500146323558
 30
0.0
 40
0.125
  1

 41
0.8
100
AcDbAttribute
280
     0
  2
DRNBY
 70
     0
280
     0
  0
ATTRIB
  5
28A1
330
289E
100
AcDbEntity
  8
0
100
AcDbText
 10
16.18599139668117
 20
0.2812500146323558
 30
0.0
 40
0.125
  1

 41
1.568181818181818
 72
     5
 11
16.90474139668117
 21
0.2812500146323558
 31
0.0
100
AcDbAttribute
280
     0
  2
DATE
 70
     0
280
     0
  0
ATTRIB
  5
28A2
330
289E
100
AcDbEntity
  8
0
100
AcDbText
 10
15.27974139668117
 20
0.0312500146323558
 30
0.0
 40
0.125
  1

 41
0.8
100
AcDbAttribute
280
     0
  2
SCALE
 70
     0
280
     0
  0
ATTRIB
  5
28A3
330
289E
100
AcDbEntity
  8
0
100
AcDbText
 10
18.6859993275139
 20
-0.0009171561722283
 30
0.0
 40
0.125
  1

 41
0.8
100
AcDbAttribute
280
     0
  2
APRVD
 70
     0
280
     0
  0
ATTRIB
  5
28A4
330
289E
100
AcDbEntity
  8
0
100
AcDbText
 10
18.02974139668117
 20
0.0312500146323558
 30
0.0
 40
0.125
  1
1
 41
0.8
100
AcDbAttribute
280
     0
  2
SHT
 70
     0
280
     0
  0
ATTRIB
  5
28A5
330
289E
100
AcDbEntity
  8
0
100
AcDbText
 10
18.44063910772708
 20
0.0312500146323558
 30
0.0
 40
0.125
  1
1
 41
0.8
100
AcDbAttribute
280
     0
  2
OFSHT
 70
     0
280
     0
  0
ATTRIB
  5
28A6
330
289E
100
AcDbEntity
  8
0
100
AcDbText
 10
15.09224139668117
 20
0.8750000146323557
 30
0.0
 40
0.1875
  1

 41
0.8000000000000001
100
AcDbAttribute
280
     0
  2
DESC1
 70
     0
280
     0
  0
ATTRIB
  5
28A7
330
289E
100
AcDbEntity
  8
0
100
AcDbText
 10
15.09224139668117
 20
0.5937500146323558
 30
0.0
 40
0.1875
  1

 41
0.8000000000000001
100
AcDbAttribute
280
     0
  2
DESC2
 70
     0
280
     0
  0
ATTRIB
  5
28A8
330
289E
100
AcDbEntity
  8
0
100
AcDbText
 10
14.46724139668117
 20
1.093750014632355
 30
0.0
 40
0.125
  1
.02
 41
0.8
100
AcDbAttribute
280
     0
  2
TOLXX
 70
     0
280
     0
  0
ATTRIB
  5
28A9
330
289E
100
AcDbEntity
  8
0
100
AcDbText
 10
14.46724139668117
 20
0.8437500146323557
 30
0.0
 40
0.125
  1
.01
 41
0.8
100
AcDbAttribute
280
     0
  2
TOLXXX
 70
     0
280
     0
  0
ATTRIB
  5
28AA
330
289E
100
AcDbEntity
  8
0
100
AcDbText
 10
14.21724139668117
 20
0.4687500146323558
 30
0.0
 40
0.125
  1
1/32
 41
0.8
100
AcDbAttribute
280
     0
  2
TOLFRAC
 70
     0
280
     0
  0
ATTRIB
  5
28AB
330
289E
100
AcDbEntity
  8
0
100
AcDbText
 10
14.21724139668117
 20
0.0937500146323558
 30
0.0
 40
0.125
  1
1/2%%d
 41
0.8
100
AcDbAttribute
280
     0
  2
TOLANG
 70
     0
280
     0
  0
ATTRIB
  5
28AC
330
289E
100
AcDbEntity
  8
0
100
AcDbText
 10
16.39233531790644
 20
0.0194127082955369
 30
0.0
 40
0.2
  1
B
 41
0.8
100
AcDbAttribute
280
     0
  2
DWG.SIZE
 70
     0
280
     0
  0
SEQEND
  5
28AD
330
289E
100
AcDbEntity
  8
BORDER
 62
     7
  0
LWPOLYLINE
  5
28AE
330
289B
100
AcDbEntity
  8
BORDER
 62
     7
100
AcDbPolyline
 90
        4
 70
     1
 43
0.0
 10
-0.0000000008288694
 20
0.025458501392567
 10
18.67079773200926
 20
0.025458501392567
 10
18.67079773200926
 20
11.93259348056192
 10
-0.0000000008288694
 20
11.93259348056192
1001
GENIUS_GENREC_14
1002
{
1000
PYDIR
1011
-0.0000000008288687
1021
11.93259348056192
1031
0.0
1002
}
1002
{
1000
PXDIR
1011
18.67079773200926
1021
0.025458501392567
1031
0.0
1002
}
1002
{
1000
PORI
1011
-0.0000000008288694
1021
0.025458501392567
1031
0.0
1002
}
1002
{
1000
PINS
1011
-0.0000000008288694
1021
0.025458501392567
1031
0.0
1002
}
1002
{
1000
PINS2
1011
18.67079773200926
1021
11.93259348056192
1031
0.0
1002
}
1002
{
1000
C
1070
     1
1002
}
1001
GENIUS_GENODEF_13
1002
{
1000
HIER
1070
     0
1002
}
1002
{
1000
MANEDIT
1070
     0
1002
}
1002
{
1000
NOSEL
1070
     0
1002
}
1002
{
1000
BEHIND
1070
     0
1002
}
1002
{
1000
OTHER
1070
     0
1002
}
1002
{
1000
REACTOR
1002
}
1001
GENIUS_GENOBJ-N-REC_13
1002
{
1000
OWNER
1000
GEN
1002
}
  0
ENDBLK
  5
28B0
330
289B
100
AcDbEntity
  8
0
100
AcDbBlockEnd
  0
BLOCK
  5
28D6
330
28C2
100
AcDbEntity
  8
0
100
AcDbBlockBegin
  2
A$C32FB190D
 70
     0
 10
0.0
 20
0.0
 30
0.0
  3
A$C32FB190D
  1

  0
VIEWPORT
  5
28C3
330
28C2
100
AcDbEntity
  8
VIEWPORT
100
AcDbViewport
 10
9.35834344729406
 20
6.830983021882691
 30
0.0
 40
18.62490857108814
 41
10.15230391457333
 69
     0
 12
7.5209744871595
 22
5.622179906958295
 13
0.0
 23
0.0
 14
0.5
 24
0.5
 15
0.5
 25
0.5
 16
0.0
 26
0.0
 36
1.0
 17
0.0
 27
0.0
 37
0.0
 42
50.0
 43
0.0
 44
0.0
 45
11.39271146226824
 50
0.0
 51
0.0
 72
   100
 90
    32864
  1

281
     0
 71
     1
 74
     0
110
0.0
120
0.0
130
0.0
111
1.0
121
0.0
131
0.0
112
0.0
122
1.0
132
0.0
 79
     0
146
0.0
170
     0
 61
     5
348
26BE
292
     1
282
     1
141
0.0
142
0.0
 63
   250
421
  3355443
1001
GENIUS_GENODEF_13
1002
{
1000
HIER
1070
     0
1002
}
1002
{
1000
MANEDIT
1070
     0
1002
}
1002
{
1000
NOSEL
1070
     0
1002
}
1002
{
1000
BEHIND
1070
     0
1002
}
1002
{
1000
OTHER
1070
     0
1002
}
1002
{
1000
REACTOR
1002
}
1001
GENIUS_GENOBJ-N-SDF_13
1002
{
1000
OWNER
1000
GEN
1002
}
1001
GENIUS_GENSCREG_15
1000
PF
1040
0.0
1000
DF
1040
0.0
1000
MIN
1011
0.0458891617499901
1021
1.754831064596025
1031
0.0
1000
MAX
1011
18.67079773283813
1021
11.90713497916935
1031
0.0
1000
FLAGS
1070
     4
  0
TEXT
  5
28C4
330
28C2
100
AcDbEntity
  8
BORDER
100
AcDbText
 10
11.22003986373942
 20
1.932740996228802
 30
0.0
 40
0.1163276926494053
  1
HOLE TOL.+/-.005
100
AcDbText
  0
INSERT
  5
28C5
330
28C2
100
AcDbEntity
  8
BORDER
 62
     7
100
AcDbBlockReference
 66
     1
  2
A$C04876F98
 10
9.935991416505743
 20
-0.0254584814406478
 30
0.0
  0
ATTRIB
  5
28C6
330
28C5
100
AcDbEntity
  8
0
100
AcDbText
 10
17.40474139751004
 20
0.2245415132397888
 30
0.0
 40
0.1875
  1

 41
0.8000000000000001
100
AcDbAttribute
280
     0
  2
DWGNO
 70
     0
280
     0
  0
ATTRIB
  5
28C7
330
28C5
100
AcDbEntity
  8
0
100
AcDbText
 10
15.34224139751004
 20
0.2557915132397888
 30
0.0
 40
0.125
  1

 41
0.8
100
AcDbAttribute
280
     0
  2
DRNBY
 70
     0
280
     0
  0
ATTRIB
  5
28C8
330
28C5
100
AcDbEntity
  8
0
100
AcDbText
 10
16.18599139751004
 20
0.2557915132397888
 30
0.0
 40
0.125
  1

 41
1.568181818181818
 72
     5
 11
16.90474139751004
 21
0.2557915132397888
 31
0.0
100
AcDbAttribute
280
     0
  2
DATE
 70
     0
280
     0
  0
ATTRIB
  5
28C9
330
28C5
100
AcDbEntity
  8
0
100
AcDbText
 10
15.27974139751004
 20
0.0057915132397888
 30
0.0
 40
0.125
  1

 41
0.8
100
AcDbAttribute
280
     0
  2
SCALE
 70
     0
280
     0
  0
ATTRIB
  5
28CA
330
28C5
100
AcDbEntity
  8
0
100
AcDbText
 10
18.68599932834277
 20
-0.0263756575647953
 30
0.0
 40
0.125
  1

 41
0.8
100
AcDbAttribute
280
     0
  2
APRVD
 70
     0
280
     0
  0
ATTRIB
  5
28CB
330
28C5
100
AcDbEntity
  8
0
100
AcDbText
 10
18.02974139751004
 20
0.0057915132397888
 30
0.0
 40
0.125
  1
1
 41
0.8
100
AcDbAttribute
280
     0
  2
SHT
 70
     0
280
     0
  0
ATTRIB
  5
28CC
330
28C5
100
AcDbEntity
  8
0
100
AcDbText
 10
18.44063910855595
 20
0.0057915132397888
 30
0.0
 40
0.125
  1
1
 41
0.8
100
AcDbAttribute
280
     0
  2
OFSHT
 70
     0
280
     0
  0
ATTRIB
  5
28CD
330
28C5
100
AcDbEntity
  8
0
100
AcDbText
 10
15.09224139751004
 20
0.8495415132397887
 30
0.0
 40
0.1875
  1

 41
0.8000000000000001
100
AcDbAttribute
280
     0
  2
DESC1
 70
     0
280
     0
  0
ATTRIB
  5
28CE
330
28C5
100
AcDbEntity
  8
0
100
AcDbText
 10
15.09224139751004
 20
0.5682915132397888
 30
0.0
 40
0.1875
  1

 41
0.8000000000000001
100
AcDbAttribute
280
     0
  2
DESC2
 70
     0
280
     0
  0
ATTRIB
  5
28CF
330
28C5
100
AcDbEntity
  8
0
100
AcDbText
 10
14.46724139751004
 20
1.068291513239788
 30
0.0
 40
0.125
  1
.02
 41
0.8
100
AcDbAttribute
280
     0
  2
TOLXX
 70
     0
280
     0
  0
ATTRIB
  5
28D0
330
28C5
100
AcDbEntity
  8
0
100
AcDbText
 10
14.46724139751004
 20
0.8182915132397887
 30
0.0
 40
0.125
  1
.01
 41
0.8
100
AcDbAttribute
280
     0
  2
TOLXXX
 70
     0
280
     0
  0
ATTRIB
  5
28D1
330
28C5
100
AcDbEntity
  8
0
100
AcDbText
 10
14.21724139751004
 20
0.4432915132397888
 30
0.0
 40
0.125
  1
1/32
 41
0.8
100
AcDbAttribute
280
     0
  2
TOLFRAC
 70
     0
280
     0
  0
ATTRIB
  5
28D2
330
28C5
100
AcDbEntity
  8
0
100
AcDbText
 10
14.21724139751004
 20
0.0682915132397888
 30
0.0
 40
0.125
  1
1/2%%d
 41
0.8
100
AcDbAttribute
280
     0
  2
TOLANG
 70
     0
280
     0
  0
ATTRIB
  5
28D3
330
28C5
100
AcDbEntity
  8
0
100
AcDbText
 10
16.39233531873531
 20
-0.0060457930970301
 30
0.0
 40
0.2
  1
B
 41
0.8
100
AcDbAttribute
280
     0
  2
DWG.SIZE
 70
     0
280
     0
  0
SEQEND
  5
28D4
330
28C5
100
AcDbEntity
  8
BORDER
 62
     7
  0
LWPOLYLINE
  5
28D5
330
28C2
100
AcDbEntity
  8
BORDER
 62
     7
100
AcDbPolyline
 90
        4
 70
     1
 43
0.0
 10
0.0
 20
0.0
 10
18.67079773283813
 20
0.0
 10
18.67079773283813
 20
11.90713497916935
 10
0.0
 20
11.90713497916936
1001
GENIUS_GENREC_14
1002
{
1000
PYDIR
1011
0.0000000000000007
1021
11.90713497916935
1031
0.0
1002
}
1002
{
1000
PXDIR
1011
18.67079773283813
1021
0.0
1031
0.0
1002
}
1002
{
1000
PORI
1011
0.0
1021
0.0
1031
0.0
1002
}
1002
{
1000
PINS
1011
0.0
1021
0.0
1031
0.0
1002
}
1002
{
1000
PINS2
1011
18.67079773283813
1021
11.90713497916935
1031
0.0
1002
}
1002
{
1000
C
1070
     1
1002
}
1001
GENIUS_GENODEF_13
1002
{
1000
HIER
1070
     0
1002
}
1002
{
1000
MANEDIT
1070
     0
1002
}
1002
{
1000
NOSEL
1070
     0
1002
}
1002
{
1000
BEHIND
1070
     0
1002
}
1002
{
1000
OTHER
1070
     0
1002
}
1002
{
1000
REACTOR
1002
}
1001
GENIUS_GENOBJ-N-REC_13
1002
{
1000
OWNER
1000
GEN
1002
}
  0
ENDBLK
  5
28D7
330
28C2
100
AcDbEntity
  8
0
100
AcDbBlockEnd
  0
BLOCK
  5
2C7F
330
2C7E
100
AcDbEntity
  8
0
100
AcDbBlockBegin
  2
*D14
 70
     1
 10
0.0
 20
0.0
 30
0.0
  3
*D14
  1

  0
LINE
  5
2E08
330
2C7E
100
AcDbEntity
  8
DIMENSION
 62
     0
440
 16777216
370
    -2
100
AcDbLine
 10
36.23517390313022
 20
16.72872890704411
 30
0.0
 11
36.23517390313022
 21
15.3443789465104
 31
0.0
  0
LINE
  5
2E09
330
2C7E
100
AcDbEntity
  8
DIMENSION
 62
     0
440
 16777216
370
    -2
100
AcDbLine
 10
35.73570866237953
 20
16.82122890704406
 30
0.0
 11
35.73570866237953
 21
15.3443789465104
 31
0.0
  0
LINE
  5
2E0A
330
2C7E
100
AcDbEntity
  8
DIMENSION
 62
     0
440
 16777216
370
    -2
100
AcDbLine
 10
36.41517390313022
 20
15.5243789465104
 30
0.0
 11
36.59517390313022
 21
15.5243789465104
 31
0.0
  0
LINE
  5
2E0B
330
2C7E
100
AcDbEntity
  8
DIMENSION
 62
     0
440
 16777216
370
    -2
100
AcDbLine
 10
35.55570866237952
 20
15.5243789465104
 30
0.0
 11
35.37570866237953
 21
15.5243789465104
 31
0.0
  0
SOLID
  5
2E0C
330
2C7E
100
AcDbEntity
  8
DIMENSION
 62
     0
440
 16777216
100
AcDbTrace
 10
36.41517390313022
 20
15.5543789465104
 30
0.0
 11
36.41517390313022
 21
15.4943789465104
 31
0.0
 12
36.23517390313022
 22
15.5243789465104
 32
0.0
 13
36.23517390313022
 23
15.5243789465104
 33
0.0
  0
SOLID
  5
2E0D
330
2C7E
100
AcDbEntity
  8
DIMENSION
 62
     0
440
 16777216
100
AcDbTrace
 10
35.55570866237952
 20
15.5543789465104
 30
0.0
 11
35.55570866237952
 21
15.4943789465104
 31
0.0
 12
35.73570866237953
 22
15.5243789465104
 32
0.0
 13
35.73570866237953
 23
15.5243789465104
 33
0.0
  0
MTEXT
  5
2E0E
330
2C7E
100
AcDbEntity
  8
DIMENSION
 62
     0
440
 16777216
100
AcDbMText
 10
35.11904199571286
 20
15.5243789465104
 30
0.0
 40
0.125
 41
0.0
 46
0.0
 71
     5
 72
     1
  1
\A1;0.50
 73
     1
 44
1.0
  0
POINT
  5
2E0F
330
2C7E
100
AcDbEntity
  8
DEFPOINTS
 62
     0
440
 16777216
100
AcDbPoint
 10
36.23517390313022
 20
16.79122890704411
 30
0.0
  0
POINT
  5
2E10
330
2C7E
100
AcDbEntity
  8
DEFPOINTS
 62
     0
440
 16777216
100
AcDbPoint
 10
35.73570866237953
 20
16.88372890704406
 30
0.0
  0
POINT
  5
2E11
330
2C7E
100
AcDbEntity
  8
DEFPOINTS
 62
     0
440
 16777216
100
AcDbPoint
 10
35.73570866237953
 20
15.5243789465104
 30
0.0
  0
ENDBLK
  5
2C80
330
2C7E
100
AcDbEntity
  8
0
100
AcDbBlockEnd
  0
BLOCK
  5
2C94
330
2C93
100
AcDbEntity
  8
0
100
AcDbBlockBegin
  2
*D15
 70
     1
 10
0.0
 20
0.0
 30
0.0
  3
*D15
  1

  0
LINE
  5
2DF5
330
2C93
100
AcDbEntity
  8
DIMENSION
 62
     0
440
 16777216
370
    -2
100
AcDbLine
 10
35.70320866237953
 20
16.85372890704406
 30
0.0
 11
35.30334733738204
 21
16.85372890704406
 31
0.0
  0
LINE
  5
2DF6
330
2C93
100
AcDbEntity
  8
DIMENSION
 62
     0
440
 16777216
370
    -2
100
AcDbLine
 10
35.70320866237953
 20
17.10372890704405
 30
0.0
 11
35.30334733738204
 21
17.10372890704405
 31
0.0
  0
LINE
  5
2DF7
330
2C93
100
AcDbEntity
  8
DIMENSION
 62
     0
440
 16777216
370
    -2
100
AcDbLine
 10
35.48334733738204
 20
17.28372890704406
 30
0.0
 11
35.48334733738204
 21
17.46372890704406
 31
0.0
  0
LINE
  5
2DF8
330
2C93
100
AcDbEntity
  8
DIMENSION
 62
     0
440
 16777216
370
    -2
100
AcDbLine
 10
35.48334733738204
 20
16.67372890704406
 30
0.0
 11
35.48334733738204
 21
15.89375290704406
 31
0.0
  0
LINE
  5
2DF9
330
2C93
100
AcDbEntity
  8
DIMENSION
 62
     0
440
 16777216
370
    -2
100
AcDbLine
 10
35.48334733738204
 20
15.89375290704406
 30
0.0
 11
35.30334733738204
 21
15.89375290704406
 31
0.0
  0
SOLID
  5
2DFA
330
2C93
100
AcDbEntity
  8
DIMENSION
 62
     0
440
 16777216
100
AcDbTrace
 10
35.45334733738204
 20
17.28372890704406
 30
0.0
 11
35.51334733738205
 21
17.28372890704406
 31
0.0
 12
35.48334733738204
 22
17.10372890704405
 32
0.0
 13
35.48334733738204
 23
17.10372890704405
 33
0.0
  0
SOLID
  5
2DFB
330
2C93
100
AcDbEntity
  8
DIMENSION
 62
     0
440
 16777216
100
AcDbTrace
 10
35.45334733738204
 20
16.67372890704406
 30
0.0
 11
35.51334733738205
 21
16.67372890704406
 31
0.0
 12
35.48334733738204
 22
16.85372890704406
 32
0.0
 13
35.48334733738204
 23
16.85372890704406
 33
0.0
  0
MTEXT
  5
2DFC
330
2C93
100
AcDbEntity
  8
DIMENSION
 62
     0
440
 16777216
100
AcDbMText
 10
35.03626400404871
 20
15.89375290704407
 30
0.0
 40
0.125
 41
0.0
 46
0.0
 71
     5
 72
     1
  1
\A1;0.25
 73
     1
 44
1.0
  0
POINT
  5
2DFD
330
2C93
100
AcDbEntity
  8
DEFPOINTS
 62
     0
440
 16777216
100
AcDbPoint
 10
35.76570866237953
 20
16.85372890704406
 30
0.0
  0
POINT
  5
2DFE
330
2C93
100
AcDbEntity
  8
DEFPOINTS
 62
     0
440
 16777216
100
AcDbPoint
 10
35.76570866237953
 20
17.10372890704405
 30
0.0
  0
POINT
  5
2DFF
330
2C93
100
AcDbEntity
  8
DEFPOINTS
 62
     0
440
 16777216
100
AcDbPoint
 10
35.48334733738204
 20
17.10372890704405
 30
0.0
  0
ENDBLK
  5
2C95
330
2C93
100
AcDbEntity
  8
0
100
AcDbBlockEnd
  0
BLOCK
  5
2CA1
330
2CA0
100
AcDbEntity
  8
0
100
AcDbBlockBegin
  2
*D16
 70
     1
 10
0.0
 20
0.0
 30
0.0
  3
*D16
  1

  0
LINE
  5
2DEB
330
2CA0
100
AcDbEntity
  8
DIMENSION
 62
     0
440
 16777216
370
    -2
100
AcDbLine
 10
35.81868928702751
 20
16.97872890704406
 30
0.0
 11
34.85442234068032
 21
16.97872890704406
 31
0.0
  0
LINE
  5
2DEC
330
2CA0
100
AcDbEntity
  8
DIMENSION
 62
     0
440
 16777216
370
    -2
100
AcDbLine
 10
35.81868928702751
 20
17.35372890704406
 30
0.0
 11
34.85442234068032
 21
17.35372890704406
 31
0.0
  0
LINE
  5
2DED
330
2CA0
100
AcDbEntity
  8
DIMENSION
 62
     0
440
 16777216
370
    -2
100
AcDbLine
 10
35.03442234068032
 20
16.79872890704406
 30
0.0
 11
35.03442234068032
 21
16.61872890704406
 31
0.0
  0
LINE
  5
2DEE
330
2CA0
100
AcDbEntity
  8
DIMENSION
 62
     0
440
 16777216
370
    -2
100
AcDbLine
 10
35.03442234068032
 20
17.53372890704406
 30
0.0
 11
35.03442234068032
 21
17.71372890704406
 31
0.0
  0
SOLID
  5
2DEF
330
2CA0
100
AcDbEntity
  8
DIMENSION
 62
     0
440
 16777216
100
AcDbTrace
 10
35.00442234068032
 20
16.79872890704406
 30
0.0
 11
35.06442234068032
 21
16.79872890704406
 31
0.0
 12
35.03442234068032
 22
16.97872890704406
 32
0.0
 13
35.03442234068032
 23
16.97872890704406
 33
0.0
  0
SOLID
  5
2DF0
330
2CA0
100
AcDbEntity
  8
DIMENSION
 62
     0
440
 16777216
100
AcDbTrace
 10
35.00442234068032
 20
17.53372890704406
 30
0.0
 11
35.06442234068032
 21
17.53372890704406
 31
0.0
 12
35.03442234068032
 22
17.35372890704406
 32
0.0
 13
35.03442234068032
 23
17.35372890704406
 33
0.0
  0
MTEXT
  5
2DF1
330
2CA0
100
AcDbEntity
  8
DIMENSION
 62
     0
440
 16777216
100
AcDbMText
 10
35.03442234068032
 20
17.16622890704407
 30
0.0
 40
0.125
 41
0.0
 46
0.0
 71
     5
 72
     1
  1
\A1;0.38
 73
     1
 44
1.0
  0
POINT
  5
2DF2
330
2CA0
100
AcDbEntity
  8
DEFPOINTS
 62
     0
440
 16777216
100
AcDbPoint
 10
35.88118928702751
 20
16.97872890704406
 30
0.0
  0
POINT
  5
2DF3
330
2CA0
100
AcDbEntity
  8
DEFPOINTS
 62
     0
440
 16777216
100
AcDbPoint
 10
35.88118928702751
 20
17.35372890704406
 30
0.0
  0
POINT
  5
2DF4
330
2CA0
100
AcDbEntity
  8
DEFPOINTS
 62
     0
440
 16777216
100
AcDbPoint
 10
35.03442234068032
 20
17.35372890704406
 30
0.0
  0
ENDBLK
  5
2CA2
330
2CA0
100
AcDbEntity
  8
0
100
AcDbBlockEnd
  0
BLOCK
  5
2CAE
330
2CAD
100
AcDbEntity
  8
0
100
AcDbBlockBegin
  2
*D17
 70
     1
 10
0.0
 20
0.0
 30
0.0
  3
*D17
  1

  0
LINE
  5
2DE1
330
2CAD
100
AcDbEntity
  8
DIMENSION
 62
     0
440
 16777216
370
    -2
100
AcDbLine
 10
41.48918914388095
 20
18.14622890704407
 30
0.0
 11
42.76866788340182
 21
18.14622890704407
 31
0.0
  0
LINE
  5
2DE2
330
2CAD
100
AcDbEntity
  8
DIMENSION
 62
     0
440
 16777216
370
    -2
100
AcDbLine
 10
41.48918914388096
 20
16.18622890704407
 30
0.0
 11
42.76866788340182
 21
16.18622890704407
 31
0.0
  0
LINE
  5
2DE3
330
2CAD
100
AcDbEntity
  8
DIMENSION
 62
     0
440
 16777216
370
    -2
100
AcDbLine
 10
42.58866788340182
 20
17.96622890704407
 30
0.0
 11
42.58866788340182
 21
17.31872890704407
 31
0.0
  0
LINE
  5
2DE4
330
2CAD
100
AcDbEntity
  8
DIMENSION
 62
     0
440
 16777216
370
    -2
100
AcDbLine
 10
42.58866788340182
 20
16.36622890704407
 30
0.0
 11
42.58866788340182
 21
17.01372890704407
 31
0.0
  0
SOLID
  5
2DE5
330
2CAD
100
AcDbEntity
  8
DIMENSION
 62
     0
440
 16777216
100
AcDbTrace
 10
42.55866788340182
 20
17.96622890704407
 30
0.0
 11
42.61866788340182
 21
17.96622890704407
 31
0.0
 12
42.58866788340182
 22
18.14622890704407
 32
0.0
 13
42.58866788340182
 23
18.14622890704407
 33
0.0
  0
SOLID
  5
2DE6
330
2CAD
100
AcDbEntity
  8
DIMENSION
 62
     0
440
 16777216
100
AcDbTrace
 10
42.55866788340182
 20
16.36622890704407
 30
0.0
 11
42.61866788340182
 21
16.36622890704407
 31
0.0
 12
42.58866788340182
 22
16.18622890704407
 32
0.0
 13
42.58866788340182
 23
16.18622890704407
 33
0.0
  0
MTEXT
  5
2DE7
330
2CAD
100
AcDbEntity
  8
DIMENSION
 62
     0
440
 16777216
100
AcDbMText
 10
42.58866788340181
 20
17.16622890704407
 30
0.0
 40
0.125
 41
0.0
 46
0.0
 71
     5
 72
     1
  1
\A1;1.96
 73
     1
 44
1.0
  0
POINT
  5
2DE8
330
2CAD
100
AcDbEntity
  8
DEFPOINTS
 62
     0
440
 16777216
100
AcDbPoint
 10
41.42668914388095
 20
18.14622890704407
 30
0.0
  0
POINT
  5
2DE9
330
2CAD
100
AcDbEntity
  8
DEFPOINTS
 62
     0
440
 16777216
100
AcDbPoint
 10
41.42668914388096
 20
16.18622890704407
 30
0.0
  0
POINT
  5
2DEA
330
2CAD
100
AcDbEntity
  8
DEFPOINTS
 62
     0
440
 16777216
100
AcDbPoint
 10
42.58866788340182
 20
16.18622890704407
 30
0.0
  0
ENDBLK
  5
2CAF
330
2CAD
100
AcDbEntity
  8
0
100
AcDbBlockEnd
  0
BLOCK
  5
2CBB
330
2CBA
100
AcDbEntity
  8
0
100
AcDbBlockBegin
  2
*D18
 70
     1
 10
0.0
 20
0.0
 30
0.0
  3
*D18
  1

  0
LINE
  5
2F91
330
2CBA
100
AcDbEntity
  8
DIMENSION
 62
     0
440
 16777216
370
    -2
100
AcDbLine
 10
41.42668914388096
 20
16.12372890704406
 30
0.0
 11
41.42668914388096
 21
14.90597046057342
 31
0.0
  0
LINE
  5
2F92
330
2CBA
100
AcDbEntity
  8
DIMENSION
 62
     0
440
 16777216
370
    -2
100
AcDbLine
 10
42.05168914388095
 20
16.97876622979415
 30
0.0
 11
42.05168914388095
 21
14.90597046057342
 31
0.0
  0
LINE
  5
2F93
330
2CBA
100
AcDbEntity
  8
DIMENSION
 62
     0
440
 16777216
370
    -2
100
AcDbLine
 10
41.60668914388096
 20
15.08597046057342
 30
0.0
 11
41.87168914388095
 21
15.08597046057342
 31
0.0
  0
LINE
  5
2F94
330
2CBA
100
AcDbEntity
  8
DIMENSION
 62
     0
440
 16777216
370
    -2
100
AcDbLine
 10
42.05168914388095
 20
15.08597046057342
 30
0.0
 11
42.23168914388096
 21
15.08597046057342
 31
0.0
  0
SOLID
  5
2F95
330
2CBA
100
AcDbEntity
  8
DIMENSION
 62
     0
440
 16777216
100
AcDbTrace
 10
41.60668914388096
 20
15.11597046057342
 30
0.0
 11
41.60668914388096
 21
15.05597046057342
 31
0.0
 12
41.42668914388096
 22
15.08597046057342
 32
0.0
 13
41.42668914388096
 23
15.08597046057342
 33
0.0
  0
SOLID
  5
2F96
330
2CBA
100
AcDbEntity
  8
DIMENSION
 62
     0
440
 16777216
100
AcDbTrace
 10
41.87168914388095
 20
15.11597046057342
 30
0.0
 11
41.87168914388095
 21
15.05597046057342
 31
0.0
 12
42.05168914388095
 22
15.08597046057342
 32
0.0
 13
42.05168914388095
 23
15.08597046057342
 33
0.0
  0
MTEXT
  5
2F97
330
2CBA
100
AcDbEntity
  8
DIMENSION
 62
     0
440
 16777216
100
AcDbMText
 10
42.49877247721428
 20
15.08597046057342
 30
0.0
 40
0.125
 41
0.0
 46
0.0
 71
     5
 72
     1
  1
\A1;0.63
 73
     1
 44
1.0
  0
POINT
  5
2F98
330
2CBA
100
AcDbEntity
  8
DEFPOINTS
 62
     0
440
 16777216
100
AcDbPoint
 10
41.42668914388096
 20
16.18622890704407
 30
0.0
  0
POINT
  5
2F99
330
2CBA
100
AcDbEntity
  8
DEFPOINTS
 62
     0
440
 16777216
100
AcDbPoint
 10
42.05168914388095
 20
17.04126622979415
 30
0.0
  0
POINT
  5
2F9A
330
2CBA
100
AcDbEntity
  8
DEFPOINTS
 62
     0
440
 16777216
100
AcDbPoint
 10
42.05168914388095
 20
15.08597046057342
 30
0.0
  0
ENDBLK
  5
2CBC
330
2CBA
100
AcDbEntity
  8
0
100
AcDbBlockEnd
  0
BLOCK
  5
2CC7
330
2CC6
100
AcDbEntity
  8
0
100
AcDbBlockBegin
  2
*D19
 70
     1
 10
0.0
 20
0.0
 30
0.0
  3
*D19
  1

  0
LINE
  5
2DCD
330
2CC6
100
AcDbEntity
  8
DIMENSION
 62
     0
440
 16777216
370
    -2
100
AcDbLine
 10
36.36213914388094
 20
18.22104859546177
 30
0.0
 11
34.37667482457744
 21
18.22104859546177
 31
0.0
  0
LINE
  5
2DCE
330
2CC6
100
AcDbEntity
  8
DIMENSION
 62
     0
440
 16777216
370
    -2
100
AcDbLine
 10
36.36213914388096
 20
16.11140921862635
 30
0.0
 11
34.37667482457744
 21
16.11140921862635
 31
0.0
  0
LINE
  5
2DCF
330
2CC6
100
AcDbEntity
  8
DIMENSION
 62
     0
440
 16777216
370
    -2
100
AcDbLine
 10
34.55667482457744
 20
18.04104859546177
 30
0.0
 11
34.55667482457744
 21
17.31872890704406
 31
0.0
  0
LINE
  5
2DD0
330
2CC6
100
AcDbEntity
  8
DIMENSION
 62
     0
440
 16777216
370
    -2
100
AcDbLine
 10
34.55667482457744
 20
16.29140921862635
 30
0.0
 11
34.55667482457744
 21
17.01372890704406
 31
0.0
  0
SOLID
  5
2DD1
330
2CC6
100
AcDbEntity
  8
DIMENSION
 62
     0
440
 16777216
100
AcDbTrace
 10
34.52667482457744
 20
18.04104859546177
 30
0.0
 11
34.58667482457745
 21
18.04104859546177
 31
0.0
 12
34.55667482457744
 22
18.22104859546177
 32
0.0
 13
34.55667482457744
 23
18.22104859546177
 33
0.0
  0
SOLID
  5
2DD2
330
2CC6
100
AcDbEntity
  8
DIMENSION
 62
     0
440
 16777216
100
AcDbTrace
 10
34.52667482457744
 20
16.29140921862635
 30
0.0
 11
34.58667482457745
 21
16.29140921862635
 31
0.0
 12
34.55667482457744
 22
16.11140921862635
 32
0.0
 13
34.55667482457744
 23
16.11140921862635
 33
0.0
  0
MTEXT
  5
2DD3
330
2CC6
100
AcDbEntity
  8
DIMENSION
 62
     0
440
 16777216
100
AcDbMText
 10
34.55667482457744
 20
17.16622890704406
 30
0.0
 40
0.125
 41
0.0
 46
0.0
 71
     5
 72
     1
  1
\A1;2.11
 73
     1
 44
1.0
  0
POINT
  5
2DD4
330
2CC6
100
AcDbEntity
  8
DEFPOINTS
 62
     0
440
 16777216
100
AcDbPoint
 10
36.42463914388094
 20
18.22104859546177
 30
0.0
  0
POINT
  5
2DD5
330
2CC6
100
AcDbEntity
  8
DEFPOINTS
 62
     0
440
 16777216
100
AcDbPoint
 10
36.42463914388095
 20
16.11140921862635
 30
0.0
  0
POINT
  5
2DD6
330
2CC6
100
AcDbEntity
  8
DEFPOINTS
 62
     0
440
 16777216
100
AcDbPoint
 10
34.55667482457744
 20
16.11140921862635
 30
0.0
  0
ENDBLK
  5
2CC8
330
2CC6
100
AcDbEntity
  8
0
100
AcDbBlockEnd
  0
BLOCK
  5
2CD4
330
2CD3
100
AcDbEntity
  8
0
100
AcDbBlockBegin
  2
*D20
 70
     1
 10
0.0
 20
0.0
 30
0.0
  3
*D20
  1

  0
LINE
  5
2DC3
330
2CD3
100
AcDbEntity
  8
DIMENSION
 62
     0
440
 16777216
370
    -2
100
AcDbLine
 10
36.42463914388097
 20
16.04890921862635
 30
0.0
 11
36.42463914388097
 21
14.89733023116324
 31
0.0
  0
LINE
  5
2DC4
330
2CD3
100
AcDbEntity
  8
DIMENSION
 62
     0
440
 16777216
370
    -2
100
AcDbLine
 10
36.23517390313021
 20
16.72872890704411
 30
0.0
 11
36.23517390313021
 21
14.89733023116324
 31
0.0
  0
LINE
  5
2DC5
330
2CD3
100
AcDbEntity
  8
DIMENSION
 62
     0
440
 16777216
370
    -2
100
AcDbLine
 10
36.60463914388097
 20
15.07733023116324
 30
0.0
 11
36.78463914388097
 21
15.07733023116324
 31
0.0
  0
LINE
  5
2DC6
330
2CD3
100
AcDbEntity
  8
DIMENSION
 62
     0
440
 16777216
370
    -2
100
AcDbLine
 10
36.0551739031302
 20
15.07733023116324
 30
0.0
 11
35.87517390313021
 21
15.07733023116324
 31
0.0
  0
SOLID
  5
2DC7
330
2CD3
100
AcDbEntity
  8
DIMENSION
 62
     0
440
 16777216
100
AcDbTrace
 10
36.60463914388097
 20
15.10733023116324
 30
0.0
 11
36.60463914388097
 21
15.04733023116324
 31
0.0
 12
36.42463914388097
 22
15.07733023116324
 32
0.0
 13
36.42463914388097
 23
15.07733023116324
 33
0.0
  0
SOLID
  5
2DC8
330
2CD3
100
AcDbEntity
  8
DIMENSION
 62
     0
440
 16777216
100
AcDbTrace
 10
36.0551739031302
 20
15.10733023116324
 30
0.0
 11
36.0551739031302
 21
15.04733023116324
 31
0.0
 12
36.23517390313021
 22
15.07733023116324
 32
0.0
 13
36.23517390313021
 23
15.07733023116324
 33
0.0
  0
MTEXT
  5
2DC9
330
2CD3
100
AcDbEntity
  8
DIMENSION
 62
     0
440
 16777216
100
AcDbMText
 10
35.6289239031302
 20
15.07733023116324
 30
0.0
 40
0.125
 41
0.0
 46
0.0
 71
     5
 72
     1
  1
\A1;0.19
 73
     1
 44
1.0
  0
POINT
  5
2DCA
330
2CD3
100
AcDbEntity
  8
DEFPOINTS
 62
     0
440
 16777216
100
AcDbPoint
 10
36.42463914388097
 20
16.11140921862635
 30
0.0
  0
POINT
  5
2DCB
330
2CD3
100
AcDbEntity
  8
DEFPOINTS
 62
     0
440
 16777216
100
AcDbPoint
 10
36.23517390313021
 20
16.79122890704411
 30
0.0
  0
POINT
  5
2DCC
330
2CD3
100
AcDbEntity
  8
DEFPOINTS
 62
     0
440
 16777216
100
AcDbPoint
 10
36.23517390313021
 20
15.07733023116324
 30
0.0
  0
ENDBLK
  5
2CD5
330
2CD3
100
AcDbEntity
  8
0
100
AcDbBlockEnd
  0
BLOCK
  5
2CE1
330
2CE0
100
AcDbEntity
  8
0
100
AcDbBlockBegin
  2
*D21
 70
     1
 10
0.0
 20
0.0
 30
0.0
  3
*D21
  1

  0
LINE
  5
2DB9
330
2CE0
100
AcDbEntity
  8
DIMENSION
 62
     0
440
 16777216
370
    -2
100
AcDbLine
 10
36.42463914388097
 20
16.04890921862635
 30
0.0
 11
36.42463914388097
 21
14.89733023116324
 31
0.0
  0
LINE
  5
2DBA
330
2CE0
100
AcDbEntity
  8
DIMENSION
 62
     0
440
 16777216
370
    -2
100
AcDbLine
 10
41.42668914388096
 20
16.12372890704406
 30
0.0
 11
41.42668914388096
 21
14.89733023116324
 31
0.0
  0
LINE
  5
2DBB
330
2CE0
100
AcDbEntity
  8
DIMENSION
 62
     0
440
 16777216
370
    -2
100
AcDbLine
 10
36.60463914388097
 20
15.07733023116324
 30
0.0
 11
38.6689974772143
 21
15.07733023116324
 31
0.0
  0
LINE
  5
2DBC
330
2CE0
100
AcDbEntity
  8
DIMENSION
 62
     0
440
 16777216
370
    -2
100
AcDbLine
 10
41.24668914388096
 20
15.07733023116324
 30
0.0
 11
39.18233081054763
 21
15.07733023116324
 31
0.0
  0
SOLID
  5
2DBD
330
2CE0
100
AcDbEntity
  8
DIMENSION
 62
     0
440
 16777216
100
AcDbTrace
 10
36.60463914388097
 20
15.10733023116324
 30
0.0
 11
36.60463914388097
 21
15.04733023116324
 31
0.0
 12
36.42463914388097
 22
15.07733023116324
 32
0.0
 13
36.42463914388097
 23
15.07733023116324
 33
0.0
  0
SOLID
  5
2DBE
330
2CE0
100
AcDbEntity
  8
DIMENSION
 62
     0
440
 16777216
100
AcDbTrace
 10
41.24668914388096
 20
15.10733023116324
 30
0.0
 11
41.24668914388096
 21
15.04733023116324
 31
0.0
 12
41.42668914388096
 22
15.07733023116324
 32
0.0
 13
41.42668914388096
 23
15.07733023116324
 33
0.0
  0
MTEXT
  5
2DBF
330
2CE0
100
AcDbEntity
  8
DIMENSION
 62
     0
440
 16777216
100
AcDbMText
 10
38.92566414388097
 20
15.07733023116324
 30
0.0
 40
0.125
 41
0.0
 46
0.0
 71
     5
 72
     1
  1
\A1;5.00
 73
     1
 44
1.0
  0
POINT
  5
2DC0
330
2CE0
100
AcDbEntity
  8
DEFPOINTS
 62
     0
440
 16777216
100
AcDbPoint
 10
36.42463914388097
 20
16.11140921862635
 30
0.0
  0
POINT
  5
2DC1
330
2CE0
100
AcDbEntity
  8
DEFPOINTS
 62
     0
440
 16777216
100
AcDbPoint
 10
41.42668914388096
 20
16.18622890704407
 30
0.0
  0
POINT
  5
2DC2
330
2CE0
100
AcDbEntity
  8
DEFPOINTS
 62
     0
440
 16777216
100
AcDbPoint
 10
41.42668914388096
 20
15.07733023116324
 30
0.0
  0
ENDBLK
  5
2CE2
330
2CE0
100
AcDbEntity
  8
0
100
AcDbBlockEnd
  0
ENDSEC
  0
SECTION
  2
ENTITIES
  0
LINE
  5
2C23
330
26FE
100
AcDbEntity
  8
0
100
AcDbLine
 10
35.73570866237953
 20
17.25872890704407
 30
0.0
 11
35.73570866237953
 21
17.44872890704406
 31
0.0
  0
LINE
  5
2C24
330
26FE
100
AcDbEntity
  8
0
100
AcDbLine
 10
35.76570866237953
 20
17.22872890704407
 30
0.0
 11
35.73570866237953
 21
17.25872890704407
 31
0.0
  0
LINE
  5
2C25
102
{ACAD_REACTORS
330
2C5A
102
}
330
26FE
100
AcDbEntity
  8
0
100
AcDbLine
 10
41.42668914388095
 20
18.14622890704407
 30
0.0
 11
41.42668914388096
 21
16.18622890704407
 31
0.0
  0
LINE
  5
2C26
330
26FE
100
AcDbEntity
  8
0
100
AcDbLine
 10
42.05168914388096
 20
17.29126622979414
 30
0.0
 11
42.05168914388095
 21
17.04126622979415
 31
0.0
  0
LINE
  5
2C27
102
{ACAD_REACTORS
330
2C6E
102
}
330
26FE
100
AcDbEntity
  8
0
100
AcDbLine
 10
42.02168914388095
 20
17.01126622979415
 30
0.0
 11
42.05168914388095
 21
17.04126622979415
 31
0.0
  0
LINE
  5
2C28
330
26FE
100
AcDbEntity
  8
0
100
AcDbLine
 10
42.02168914388096
 20
17.32126622979414
 30
0.0
 11
42.05168914388096
 21
17.29126622979414
 31
0.0
  0
LINE
  5
2C29
102
{ACAD_REACTORS
330
2C72
102
}
330
26FE
100
AcDbEntity
  8
0
100
AcDbLine
 10
36.42463914388094
 20
18.22104859546177
 30
0.0
 11
36.42463914388095
 21
16.11140921862635
 31
0.0
  0
LINE
  5
2C2A
330
26FE
100
AcDbEntity
  8
0
100
AcDbLine
 10
36.56013914388097
 20
18.14622890704408
 30
0.0
 11
36.56013914388097
 21
16.18622890704407
 31
0.0
  0
LINE
  5
2C2B
330
26FE
100
AcDbEntity
  8
0
100
AcDbLine
 10
36.56013914388097
 20
16.27762890704409
 30
0.0
 11
36.56013914388097
 21
18.05482890704409
 31
0.0
  0
LINE
  5
2C2C
102
{ACAD_REACTORS
330
2C49
102
}
330
26FE
100
AcDbEntity
  8
0
100
AcDbLine
 10
36.23517390313022
 20
17.54122890704411
 30
0.0
 11
36.23517390313022
 21
16.79122890704411
 31
0.0
  0
LINE
  5
2C2D
102
{ACAD_REACTORS
330
2C75
330
2C78
102
}
330
26FE
100
AcDbEntity
  8
CAPACITOR
  6
Continuous
100
AcDbLine
 10
36.56013914388097
 20
16.11140921862635
 30
0.0
 11
36.42463914388097
 21
16.11140921862635
 31
0.0
  0
CIRCLE
  5
2C2E
102
{ACAD_REACTORS
330
2C53
102
}
330
26FE
100
AcDbEntity
  8
0
100
AcDbCircle
 10
35.88118928702751
 20
17.35372890704406
 30
0.0
 40
0.046875
  0
CIRCLE
  5
2C2F
330
26FE
100
AcDbEntity
  8
0
100
AcDbCircle
 10
31.49542270289243
 20
17.16622890704406
 30
0.0
 40
0.375
  0
LINE
  5
2C30
330
26FE
100
AcDbEntity
  8
0
100
AcDbLine
 10
35.76570866237953
 20
17.22872890704407
 30
0.0
 11
36.23517390313021
 21
17.22872890704407
 31
0.0
  0
LINE
  5
2C31
330
26FE
100
AcDbEntity
  8
0
100
AcDbLine
 10
35.76570866237953
 20
17.47872890704406
 30
0.0
 11
36.23517390313021
 21
17.47872890704406
 31
0.0
  0
LINE
  5
2C32
330
26FE
100
AcDbEntity
  8
0
100
AcDbLine
 10
35.73570866237953
 20
17.44872890704406
 30
0.0
 11
35.76570866237953
 21
17.47872890704406
 31
0.0
  0
LINE
  5
2C33
330
26FE
100
AcDbEntity
  8
0
100
AcDbLine
 10
35.73570866237953
 20
17.07372890704405
 30
0.0
 11
35.73570866237953
 21
16.88372890704406
 31
0.0
  0
LINE
  5
2C34
330
26FE
100
AcDbEntity
  8
0
100
AcDbLine
 10
35.76570866237953
 20
17.10372890704405
 30
0.0
 11
35.73570866237953
 21
17.07372890704405
 31
0.0
  0
CIRCLE
  5
2C35
102
{ACAD_REACTORS
330
2C53
102
}
330
26FE
100
AcDbEntity
  8
0
100
AcDbCircle
 10
35.88118928702751
 20
16.97872890704406
 30
0.0
 40
0.046875
  0
LINE
  5
2C36
102
{ACAD_REACTORS
330
2C50
102
}
330
26FE
100
AcDbEntity
  8
0
100
AcDbLine
 10
35.76570866237953
 20
17.10372890704405
 30
0.0
 11
36.23517390313021
 21
17.10372890704405
 31
0.0
  0
LINE
  5
2C37
102
{ACAD_REACTORS
330
2C50
102
}
330
26FE
100
AcDbEntity
  8
0
100
AcDbLine
 10
35.76570866237953
 20
16.85372890704406
 30
0.0
 11
36.23517390313021
 21
16.85372890704406
 31
0.0
  0
LINE
  5
2C38
102
{ACAD_REACTORS
330
2C49
102
}
330
26FE
100
AcDbEntity
  8
0
100
AcDbLine
 10
35.73570866237953
 20
16.88372890704406
 30
0.0
 11
35.76570866237953
 21
16.85372890704406
 31
0.0
  0
LINE
  5
2C39
330
26FE
100
AcDbEntity
  8
0
100
AcDbLine
 10
31.3849388691268
 20
17.22872890704407
 30
0.0
 11
31.60590653665807
 21
17.22872890704407
 31
0.0
  0
LINE
  5
2C3A
330
26FE
100
AcDbEntity
  8
0
100
AcDbLine
 10
31.3849388691268
 20
17.47872890704406
 30
0.0
 11
31.60590653665807
 21
17.47872890704407
 31
0.0
  0
LINE
  5
2C3B
330
26FE
100
AcDbEntity
  8
0
100
AcDbLine
 10
31.3849388691268
 20
16.85372890704406
 30
0.0
 11
31.60590653665804
 21
16.85372890704406
 31
0.0
  0
LINE
  5
2C3C
330
26FE
100
AcDbEntity
  8
0
100
AcDbLine
 10
31.38493886912681
 20
17.10372890704406
 30
0.0
 11
31.60590653665803
 21
17.10372890704406
 31
0.0
  0
LINE
  5
2C3D
330
26FE
100
AcDbEntity
  8
0
100
AcDbLine
 10
31.3849388691268
 20
16.85372890704406
 30
0.0
 11
31.38493886912681
 21
17.10372890704406
 31
0.0
  0
LINE
  5
2C3E
330
26FE
100
AcDbEntity
  8
0
100
AcDbLine
 10
31.3849388691268
 20
17.22872890704407
 30
0.0
 11
31.3849388691268
 21
17.47872890704406
 31
0.0
  0
LINE
  5
2C3F
330
26FE
100
AcDbEntity
  8
0
100
AcDbLine
 10
31.60590653665804
 20
16.85372890704406
 30
0.0
 11
31.60590653665803
 21
17.10372890704406
 31
0.0
  0
LINE
  5
2C40
330
26FE
100
AcDbEntity
  8
0
100
AcDbLine
 10
31.57590653665804
 20
16.85372890704406
 30
0.0
 11
31.57590653665803
 21
17.10372890704406
 31
0.0
  0
LINE
  5
2C41
330
26FE
100
AcDbEntity
  8
0
100
AcDbLine
 10
31.60590653665807
 20
17.22872890704407
 30
0.0
 11
31.60590653665807
 21
17.47872890704407
 31
0.0
  0
LINE
  5
2C42
330
26FE
100
AcDbEntity
  8
0
100
AcDbLine
 10
31.41071845632503
 20
17.22872890704407
 30
0.0
 11
31.41071845632503
 21
17.47872890704406
 31
0.0
  0
CIRCLE
  5
2C43
330
26FE
100
AcDbEntity
  8
0
100
AcDbCircle
 10
31.49542270289241
 20
16.97872890704407
 30
0.0
 40
0.024010450084667
  0
CIRCLE
  5
2C44
330
26FE
100
AcDbEntity
  8
0
100
AcDbCircle
 10
31.49542270289241
 20
17.35372890704406
 30
0.0
 40
0.024010450084667
  0
LINE
  5
2C45
330
26FE
100
AcDbEntity
  8
0
100
AcDbLine
 10
36.23517390313021
 20
17.5412289070441
 30
0.0
 11
36.42463914388095
 21
17.54122890704411
 31
0.0
  0
LINE
  5
2C46
102
{ACAD_REACTORS
330
2C75
102
}
330
26FE
100
AcDbEntity
  8
0
100
AcDbLine
 10
36.23517390313021
 20
16.79122890704411
 30
0.0
 11
36.42463914388095
 21
16.79122890704411
 31
0.0
  0
DIMENSION
  5
2C47
102
{ACAD_XDICTIONARY
360
2C48
102
}
102
{ACAD_REACTORS
330
2C49
102
}
330
26FE
100
AcDbEntity
  8
DIMENSION
100
AcDbDimension
280
     0
  2
*D14
 10
35.73570866237953
 20
15.5243789465104
 30
0.0
 11
35.11904199571286
 21
15.5243789465104
 31
0.0
 70
    32
 71
     5
 42
0.4994652407506948
 73
     0
 74
     0
 75
     0
  3
ENGLISH
100
AcDbAlignedDimension
 13
36.23517390313022
 23
16.79122890704411
 33
0.0
 14
35.73570866237953
 24
16.88372890704406
 34
0.0
100
AcDbRotatedDimension
1001
ACAD
1000
DSTYLE
1002
{
1070
    40
1040
1.0
1070
   271
1070
     2
1070
   272
1070
     2
1070
   279
1070
     0
1070
   340
1005
26E4
1002
}
  0
CIRCLE
  5
2C4A
330
26FE
100
AcDbEntity
  8
0
100
AcDbCircle
 10
31.49542270289243
 20
17.16622890704406
 30
0.0
 40
0.3421303268963314
  0
DIMENSION
  5
2C4E
102
{ACAD_XDICTIONARY
360
2C4F
102
}
102
{ACAD_REACTORS
330
2C50
102
}
330
26FE
100
AcDbEntity
  8
DIMENSION
100
AcDbDimension
280
     0
  2
*D15
 10
35.48334733738204
 20
17.10372890704405
 30
0.0
 11
35.03626400404871
 21
15.89375290704407
 31
0.0
 70
   160
 71
     5
 42
0.2499999999999929
 73
     0
 74
     0
 75
     0
  3
ENGLISH
100
AcDbAlignedDimension
 13
35.76570866237953
 23
16.85372890704406
 33
0.0
 14
35.76570866237953
 24
17.10372890704405
 34
0.0
 50
90.0
100
AcDbRotatedDimension
1001
ACAD
1000
DSTYLE
1002
{
1070
    40
1040
1.0
1070
   271
1070
     2
1070
   272
1070
     2
1070
   279
1070
     0
1070
   340
1005
26E4
1002
}
  0
DIMENSION
  5
2C51
102
{ACAD_XDICTIONARY
360
2C52
102
}
102
{ACAD_REACTORS
330
2C53
102
}
330
26FE
100
AcDbEntity
  8
DIMENSION
100
AcDbDimension
280
     0
  2
*D16
 10
35.03442234068032
 20
17.35372890704406
 30
0.0
 11
35.03442234068032
 21
17.16622890704407
 31
0.0
 70
    32
 71
     5
 42
0.375
 73
     0
 74
     0
 75
     0
  3
ENGLISH
100
AcDbAlignedDimension
 13
35.88118928702751
 23
16.97872890704406
 33
0.0
 14
35.88118928702751
 24
17.35372890704406
 34
0.0
 50
90.0
100
AcDbRotatedDimension
1001
ACAD
1000
DSTYLE
1002
{
1070
    40
1040
1.0
1070
   271
1070
     2
1070
   272
1070
     2
1070
   279
1070
     0
1070
   340
1005
26E4
1002
}
  0
LINE
  5
2C54
330
26FE
100
AcDbEntity
  8
0
100
AcDbLine
 10
41.42668914388095
 20
17.01126622979415
 30
0.0
 11
42.02168914388095
 21
17.01126622979415
 31
0.0
  0
LINE
  5
2C55
330
26FE
100
AcDbEntity
  8
0
100
AcDbLine
 10
41.42668914388096
 20
17.32126622979415
 30
0.0
 11
42.02168914388096
 21
17.32126622979414
 31
0.0
  0
LINE
  5
2C56
102
{ACAD_REACTORS
330
2C6E
330
2C78
102
}
330
26FE
100
AcDbEntity
  8
0
100
AcDbLine
 10
36.56013914388097
 20
16.18622890704407
 30
0.0
 11
41.42668914388096
 21
16.18622890704407
 31
0.0
  0
LINE
  5
2C57
330
26FE
100
AcDbEntity
  8
0
100
AcDbLine
 10
36.56013914388097
 20
18.14622890704406
 30
0.0
 11
41.42668914388095
 21
18.14622890704407
 31
0.0
  0
DIMENSION
  5
2C58
102
{ACAD_XDICTIONARY
360
2C59
102
}
102
{ACAD_REACTORS
330
2C5A
102
}
330
26FE
100
AcDbEntity
  8
DIMENSION
100
AcDbDimension
280
     0
  2
*D17
 10
42.58866788340182
 20
16.18622890704407
 30
0.0
 11
42.58866788340181
 21
17.16622890704407
 31
0.0
 70
    32
 71
     5
 42
1.96
 73
     0
 74
     0
 75
     0
  3
ENGLISH
100
AcDbAlignedDimension
 13
41.42668914388095
 23
18.14622890704407
 33
0.0
 14
41.42668914388096
 24
16.18622890704407
 34
0.0
 50
90.0
100
AcDbRotatedDimension
1001
ACAD
1000
DSTYLE
1002
{
1070
    40
1040
1.0
1070
   271
1070
     2
1070
   272
1070
     2
1070
   279
1070
     0
1070
   340
1005
26E4
1002
}
  0
LINE
  5
2C5B
330
26FE
100
AcDbEntity
  8
0
100
AcDbLine
 10
36.56013914388097
 20
18.22104859546177
 30
0.0
 11
36.42463914388097
 21
18.22104859546177
 31
0.0
  0
LINE
  5
2C5C
330
26FE
100
AcDbEntity
  8
0
100
AcDbLine
 10
36.56013914388097
 20
16.11140921862635
 30
0.0
 11
36.56013914388097
 21
18.22104859546177
 31
0.0
  0
CIRCLE
  5
2C5D
330
26FE
100
AcDbEntity
  8
0
100
AcDbCircle
 10
31.49542270289244
 20
17.16622890704408
 30
0.0
 40
1.054819688417737
  0
LEADER
  5
2C5E
330
26FE
100
AcDbEntity
  8
DIMENSION
100
AcDbLeader
  3
ENGLISH
 76
     3
 10
41.83334655361295
 20
17.31294118632485
 30
0.0
 10
41.83334655361295
 20
18.8096511748726
 30
0.0
 10
41.5712157540338
 20
18.8096511748726
 30
0.0
1001
ACAD
1000
DSTYLE
1002
{
1070
    40
1040
1.0
1070
   271
1070
     2
1070
   272
1070
     2
1070
   279
1070
     0
1070
   340
1005
26E4
1002
}
  0
TEXT
  5
2C5F
330
26FE
100
AcDbEntity
  8
DIMENSION
100
AcDbText
 10
41.22170801126688
 20
18.75977137758167
 30
0.0
 40
0.12
  1
M8
100
AcDbText
  0
LINE
  5
2C60
330
26FE
100
AcDbEntity
  8
0
100
AcDbLine
 10
42.02168914388095
 20
17.01126622979415
 30
0.0
 11
42.02168914388096
 21
17.32126622979414
 31
0.0
  0
LINE
  5
2C61
330
26FE
100
AcDbEntity
  8
0
100
AcDbLine
 10
41.97701975066666
 20
17.29126622979414
 30
0.0
 11
41.97701975066666
 21
17.04126622979415
 31
0.0
  0
LINE
  5
2C62
330
26FE
100
AcDbEntity
  8
0
100
AcDbLine
 10
41.92710794046138
 20
17.01126622979415
 30
0.0
 11
41.92710794046138
 21
17.32126622979414
 31
0.0
  0
LINE
  5
2C63
330
26FE
100
AcDbEntity
  8
0
100
AcDbLine
 10
41.87719613025609
 20
17.29126622979414
 30
0.0
 11
41.87719613025609
 21
17.04126622979415
 31
0.0
  0
LINE
  5
2C64
330
26FE
100
AcDbEntity
  8
0
100
AcDbLine
 10
41.8272843200508
 20
17.01126622979415
 30
0.0
 11
41.8272843200508
 21
17.32126622979414
 31
0.0
  0
LINE
  5
2C65
330
26FE
100
AcDbEntity
  8
0
100
AcDbLine
 10
41.77737250984551
 20
17.29126622979414
 30
0.0
 11
41.77737250984551
 21
17.04126622979415
 31
0.0
  0
LINE
  5
2C66
330
26FE
100
AcDbEntity
  8
0
100
AcDbLine
 10
41.72746069964023
 20
17.01126622979415
 30
0.0
 11
41.72746069964023
 21
17.32126622979414
 31
0.0
  0
LINE
  5
2C67
330
26FE
100
AcDbEntity
  8
0
100
AcDbLine
 10
41.67754888943494
 20
17.29126622979414
 30
0.0
 11
41.67754888943494
 21
17.04126622979415
 31
0.0
  0
LINE
  5
2C68
330
26FE
100
AcDbEntity
  8
0
100
AcDbLine
 10
41.62763707922965
 20
17.01126622979415
 30
0.0
 11
41.62763707922965
 21
17.32126622979414
 31
0.0
  0
LINE
  5
2C69
330
26FE
100
AcDbEntity
  8
0
100
AcDbLine
 10
41.57772526902436
 20
17.29126622979414
 30
0.0
 11
41.57772526902436
 21
17.04126622979415
 31
0.0
  0
LINE
  5
2C6A
330
26FE
100
AcDbEntity
  8
0
100
AcDbLine
 10
41.52781345881908
 20
17.01126622979415
 30
0.0
 11
41.52781345881908
 21
17.32126622979414
 31
0.0
  0
LINE
  5
2C6B
330
26FE
100
AcDbEntity
  8
0
100
AcDbLine
 10
41.47790164861379
 20
17.29126622979414
 30
0.0
 11
41.47790164861379
 21
17.04126622979415
 31
0.0
  0
DIMENSION
  5
2C6C
102
{ACAD_XDICTIONARY
360
2C6D
102
}
102
{ACAD_REACTORS
330
2C6E
102
}
330
26FE
100
AcDbEntity
  8
DIMENSION
100
AcDbDimension
280
     0
  2
*D18
 10
42.05168914388095
 20
15.08597046057342
 30
0.0
 11
42.49877247721428
 21
15.08597046057342
 31
0.0
 70
    32
 71
     5
 42
0.6249999999999929
 73
     0
 74
     0
 75
     0
  3
ENGLISH
100
AcDbAlignedDimension
 13
41.42668914388096
 23
16.18622890704407
 33
0.0
 14
42.05168914388095
 24
17.04126622979415
 34
0.0
100
AcDbRotatedDimension
1001
ACAD
1000
DSTYLE
1002
{
1070
    40
1040
1.0
1070
   271
1070
     2
1070
   272
1070
     2
1070
   279
1070
     0
1070
   340
1005
26E4
1002
}
  0
CIRCLE
  5
2C6F
330
26FE
100
AcDbEntity
  8
0
100
AcDbCircle
 10
31.49542270289244
 20
17.16622890704408
 30
0.0
 40
1.002107151828371
  0
DIMENSION
  5
2C70
102
{ACAD_XDICTIONARY
360
2C71
102
}
102
{ACAD_REACTORS
330
2C72
102
}
330
26FE
100
AcDbEntity
  8
DIMENSION
100
AcDbDimension
280
     0
  2
*D19
 10
34.55667482457744
 20
16.11140921862635
 30
0.0
 11
34.55667482457744
 21
17.16622890704406
 31
0.0
 70
    32
 71
     5
 42
2.109639376835424
 73
     0
 74
     0
 75
     0
  3
ENGLISH
100
AcDbAlignedDimension
 13
36.42463914388094
 23
18.22104859546177
 33
0.0
 14
36.42463914388095
 24
16.11140921862635
 34
0.0
 50
90.0
100
AcDbRotatedDimension
1001
ACAD
1000
DSTYLE
1002
{
1070
    40
1040
1.0
1070
   271
1070
     2
1070
   272
1070
     2
1070
   279
1070
     0
1070
   340
1005
26E4
1002
}
  0
DIMENSION
  5
2C73
102
{ACAD_XDICTIONARY
360
2C74
102
}
102
{ACAD_REACTORS
330
2C75
102
}
330
26FE
100
AcDbEntity
  8
DIMENSION
100
AcDbDimension
280
     0
  2
*D20
 10
36.23517390313021
 20
15.07733023116324
 30
0.0
 11
35.6289239031302
 21
15.07733023116324
 31
0.0
 70
    32
 71
     5
 42
0.1894652407507635
 73
     0
 74
     0
 75
     0
  3
ENGLISH
100
AcDbAlignedDimension
 13
36.42463914388097
 23
16.11140921862635
 33
0.0
 14
36.23517390313021
 24
16.79122890704411
 34
0.0
100
AcDbRotatedDimension
1001
ACAD
1000
DSTYLE
1002
{
1070
    40
1040
1.0
1070
   271
1070
     2
1070
   272
1070
     2
1070
   279
1070
     0
1070
   340
1005
26E4
1002
}
  0
DIMENSION
  5
2C76
102
{ACAD_XDICTIONARY
360
2C77
102
}
102
{ACAD_REACTORS
330
2C78
102
}
330
26FE
100
AcDbEntity
  8
DIMENSION
100
AcDbDimension
280
     0
  2
*D21
 10
41.42668914388096
 20
15.07733023116324
 30
0.0
 11
38.92566414388097
 21
15.07733023116324
 31
0.0
 70
    32
 71
     5
 42
5.002049999999996
 73
     0
 74
     0
 75
     0
  3
ENGLISH
100
AcDbAlignedDimension
 13
36.42463914388097
 23
16.11140921862635
 33
0.0
 14
41.42668914388096
 24
16.18622890704407
 34
0.0
100
AcDbRotatedDimension
1001
ACAD
1000
DSTYLE
1002
{
1070
    40
1040
1.0
1070
   271
1070
     2
1070
   272
1070
     2
1070
   279
1070
     0
1070
   340
1005
26E4
1002
}
  0
LINE
  5
2E22
330
26FE
100
AcDbEntity
  8
DIMENSION
100
AcDbLine
 10
32.58032701325777
 20
18.1558099524799
 30
0.0
 11
32.44665055610709
 21
18.1558099524799
 31
0.0
  0
LINE
  5
2E23
330
26FE
100
AcDbEntity
  8
DIMENSION
100
AcDbLine
 10
32.44665055610709
 20
18.1558099524799
 30
0.0
 11
31.88003660855085
 21
17.56635031808598
 31
0.0
  0
MTEXT
  5
2E24
330
26FE
100
AcDbEntity
  8
DIMENSION
100
AcDbMText
 10
32.90991034659111
 20
18.15580995247991
 30
0.0
 40
0.125
 41
0.0
 46
0.0
 71
     5
 72
     1
  1
\A1;∅0.75
 73
     1
 44
1.0
  0
SOLID
  5
2E25
330
26FE
100
AcDbEntity
  8
DIMENSION
100
AcDbTrace
 10
31.85840842417021
 20
17.58714025893238
 30
0.0
 11
31.9016647929315
 21
17.54556037723958
 31
0.0
 12
31.75529696347244
 22
17.43658121180212
 32
0.0
 13
31.75529696347244
 23
17.43658121180212
 33
0.0
  0
LINE
  5
2E26
330
26FE
100
AcDbEntity
  8
DIMENSION
100
AcDbLine
 10
31.40542270289243
 20
17.16622890704407
 30
0.0
 11
31.58542270289244
 21
17.16622890704407
 31
0.0
  0
LINE
  5
2E27
330
26FE
100
AcDbEntity
  8
DIMENSION
100
AcDbLine
 10
31.49542270289244
 20
17.07622890704407
 30
0.0
 11
31.49542270289244
 21
17.25622890704407
 31
0.0
  0
VIEWPORT
  5
27F9
102
{ACAD_XDICTIONARY
360
27FA
102
}
330
26FA
100
AcDbEntity
 67
     1
  8
0
100
AcDbViewport
 10
8.372406886363179
 20
5.525808622916172
 30
0.0
 40
22.387201013105
 41
9.69561603412661
 68
     1
 69
     1
 12
8.372406886363179
 22
5.525808622916172
 13
0.0
 23
0.0
 14
0.5
 24
0.5
 15
0.5
 25
0.5
 16
0.0
 26
0.0
 36
1.0
 17
0.0
 27
0.0
 37
0.0
 42
50.0
 43
0.0
 44
0.0
 45
9.69561603412661
 50
0.0
 51
0.0
 72
   100
 90
   819232
  1

281
     0
 71
     1
 74
     0
110
0.0
120
0.0
130
0.0
111
1.0
121
0.0
131
0.0
112
0.0
122
1.0
132
0.0
 79
     0
146
0.0
170
     0
 61
     5
348
26BE
292
     1
282
     0
141
0.0
142
0.0
 63
   250
421
  3355443
  0
INSERT
  5
28DB
330
26FA
100
AcDbEntity
 67
     1
  8
BORDER
 62
     7
100
AcDbBlockReference
 66
     1
  2
A$C04876F98
 10
8.881855097048923
 20
0.0108468281093482
 30
0.0
 41
0.8974964847265223
 42
0.8974964847265223
 43
0.8974964847265223
  0
ATTRIB
  5
28DC
330
28DB
100
AcDbEntity
 67
     1
  8
0
100
AcDbText
 10
15.58503195030156
 20
0.2352209445166893
 30
0.0
 40
0.1682805908862229
  1
22608
 41
0.8000000000000001
100
AcDbAttribute
280
     0
  2
DWGNO
 70
     0
280
     0
  0
ATTRIB
  5
28DD
330
28DB
100
AcDbEntity
 67
     1
  8
0
100
AcDbText
 10
13.73394545055311
 20
0.2632677096643932
 30
0.0
 40
0.1121870605908153
  1
RJC
 41
0.8
100
AcDbAttribute
280
     0
  2
DRNBY
 70
     0
280
     0
  0
ATTRIB
  5
28DE
330
28DB
100
AcDbEntity
 67
     1
  8
0
100
AcDbText
 10
14.49120810954111
 20
0.2632677096643932
 30
0.0
 40
0.1121870605908153
  1
11/12/11
 41
0.9583333333333388
 72
     5
 11
15.1362837079383
 21
0.2632677096643932
 31
0.0
100
AcDbAttribute
280
     0
  2
DATE
 70
     0
280
     0
  0
ATTRIB
  5
28DF
330
28DB
100
AcDbEntity
 67
     1
  8
0
100
AcDbText
 10
13.6778519202577
 20
0.0388935884827626
 30
0.0
 40
0.1121870605908153
  1
TO FIT
 41
0.8
100
AcDbAttribute
280
     0
  2
SCALE
 70
     0
280
     0
  0
ATTRIB
  5
28E0
330
28DB
100
AcDbEntity
 67
     1
  8
0
100
AcDbText
 10
17.84317517830914
 20
0.0108468233350578
 30
0.0
 40
0.1121870605908153
  1

 41
0.8
100
AcDbAttribute
280
     0
  2
APRVD
 70
     0
280
     0
  0
ATTRIB
  5
28E1
330
28DB
100
AcDbEntity
 67
     1
  8
0
100
AcDbText
 10
16.14596725325564
 20
0.0388935884827626
 30
0.0
 40
0.1121870605908153
  1
1
 41
0.8
100
AcDbAttribute
280
     0
  2
SHT
 70
     0
280
     0
  0
ATTRIB
  5
28E2
330
28DB
100
AcDbEntity
 67
     1
  8
0
100
AcDbText
 10
16.51474650450151
 20
0.0388935884827626
 30
0.0
 40
0.1121870605908153
  1
1
 41
0.8
100
AcDbAttribute
280
     0
  2
OFSHT
 70
     0
280
     0
  0
ATTRIB
  5
28E3
330
28DB
100
AcDbEntity
 67
     1
  8
0
100
AcDbText
 10
13.50957132937148
 20
0.7961562474707657
 30
0.0
 40
0.1682805908862229
  1
1000VDC, 32uF, 18AMP
 41
0.8000000000000001
100
AcDbAttribute
280
     0
  2
DESC1
 70
     0
280
     0
  0
ATTRIB
  5
28E4
330
28DB
100
AcDbEntity
 67
     1
  8
0
100
AcDbText
 10
13.50957132937148
 20
0.5437353611414313
 30
0.0
 40
0.1682805908862229
  1
CAPACITOR
 41
0.8000000000000001
100
AcDbAttribute
280
     0
  2
DESC2
 70
     0
280
     0
  0
ATTRIB
  5
28E5
330
28DB
100
AcDbEntity
 67
     1
  8
0
100
AcDbText
 10
12.9486360264174
 20
0.9924836035046924
 30
0.0
 40
0.1121870605908153
  1
.03
 41
0.8
100
AcDbAttribute
280
     0
  2
TOLXX
 70
     0
280
     0
  0
ATTRIB
  5
28E6
330
28DB
100
AcDbEntity
 67
     1
  8
0
100
AcDbText
 10
12.9486360264174
 20
0.7681094823230619
 30
0.0
 40
0.1121870605908153
  1
.01
 41
0.8
100
AcDbAttribute
280
     0
  2
TOLXXX
 70
     0
280
     0
  0
ATTRIB
  5
28E7
330
28DB
100
AcDbEntity
 67
     1
  8
0
100
AcDbText
 10
12.72426190523577
 20
0.431548300550616
 30
0.0
 40
0.1121870605908153
  1
1/32
 41
0.8
100
AcDbAttribute
280
     0
  2
TOLFRAC
 70
     0
280
     0
  0
ATTRIB
  5
28E8
330
28DB
100
AcDbEntity
 67
     1
  8
0
100
AcDbText
 10
12.72426190523577
 20
0.0949871187781701
 30
0.0
 40
0.1121870605908153
  1
1/2%%d
 41
0.8
100
AcDbAttribute
280
     0
  2
TOLANG
 70
     0
280
     0
  0
ATTRIB
  5
28E9
330
28DB
100
AcDbEntity
 67
     1
  8
0
100
AcDbText
 10
14.67640105348548
 20
0.0282696476568366
 30
0.0
 40
0.1794992969453045
  1
B
 41
0.8
100
AcDbAttribute
280
     0
  2
DWG.SIZE
 70
     0
280
     0
  0
SEQEND
  5
28EA
330
28DB
100
AcDbEntity
 67
     1
  8
BORDER
 62
     7
  0
LWPOLYLINE
  5
2936
330
26FA
100
AcDbEntity
 67
     1
  8
DIMENSION
100
AcDbPolyline
 90
        4
 70
     1
 43
0.0
 10
16.73494932135742
 20
0.0108468233350578
 10
0.0095636420571165
 20
0.0108468233350578
 10
0.0095636420571171
 20
10.73909323243598
 10
16.73494932135742
 20
10.73909323243598
1001
GENIUS_GENREC_14
1002
{
1000
PYDIR
1011
16.74426112160151
1021
10.68661178696871
1031
0.0
1002
}
1002
{
1000
PXDIR
1011
0.0411853613576625
1021
0.003621390258445
1031
0.0
1002
}
1002
{
1000
PORI
1011
16.74426112160151
1021
0.003621390258445
1031
0.0
1002
}
1002
{
1000
PINS
1011
16.74426112160151
1021
0.003621390258445
1031
0.0
1002
}
1002
{
1000
PINS2
1011
0.0411853613576625
1021
10.68661178696871
1031
0.0
1002
}
1002
{
1000
C
1070
     1
1002
}
1001
GENIUS_GENODEF_13
1002
{
1000
HIER
1070
     0
1002
}
1002
{
1000
MANEDIT
1070
     0
1002
}
1002
{
1000
NOSEL
1070
     0
1002
}
1002
{
1000
BEHIND
1070
     0
1002
}
1002
{
1000
OTHER
1070
     0
1002
}
1002
{
1000
REACTOR
1002
}
1001
GENIUS_GENOBJ-N-REC_13
1002
{
1000
OWNER
1000
GEN
1002
}
  0
VIEWPORT
  5
2E74
102
{ACAD_XDICTIONARY
360
2E75
102
}
330
26FA
100
AcDbEntity
 67
     1
  8
AM_VIEWS
100
AcDbViewport
 10
8.372256481707267
 20
6.160279452021229
 30
0.0
 40
16.7253856793003
 41
9.157627560829512
 68
     2
 69
     2
 12
36.60414684418537
 22
16.88853455269384
 13
0.0
 23
0.0
 14
0.5
 24
0.5
 15
0.5
 25
0.5
 16
0.0
 26
0.0
 36
1.0
 17
0.0
 27
0.0
 37
0.0
 42
50.0
 43
0.0
 44
0.0
 45
6.783077050932919
 50
0.0
 51
0.0
 72
   100
 90
   819232
  1

281
     0
 71
     1
 74
     0
110
-1.484480987389261
120
1.948961508837633
130
0.0
111
1.0
121
0.0
131
0.0
112
0.0
122
1.0
132
0.0
 79
     0
146
0.0
170
     0
 61
     5
348
26BE
292
     1
282
     0
141
0.0
142
0.0
 63
   250
421
  3355443
1001
GENIUS_GENODEF_13
1002
{
1000
HIER
1070
     0
1002
}
1002
{
1000
MANEDIT
1070
     0
1002
}
1002
{
1000
NOSEL
1070
     0
1002
}
1002
{
1000
BEHIND
1070
     0
1002
}
1002
{
1000
OTHER
1070
     0
1002
}
1002
{
1000
REACTOR
1002
}
1001
GENIUS_GENOBJ-N-SDF_13
1002
{
1000
OWNER
1000
GEN
1002
}
1001
GENIUS_GENSCREG_15
1000
PF
1040
0.0
1000
DF
1040
0.0
1000
MIN
1011
0.0095636420571168
1021
1.581465671606473
1031
0.0
1000
MAX
1011
16.73494932135742
1021
10.73909323243598
1031
0.0
1000
FLAGS
1070
     4
  0
MTEXT
  5
304C
330
26FA
100
AcDbEntity
 67
     1
  8
DIMENSION
100
AcDbMText
 10
8.909217083388625
 20
0.4518755560165993
 30
0.0
 40
0.2
 41
0.0
 46
0.0
 71
     1
 72
     5
  1
A
 73
     1
 44
1.0
  0
MTEXT
  5
304D
330
26FA
100
AcDbEntity
 67
     1
  8
DIMENSION
100
AcDbMText
 10
9.133591204570256
 20
0.3909316289896942
 30
0.0
 40
0.0880093019434639
 41
0.0
 46
0.0
 71
     1
 72
     5
  1
3240 UPDATE CAP DIMS.
 73
     1
 44
1.0
  0
MTEXT
  5
304E
330
26FA
100
AcDbEntity
 67
     1
  8
DIMENSION
100
AcDbMText
 10
11.38346758468757
 20
0.3675396109040379
 30
0.0
 40
0.0880093019434639
 41
0.0
 46
0.0
 71
     1
 72
     5
  1
12/18/14
 73
     1
 44
1.0
  0
MTEXT
  5
304F
330
26FA
100
AcDbEntity
 67
     1
  8
DIMENSION
100
AcDbMText
 10
12.02704738107226
 20
0.4518755560165993
 30
0.0
 40
0.2
 41
0.0
 46
0.0
 71
     1
 72
     5
  1
DW
 73
     1
 44
1.0
  0
ENDSEC
  0
SECTION
  2
OBJECTS
  0
DICTIONARY
  5
269B
330
0
100
AcDbDictionary
281
     1
  3
ACAD_CIP_PREVIOUS_PRODUCT_INFO
350
2726
  3
ACAD_COLOR
350
26F1
  3
ACAD_DETAILVIEWSTYLE
350
26F8
  3
ACAD_FIELDLIST
350
278D
  3
ACAD_GROUP
350
269C
  3
ACAD_LAYOUT
350
26F0
  3
ACAD_MATERIAL
350
269F
  3
ACAD_MLEADERSTYLE
350
26F4
  3
ACAD_MLINESTYLE
350
26ED
  3
ACAD_PLOTSETTINGS
350
26EF
  3
ACAD_PLOTSTYLENAME
350
269D
  3
ACAD_SCALELIST
350
26D1
  3
ACAD_SECTIONVIEWSTYLE
350
26F6
  3
ACAD_TABLESTYLE
350
26F2
  3
ACAD_VISUALSTYLE
350
26B8
  3
ACDB_RECOMPOSE_DATA
350
30C7
  3
AcDbVariableDictionary
350
27CF
  3
AcmDictionary
350
2751
  3
AMG
350
2727
  3
AMGSNAPSETTINGS
350
2798
  0
DICTIONARY
  5
27F1
330
2691
100
AcDbDictionary
280
     1
281
     1
  3
ACAD_LAYERSTATES
360
27F2
  0
DICTIONARY
  5
27B9
330
26E3
100
AcDbDictionary
280
     1
281
     1
  3
ADSK_XREC_LAYER_RECONCILED
360
2AFB
  0
DICTIONARY
  5
27BB
330
2702
100
AcDbDictionary
280
     1
281
     1
  3
ADSK_XREC_LAYER_RECONCILED
360
2AFC
  0
DICTIONARY
  5
27BD
330
2708
100
AcDbDictionary
280
     1
281
     1
  3
ADSK_XREC_LAYER_RECONCILED
360
2AFD
  0
DICTIONARY
  5
27BF
330
2709
100
AcDbDictionary
280
     1
281
     1
  3
ADSK_XREC_LAYER_RECONCILED
360
2AFE
  0
DICTIONARY
  5
27C1
330
270A
100
AcDbDictionary
280
     1
281
     1
  3
ADSK_XREC_LAYER_RECONCILED
360
2AFF
  0
DICTIONARY
  5
27C3
330
270B
100
AcDbDictionary
280
     1
281
     1
  3
ADSK_XREC_LAYER_RECONCILED
360
2B00
  0
DICTIONARY
  5
2B01
330
270C
100
AcDbDictionary
280
     1
281
     1
  3
ADSK_XREC_LAYER_RECONCILED
360
2B02
  0
DICTIONARY
  5
27C5
330
270D
100
AcDbDictionary
280
     1
281
     1
  3
ADSK_XREC_LAYER_RECONCILED
360
2B03
  0
DICTIONARY
  5
2892
330
2891
100
AcDbDictionary
280
     1
281
     1
  3
ADSK_XREC_LAYER_RECONCILED
360
2B04
  0
DICTIONARY
  5
29EF
330
2958
100
AcDbDictionary
280
     1
281
     1
  3
ADSK_XREC_LAYER_RECONCILED
360
2B05
  0
DICTIONARY
  5
2E28
330
26FE
100
AcDbDictionary
280
     1
281
     1
  3
ACAD_SORTENTS
360
2E29
  0
DICTIONARY
  5
28ED
330
26FA
100
AcDbDictionary
280
     1
281
     1
  3
ACAD_SORTENTS
360
28EE
  0
DICTIONARY
  5
2815
330
2814
100
AcDbDictionary
280
     1
281
     1
  0
DICTIONARY
  5
288D
330
288C
100
AcDbDictionary
280
     1
281
     1
  0
DICTIONARY
  5
2C48
330
2C47
100
AcDbDictionary
280
     1
281
     1
  3
ACAD_DIMASSOC
360
2C49
  0
DICTIONARY
  5
2C4F
330
2C4E
100
AcDbDictionary
280
     1
281
     1
  3
ACAD_DIMASSOC
360
2C50
  0
DICTIONARY
  5
2C52
330
2C51
100
AcDbDictionary
280
     1
281
     1
  3
ACAD_DIMASSOC
360
2C53
  0
DICTIONARY
  5
2C59
330
2C58
100
AcDbDictionary
280
     1
281
     1
  3
ACAD_DIMASSOC
360
2C5A
  0
DICTIONARY
  5
2C6D
330
2C6C
100
AcDbDictionary
280
     1
281
     1
  3
ACAD_DIMASSOC
360
2C6E
  0
DICTIONARY
  5
2C71
330
2C70
100
AcDbDictionary
280
     1
281
     1
  3
ACAD_DIMASSOC
360
2C72
  0
DICTIONARY
  5
2C74
330
2C73
100
AcDbDictionary
280
     1
281
     1
  3
ACAD_DIMASSOC
360
2C75
  0
DICTIONARY
  5
2C77
330
2C76
100
AcDbDictionary
280
     1
281
     1
  3
ACAD_DIMASSOC
360
2C78
  0
DICTIONARY
  5
27FA
330
27F9
100
AcDbDictionary
280
     1
281
     1
  3
ASDK_XREC_ANNOTATION_SCALE_INFO
360
27FB
  0
DICTIONARY
  5
2E75
330
2E74
100
AcDbDictionary
280
     1
281
     1
  3
ASDK_XREC_ANNOTATION_SCALE_INFO
360
2E76
  0
XRECORD
  5
2726
102
{ACAD_REACTORS
330
269B
102
}
330
269B
100
AcDbXrecord
280
     1
300
AMECH_PP
300
2014
300
86133PDSU_2014_0F
  0
DICTIONARY
  5
26F1
102
{ACAD_REACTORS
330
269B
102
}
330
269B
100
AcDbDictionary
281
     1
  0
DICTIONARY
  5
26F8
102
{ACAD_REACTORS
330
269B
102
}
330
269B
100
AcDbDictionary
281
     1
  3
ASME Y14.35 - 1987(1)
350
2F21
  3
Imperial24
350
26F9
  0
FIELDLIST
  5
278D
102
{ACAD_REACTORS
330
269B
102
}
330
269B
100
AcDbIdSet
 90
        8
330
30B3
330
30B4
330
30B5
330
30B6
330
2F25
330
2F26
330
2F27
330
2F28
100
AcDbFieldList
  0
DICTIONARY
  5
269C
102
{ACAD_REACTORS
330
269B
102
}
330
269B
100
AcDbDictionary
281
     1
  0
DICTIONARY
  5
26F0
102
{ACAD_REACTORS
330
269B
102
}
330
269B
100
AcDbDictionary
281
     1
  3
Layout1
350
26FD
  3
Model
350
2701
  0
DICTIONARY
  5
269F
102
{ACAD_REACTORS
330
269B
102
}
330
269B
100
AcDbDictionary
281
     1
  3
ByBlock
350
26A8
  3
ByLayer
350
26A0
  3
Global
350
26B0
  0
DICTIONARY
  5
26F4
102
{ACAD_REACTORS
330
269B
102
}
330
269B
100
AcDbDictionary
281
     1
  3
Standard
350
26F5
  0
DICTIONARY
  5
26ED
102
{ACAD_REACTORS
330
269B
102
}
330
269B
100
AcDbDictionary
281
     1
  3
Standard
350
26EE
  0
DICTIONARY
  5
26EF
102
{ACAD_REACTORS
330
269B
102
}
330
269B
100
AcDbDictionary
281
     1
  0
ACDBDICTIONARYWDFLT
  5
269D
102
{ACAD_REACTORS
330
269B
102
}
330
269B
100
AcDbDictionary
281
     1
  3
Normal
350
269E
100
AcDbDictionaryWithDefault
340
269E
  0
DICTIONARY
  5
26D1
102
{ACAD_REACTORS
330
269B
102
}
330
269B
100
AcDbDictionary
281
     1
  3
A0
350
26D2
  3
A1
350
26D3
  3
A2
350
26D4
  3
A3
350
26D5
  3
A4
350
26D6
  3
A5
350
26D7
  3
A6
350
26D8
  3
A7
350
26D9
  3
A8
350
26DA
  3
A9
350
26DB
  3
B0
350
26DC
  3
B1
350
26DD
  3
B2
350
26DE
  3
B3
350
26DF
  3
B4
350
26E0
  3
B5
350
26E1
  3
B6
350
26E2
  0
DICTIONARY
  5
26F6
102
{ACAD_REACTORS
330
269B
102
}
330
269B
100
AcDbDictionary
281
     1
  3
ASME Y14.3 - 2003(1)
350
2F22
  3
Imperial24
350
26F7
  0
DICTIONARY
  5
26F2
102
{ACAD_REACTORS
330
269B
102
}
330
269B
100
AcDbDictionary
281
     1
  3
Standard
350
26F3
  0
DICTIONARY
  5
26B8
102
{ACAD_REACTORS
330
269B
102
}
330
269B
100
AcDbDictionary
281
     1
  3
2dWireframe
350
26BE
  3
3dWireframe
350
289A
  3
Basic
350
26BD
  3
Brighten
350
26C4
  3
ColorChange
350
26C8
  3
Conceptual
350
26C1
  3
Dim
350
26C3
  3
EdgeColorOff
350
26D0
  3
Facepattern
350
26C7
  3
Flat
350
26B9
  3
FlatWithEdges
350
26BA
  3
Gouraud
350
26BB
  3
GouraudWithEdges
350
26BC
  3
Hidden
350
26C0
  3
JitterOff
350
26CE
  3
Linepattern
350
26C6
  3
OverhangOff
350
26CF
  3
Realistic
350
26C2
  3
Shaded
350
26CD
  3
Shaded with edges
350
26CC
  3
Shades of Gray
350
26C9
  3
Sketchy
350
26CA
  3
Thicken
350
26C5
  3
Wireframe
350
26BF
  3
X-Ray
350
26CB
  0
XRECORD
  5
30C7
102
{ACAD_REACTORS
330
269B
102
}
330
269B
100
AcDbXrecord
280
     1
 90
        1
330
26F3
330
26F7
330
26F9
330
2F21
330
2F22
  0
DICTIONARY
  5
27CF
102
{ACAD_REACTORS
330
269B
102
}
330
269B
100
AcDbDictionary
281
     1
  3
CANNOSCALE
350
27D5
  3
CMLEADERSTYLE
350
27D1
  3
CTABLESTYLE
350
27D0
  3
CVIEWDETAILSTYLE
350
27D2
  3
CVIEWSECTIONSTYLE
350
27D3
  3
LAYEREVAL
350
27D7
  3
LAYERNOTIFY
350
27D8
  3
LIGHTINGUNITS
350
27D6
  3
MSLTSCALE
350
27D4
  0
DICTIONARY
  5
2751
102
{ACAD_REACTORS
330
269B
102
}
330
269B
100
AcDbDictionary
281
     1
  3
AcmStdDictionary
350
275A
  0
DICTIONARY
  5
2727
102
{ACAD_REACTORS
330
269B
102
}
330
269B
100
AcDbDictionary
281
     1
  0
DICTIONARY
  5
2798
102
{ACAD_REACTORS
330
269B
102
}
330
269B
100
AcDbDictionary
281
     1
  0
DICTIONARY
  5
27F2
102
{ACAD_REACTORS
330
27F1
102
}
330
27F1
100
AcDbDictionary
281
     1
  0
XRECORD
  5
2AFB
102
{ACAD_REACTORS
330
27B9
102
}
330
27B9
100
AcDbXrecord
280
     1
290
     1
  0
XRECORD
  5
2AFC
102
{ACAD_REACTORS
330
27BB
102
}
330
27BB
100
AcDbXrecord
280
     1
290
     1
  0
XRECORD
  5
2AFD
102
{ACAD_REACTORS
330
27BD
102
}
330
27BD
100
AcDbXrecord
280
     1
290
     1
  0
XRECORD
  5
2AFE
102
{ACAD_REACTORS
330
27BF
102
}
330
27BF
100
AcDbXrecord
280
     1
290
     1
  0
XRECORD
  5
2AFF
102
{ACAD_REACTORS
330
27C1
102
}
330
27C1
100
AcDbXrecord
280
     1
290
     1
  0
XRECORD
  5
2B00
102
{ACAD_REACTORS
330
27C3
102
}
330
27C3
100
AcDbXrecord
280
     1
290
     1
  0
XRECORD
  5
2B02
102
{ACAD_REACTORS
330
2B01
102
}
330
2B01
100
AcDbXrecord
280
     1
290
     1
  0
XRECORD
  5
2B03
102
{ACAD_REACTORS
330
27C5
102
}
330
27C5
100
AcDbXrecord
280
     1
290
     1
  0
XRECORD
  5
2B04
102
{ACAD_REACTORS
330
2892
102
}
330
2892
100
AcDbXrecord
280
     1
290
     1
  0
XRECORD
  5
2B05
102
{ACAD_REACTORS
330
29EF
102
}
330
29EF
100
AcDbXrecord
280
     1
290
     1
  0
SORTENTSTABLE
  5
2E29
102
{ACAD_REACTORS
330
2E28
102
}
330
2E28
100
AcDbSortentsTable
330
26FE
331
2C6A
  5
2C76
331
2C43
  5
2C43
331
2C57
  5
2C5F
331
2C30
  5
2C30
331
2C6B
  5
2C79
331
2C44
  5
2C44
331
2C58
  5
2C60
331
2C31
  5
2C31
331
2C45
  5
2C45
331
2C6C
  5
2C7A
331
2C32
  5
2C32
331
2C46
  5
2C46
331
2C23
  5
2C23
331
2C33
  5
2C33
331
2C47
  5
2C47
331
2C24
  5
2C24
331
2C34
  5
2C34
331
2C5B
  5
2C61
331
2C25
  5
2C25
331
2C6F
  5
2C7B
331
2C35
  5
2C35
331
2C5C
  5
2C62
331
2C26
  5
2C26
331
2C5D
  5
2C63
331
2C36
  5
2C36
331
2C27
  5
2C27
331
2C4A
  5
2C4A
331
2C5E
  5
2C64
331
2C37
  5
2C37
331
2C38
  5
2C38
331
2C5F
  5
2C65
331
2C39
  5
2C39
331
2C3A
  5
2C3A
331
2C4E
  5
2C58
331
2C3B
  5
2C3B
331
2C3C
  5
2C3C
331
2C3D
  5
2C3D
331
2C3E
  5
2C3E
331
2C3F
  5
2C3F
331
2E22
  5
2C4E
331
2E23
  5
2C51
331
2C70
  5
2C7C
331
2E24
  5
2C54
331
2E25
  5
2C55
331
2E26
  5
2C56
331
2C28
  5
2C28
331
2C29
  5
2C29
331
2E27
  5
2C57
331
2C73
  5
2C7D
331
2C60
  5
2C66
331
2C2A
  5
2C2A
331
2C61
  5
2C67
331
2C2B
  5
2C2B
331
2C62
  5
2C68
331
2C2C
  5
2C2C
331
2C76
  5
2E22
331
2C63
  5
2C69
331
2C2D
  5
2C2D
331
2C64
  5
2C6A
331
2C51
  5
2C5B
331
2C2E
  5
2C2E
331
2C65
  5
2C6B
331
2C2F
  5
2C2F
331
2C66
  5
2C6C
331
2C40
  5
2C40
331
2C67
  5
2C6F
331
2C54
  5
2C5C
331
2C41
  5
2C41
331
2C68
  5
2C70
331
2C55
  5
2C5D
331
2C42
  5
2C42
331
2C69
  5
2C73
331
2C56
  5
2C5E
  0
SORTENTSTABLE
  5
28EE
102
{ACAD_REACTORS
330
28ED
102
}
330
28ED
100
AcDbSortentsTable
330
26FA
331
28DB
  5
28DB
331
27F9
  5
27F9
  0
DIMASSOC
  5
2C49
102
{ACAD_REACTORS
330
2C48
102
}
330
2C48
100
AcDbDimAssoc
330
2C47
 90
        3
 70
     0
 71
     0
  1
AcDbOsnapPointRef
 72
     1
331
2C2C
 73
     2
 91
        0
 40
1.0
 10
0.0
 20
0.0
 30
2.000000000000000E+50
 75
     0
  1
AcDbOsnapPointRef
 72
    13
331
2C38
 73
     2
 91
        0
 40
0.0
 10
0.0
 20
0.0
 30
2.000000000000000E+50
 75
     0
  0
DIMASSOC
  5
2C50
102
{ACAD_REACTORS
330
2C4F
102
}
330
2C4F
100
AcDbDimAssoc
330
2C4E
 90
        3
 70
     0
 71
     0
  1
AcDbOsnapPointRef
 72
    13
331
2C37
 73
     2
 91
        0
 40
0.0
 10
0.0
 20
0.0
 30
2.000000000000000E+50
 75
     0
  1
AcDbOsnapPointRef
 72
    13
331
2C36
 73
     2
 91
        0
 40
0.0
 10
0.0
 20
0.0
 30
2.000000000000000E+50
 75
     0
  0
DIMASSOC
  5
2C53
102
{ACAD_REACTORS
330
2C52
102
}
330
2C52
100
AcDbDimAssoc
330
2C51
 90
        3
 70
     0
 71
     0
  1
AcDbOsnapPointRef
 72
     3
331
2C35
 73
     2
 91
        0
 40
0.0
 10
0.0
 20
0.0
 30
0.0
 75
     0
  1
AcDbOsnapPointRef
 72
     3
331
2C2E
 73
     2
 91
        0
 40
0.0
 10
0.0
 20
0.0
 30
0.0
 75
     0
  0
DIMASSOC
  5
2C5A
102
{ACAD_REACTORS
330
2C59
102
}
330
2C59
100
AcDbDimAssoc
330
2C58
 90
        3
 70
     0
 71
     0
  1
AcDbOsnapPointRef
 72
    13
331
2C25
 73
     2
 91
        0
 40
0.0
 10
0.0
 20
0.0
 30
2.000000000000000E+50
 75
     0
  1
AcDbOsnapPointRef
 72
     1
331
2C25
 73
     2
 91
        0
 40
1.0
 10
0.0
 20
0.0
 30
2.000000000000000E+50
 75
     0
  0
DIMASSOC
  5
2C6E
102
{ACAD_REACTORS
330
2C6D
102
}
330
2C6D
100
AcDbDimAssoc
330
2C6C
 90
        3
 70
     0
 71
     0
  1
AcDbOsnapPointRef
 72
     1
331
2C56
 73
     2
 91
        0
 40
1.0
 10
0.0
 20
0.0
 30
2.000000000000000E+50
 75
     0
  1
AcDbOsnapPointRef
 72
     1
331
2C27
 73
     2
 91
        0
 40
1.0
 10
0.0
 20
0.0
 30
2.000000000000000E+50
 75
     0
  0
DIMASSOC
  5
2C72
102
{ACAD_REACTORS
330
2C71
102
}
330
2C71
100
AcDbDimAssoc
330
2C70
 90
        3
 70
     0
 71
     0
  1
AcDbOsnapPointRef
 72
    13
331
2C29
 73
     2
 91
        0
 40
0.0
 10
0.0
 20
0.0
 30
2.000000000000000E+50
 75
     0
  1
AcDbOsnapPointRef
 72
     1
331
2C29
 73
     2
 91
        0
 40
1.0
 10
0.0
 20
0.0
 30
2.000000000000000E+50
 75
     0
  0
DIMASSOC
  5
2C75
102
{ACAD_REACTORS
330
2C74
102
}
330
2C74
100
AcDbDimAssoc
330
2C73
 90
        3
 70
     0
 71
     0
  1
AcDbOsnapPointRef
 72
     1
331
2C2D
 73
     2
 91
        0
 40
1.0
 10
0.0
 20
0.0
 30
2.000000000000000E+50
 75
     0
  1
AcDbOsnapPointRef
 72
    13
331
2C46
 73
     2
 91
        0
 40
0.0
 10
0.0
 20
0.0
 30
2.000000000000000E+50
 75
     0
  0
DIMASSOC
  5
2C78
102
{ACAD_REACTORS
330
2C77
102
}
330
2C77
100
AcDbDimAssoc
330
2C76
 90
        3
 70
     0
 71
     0
  1
AcDbOsnapPointRef
 72
     1
331
2C2D
 73
     2
 91
        0
 40
1.0
 10
0.0
 20
0.0
 30
2.000000000000000E+50
 75
     0
  1
AcDbOsnapPointRef
 72
     1
331
2C56
 73
     2
 91
        0
 40
1.0
 10
0.0
 20
0.0
 30
2.000000000000000E+50
 75
     0
  0
XRECORD
  5
27FB
102
{ACAD_REACTORS
330
27FA
102
}
330
27FA
100
AcDbXrecord
280
     1
 90
        1
340
26D2
  0
XRECORD
  5
2E76
102
{ACAD_REACTORS
330
2E75
102
}
330
2E75
100
AcDbXrecord
280
     1
 90
        1
340
26D2
  0
ACDBDETAILVIEWSTYLE
  5
2F21
102
{ACAD_XDICTIONARY
360
30C4
102
}
102
{ACAD_REACTORS
330
26F8
330
30AD
102
}
330
26F8
100
AcDbModelDocViewStyle
 70
     0
  3

290
     0
100
AcDbDetailViewStyle
 70
     0
 71
     0
 90
        3
 71
     1
340
26E4
 62
    30
 40
0.24
340
2783
 62
     3
 40
0.24
300

 40
0.36
280
     2
 71
     2
340
26EB
 90
       25
 62
   256
 71
     3
340
26E4
 62
    30
 40
0.24
 90
        1
 40
0.75
 90
        1
300
%<\AcVar ViewType \f "%tc1">% %<\AcVar ViewDetailId>%\PSCALE %<\AcVar ViewScale \f "%sn">%
 71
     4
340
26EB
 90
       25
 62
   256
340
26EB
 90
       25
 62
   256
280
     0
  0
ACDBDETAILVIEWSTYLE
  5
26F9
102
{ACAD_XDICTIONARY
360
30C2
102
}
102
{ACAD_REACTORS
330
26F8
330
30AE
102
}
330
26F8
100
AcDbModelDocViewStyle
 70
     0
  3
Imperial24
290
     0
100
AcDbDetailViewStyle
 70
     0
 71
     0
 90
        3
 71
     1
340
26E4
 62
   256
 40
0.24
340
0
 62
   256
 40
0.24
300

 40
0.36
280
     3
 71
     2
340
26EB
 90
       25
 62
   256
 71
     3
340
26E4
 62
   256
 40
0.24
 90
        1
 40
0.75
 90
        1
300
%<\AcVar ViewType \f "%tc1">% %<\AcVar ViewDetailId>%\PSCALE %<\AcVar ViewScale \f "%sn">%
 71
     4
340
26EB
 90
       25
 62
   256
340
26EB
 90
       25
 62
   256
280
     0
  0
LAYOUT
  5
26FD
102
{ACAD_XDICTIONARY
360
2F02
102
}
102
{ACAD_REACTORS
330
26F0
102
}
330
26F0
100
AcDbPlotSettings
  1

  2
Win2PDF
  4
User131
  6

 40
3.174999952316284
 41
3.174999952316284
 42
3.17498779296875
 43
3.17498779296875
 44
279.3999938964844
 45
431.8000183105469
 46
0.0
 47
0.0
 48
0.0
 49
0.0
140
0.0
141
0.0
142
1.0
143
1.0
 70
   688
 72
     0
 73
     1
 74
     5
  7

 75
    16
147
1.0
 76
     0
 77
     2
 78
   300
148
0.0
149
0.0
100
AcDbLayout
  1
Layout1
 70
     1
 71
     1
 10
-0.1249995194082185
 20
-0.1249999981226884
 11
16.87500120147945
 21
10.87499976158142
 12
0.0
 22
0.0
 32
0.0
 14
0.0095636420571165
 24
0.0108468233350578
 34
0.0
 15
16.73494932135742
 25
10.73909323243598
 35
0.0
146
0.0
 13
0.0
 23
0.0
 33
0.0
 16
1.0
 26
0.0
 36
0.0
 17
0.0
 27
1.0
 37
0.0
 76
     0
330
26FA
331
27F9
1001
ACAD_PSEXT
1000
Win2PDF
1000
Win2PDF
1000
PDFFILE:
1000

1070
     0
  0
LAYOUT
  5
2701
102
{ACAD_XDICTIONARY
360
2F04
102
}
102
{ACAD_REACTORS
330
26F0
102
}
330
26F0
100
AcDbPlotSettings
  1

  2
\\UTIL01.tci.local\Xerox Phaser 7750 - Meno Fls
  4

  6

 40
0.0
 41
0.0
 42
0.0
 43
0.0
 44
0.0
 45
0.0
 46
0.0
 47
0.0
 48
0.0
 49
0.0
140
0.0
141
0.0
142
1.0
143
1.0
 70
  1712
 72
     0
 73
     0
 74
     0
  7

 75
     0
147
1.0
 76
     0
 77
     2
 78
   300
148
0.0
149
0.0
100
AcDbLayout
  1
Model
 70
     1
 71
     0
 10
0.0
 20
0.0
 11
12.0
 21
9.0
 12
0.0
 22
0.0
 32
0.0
 14
0.0
 24
0.0
 34
0.0
 15
0.0
 25
0.0
 35
0.0
146
0.0
 13
0.0
 23
0.0
 33
0.0
 16
1.0
 26
0.0
 36
0.0
 17
0.0
 27
1.0
 37
0.0
 76
     0
330
26FE
331
2704
  0
MATERIAL
  5
26A8
102
{ACAD_XDICTIONARY
360
26A9
102
}
102
{ACAD_REACTORS
330
269F
102
}
330
269F
100
AcDbMaterial
  1
ByBlock
 72
     0
 43
0.0208333333333333
 43
0.0
 43
0.0
 43
0.0
 43
0.0
 43
0.0208333333333333
 43
0.0
 43
0.0
 43
0.0
 43
0.0
 43
1.0
 43
0.0
 43
0.0
 43
0.0
 43
0.0
 43
1.0
 77
     0
 47
0.0208333333333333
 47
0.0
 47
0.0
 47
0.0
 47
0.0
 47
0.0208333333333333
 47
0.0
 47
0.0
 47
0.0
 47
0.0
 47
1.0
 47
0.0
 47
0.0
 47
0.0
 47
0.0
 47
1.0
171
     0
 49
0.0208333333333333
 49
0.0
 49
0.0
 49
0.0
 49
0.0
 49
0.0208333333333333
 49
0.0
 49
0.0
 49
0.0
 49
0.0
 49
1.0
 49
0.0
 49
0.0
 49
0.0
 49
0.0
 49
1.0
175
     0
142
0.0208333333333333
142
0.0
142
0.0
142
0.0
142
0.0
142
0.0208333333333333
142
0.0
142
0.0
142
0.0
142
0.0
142
1.0
142
0.0
142
0.0
142
0.0
142
0.0
142
1.0
179
     0
144
0.0208333333333333
144
0.0
144
0.0
144
0.0
144
0.0
144
0.0208333333333333
144
0.0
144
0.0
144
0.0
144
0.0
144
1.0
144
0.0
144
0.0
144
0.0
144
0.0
144
1.0
147
0.0208333333333333
147
0.0
147
0.0
147
0.0
147
0.0
147
0.0208333333333333
147
0.0
147
0.0
147
0.0
147
0.0
147
1.0
147
0.0
147
0.0
147
0.0
147
0.0
147
1.0
  0
MATERIAL
  5
26A0
102
{ACAD_XDICTIONARY
360
26A1
102
}
102
{ACAD_REACTORS
330
269F
102
}
330
269F
100
AcDbMaterial
  1
ByLayer
 72
     0
 43
0.0208333333333333
 43
0.0
 43
0.0
 43
0.0
 43
0.0
 43
0.0208333333333333
 43
0.0
 43
0.0
 43
0.0
 43
0.0
 43
1.0
 43
0.0
 43
0.0
 43
0.0
 43
0.0
 43
1.0
 77
     0
 47
0.0208333333333333
 47
0.0
 47
0.0
 47
0.0
 47
0.0
 47
0.0208333333333333
 47
0.0
 47
0.0
 47
0.0
 47
0.0
 47
1.0
 47
0.0
 47
0.0
 47
0.0
 47
0.0
 47
1.0
171
     0
 49
0.0208333333333333
 49
0.0
 49
0.0
 49
0.0
 49
0.0
 49
0.0208333333333333
 49
0.0
 49
0.0
 49
0.0
 49
0.0
 49
1.0
 49
0.0
 49
0.0
 49
0.0
 49
0.0
 49
1.0
175
     0
142
0.0208333333333333
142
0.0
142
0.0
142
0.0
142
0.0
142
0.0208333333333333
142
0.0
142
0.0
142
0.0
142
0.0
142
1.0
142
0.0
142
0.0
142
0.0
142
0.0
142
1.0
179
     0
144
0.0208333333333333
144
0.0
144
0.0
144
0.0
144
0.0
144
0.0208333333333333
144
0.0
144
0.0
144
0.0
144
0.0
144
1.0
144
0.0
144
0.0
144
0.0
144
0.0
144
1.0
147
0.0208333333333333
147
0.0
147
0.0
147
0.0
147
0.0
147
0.0208333333333333
147
0.0
147
0.0
147
0.0
147
0.0
147
1.0
147
0.0
147
0.0
147
0.0
147
0.0
147
1.0
  0
MATERIAL
  5
26B0
102
{ACAD_XDICTIONARY
360
26B1
102
}
102
{ACAD_REACTORS
330
269F
102
}
330
269F
100
AcDbMaterial
  1
Global
 72
     0
 43
0.0208333333333333
 43
0.0
 43
0.0
 43
0.0
 43
0.0
 43
0.0208333333333333
 43
0.0
 43
0.0
 43
0.0
 43
0.0
 43
1.0
 43
0.0
 43
0.0
 43
0.0
 43
0.0
 43
1.0
 77
     0
 47
0.0208333333333333
 47
0.0
 47
0.0
 47
0.0
 47
0.0
 47
0.0208333333333333
 47
0.0
 47
0.0
 47
0.0
 47
0.0
 47
1.0
 47
0.0
 47
0.0
 47
0.0
 47
0.0
 47
1.0
171
     0
 49
0.0208333333333333
 49
0.0
 49
0.0
 49
0.0
 49
0.0
 49
0.0208333333333333
 49
0.0
 49
0.0
 49
0.0
 49
0.0
 49
1.0
 49
0.0
 49
0.0
 49
0.0
 49
0.0
 49
1.0
175
     0
142
0.0208333333333333
142
0.0
142
0.0
142
0.0
142
0.0
142
0.0208333333333333
142
0.0
142
0.0
142
0.0
142
0.0
142
1.0
142
0.0
142
0.0
142
0.0
142
0.0
142
1.0
179
     0
144
0.0208333333333333
144
0.0
144
0.0
144
0.0
144
0.0
144
0.0208333333333333
144
0.0
144
0.0
144
0.0
144
0.0
144
1.0
144
0.0
144
0.0
144
0.0
144
0.0
144
1.0
147
0.0208333333333333
147
0.0
147
0.0
147
0.0
147
0.0
147
0.0208333333333333
147
0.0
147
0.0
147
0.0
147
0.0
147
1.0
147
0.0
147
0.0
147
0.0
147
0.0
147
1.0
  0
MLEADERSTYLE
  5
26F5
102
{ACAD_REACTORS
330
26F4
102
}
330
26F4
100
AcDbMLeaderStyle
179
     2
170
     2
171
     1
172
     0
 90
        2
 40
0.0
 41
0.0
173
     1
 91
-1056964608
340
26E9
 92
       -2
290
     1
 42
0.09
291
     1
 43
0.36
  3
Standard
 44
0.18
300

342
26E4
174
     1
178
     6
175
     1
176
     0
 93
-1056964608
 45
0.18
292
     0
297
     0
 46
0.18
 94
-1056964608
 47
1.0
 49
1.0
140
1.0
293
     1
141
0.0
294
     1
177
     0
142
1.0
295
     0
296
     0
143
0.125
271
     0
272
     9
273
     9
298
     0
  0
MLINESTYLE
  5
26EE
102
{ACAD_REACTORS
330
26ED
102
}
330
26ED
100
AcDbMlineStyle
  2
STANDARD
 70
     0
  3

 62
   256
 51
90.0
 52
90.0
 71
     2
 49
0.5
 62
   256
  6
BYLAYER
 49
-0.5
 62
   256
  6
BYLAYER
  0
ACDBPLACEHOLDER
  5
269E
102
{ACAD_REACTORS
330
269D
102
}
330
269D
  0
SCALE
  5
26D2
102
{ACAD_REACTORS
330
26D1
102
}
330
26D1
100
AcDbScale
 70
     0
300
1:1
140
1.0
141
1.0
290
     1
  0
SCALE
  5
26D3
102
{ACAD_REACTORS
330
26D1
102
}
330
26D1
100
AcDbScale
 70
     0
300
1/128" = 1'-0"
140
0.0078125
141
12.0
290
     0
  0
SCALE
  5
26D4
102
{ACAD_REACTORS
330
26D1
102
}
330
26D1
100
AcDbScale
 70
     0
300
1/64" = 1'-0"
140
0.015625
141
12.0
290
     0
  0
SCALE
  5
26D5
102
{ACAD_REACTORS
330
26D1
102
}
330
26D1
100
AcDbScale
 70
     0
300
1/32" = 1'-0"
140
0.03125
141
12.0
290
     0
  0
SCALE
  5
26D6
102
{ACAD_REACTORS
330
26D1
102
}
330
26D1
100
AcDbScale
 70
     0
300
1/16" = 1'-0"
140
0.0625
141
12.0
290
     0
  0
SCALE
  5
26D7
102
{ACAD_REACTORS
330
26D1
102
}
330
26D1
100
AcDbScale
 70
     0
300
3/32" = 1'-0"
140
0.09375
141
12.0
290
     0
  0
SCALE
  5
26D8
102
{ACAD_REACTORS
330
26D1
102
}
330
26D1
100
AcDbScale
 70
     0
300
1/8" = 1'-0"
140
0.125
141
12.0
290
     0
  0
SCALE
  5
26D9
102
{ACAD_REACTORS
330
26D1
102
}
330
26D1
100
AcDbScale
 70
     0
300
3/16" = 1'-0"
140
0.1875
141
12.0
290
     0
  0
SCALE
  5
26DA
102
{ACAD_REACTORS
330
26D1
102
}
330
26D1
100
AcDbScale
 70
     0
300
1/4" = 1'-0"
140
0.25
141
12.0
290
     0
  0
SCALE
  5
26DB
102
{ACAD_REACTORS
330
26D1
102
}
330
26D1
100
AcDbScale
 70
     0
300
3/8" = 1'-0"
140
0.375
141
12.0
290
     0
  0
SCALE
  5
26DC
102
{ACAD_REACTORS
330
26D1
102
}
330
26D1
100
AcDbScale
 70
     0
300
1/2" = 1'-0"
140
0.5
141
12.0
290
     0
  0
SCALE
  5
26DD
102
{ACAD_REACTORS
330
26D1
102
}
330
26D1
100
AcDbScale
 70
     0
300
3/4" = 1'-0"
140
0.75
141
12.0
290
     0
  0
SCALE
  5
26DE
102
{ACAD_REACTORS
330
26D1
102
}
330
26D1
100
AcDbScale
 70
     0
300
1" = 1'-0"
140
1.0
141
12.0
290
     0
  0
SCALE
  5
26DF
102
{ACAD_REACTORS
330
26D1
102
}
330
26D1
100
AcDbScale
 70
     0
300
1-1/2" = 1'-0"
140
1.5
141
12.0
290
     0
  0
SCALE
  5
26E0
102
{ACAD_REACTORS
330
26D1
102
}
330
26D1
100
AcDbScale
 70
     0
300
3" = 1'-0"
140
3.0
141
12.0
290
     0
  0
SCALE
  5
26E1
102
{ACAD_REACTORS
330
26D1
102
}
330
26D1
100
AcDbScale
 70
     0
300
6" = 1'-0"
140
6.0
141
12.0
290
     0
  0
SCALE
  5
26E2
102
{ACAD_REACTORS
330
26D1
102
}
330
26D1
100
AcDbScale
 70
     0
300
1'-0" = 1'-0"
140
12.0
141
12.0
290
     0
  0
ACDBSECTIONVIEWSTYLE
  5
2F22
102
{ACAD_XDICTIONARY
360
2F23
102
}
102
{ACAD_REACTORS
330
26F6
330
30AB
102
}
330
26F6
100
AcDbModelDocViewStyle
 70
     0
  3

290
     0
100
AcDbSectionViewStyle
 70
     0
 71
     0
 90
       78
 71
     1
340
26E4
 62
    30
 40
0.24
340
0
340
0
 62
     7
 40
0.24
300
I,O,Q,S,X,Z
 40
0.4
 90
        3
 40
0.12
 90
        1
 71
     2
340
2733
 90
       30
 62
     7
340
2733
 90
       30
 62
     7
 40
0.4
 40
0.0
 40
0.4
 71
     3
340
26E4
 62
    30
 40
0.24
 90
        0
 40
0.18
 90
        1
300
%<\AcVar ViewType \f "%tc1">% %<\AcVar ViewSectionStartId>%-%<\AcVar ViewSectionEndId>%
 71
     4
 62
   256
 62
   257
300
ANSI31
 40
1.0
 90
        0
290
     0
290
     0
 90
        6
 40
0.0
 40
1.570796326794896
 40
0.2617993877991494
 40
1.308996938995747
 40
-0.2617993877991494
 40
1.832595714594046
  0
ACDBSECTIONVIEWSTYLE
  5
26F7
102
{ACAD_XDICTIONARY
360
30C0
102
}
102
{ACAD_REACTORS
330
26F6
330
30AC
102
}
330
26F6
100
AcDbModelDocViewStyle
 70
     0
  3
Imperial24
290
     0
100
AcDbSectionViewStyle
 70
     0
 71
     0
 90
       78
 71
     1
340
26E4
 62
   256
 40
0.24
340
0
340
0
 62
   256
 40
0.24
300
I, O, Q, S, X, Z
 40
0.48
 90
        3
 40
0.18
 90
        1
 71
     2
340
26EB
 90
       25
 62
   256
340
26EB
 90
       50
 62
   256
 40
0.24
 40
0.0
 40
0.24
 71
     3
340
26E4
 62
   256
 40
0.24
 90
        1
 40
0.75
 90
        1
300
%<\AcVar ViewType \f "%tc1">% %<\AcVar ViewSectionStartId>%-%<\AcVar ViewSectionEndId>%\PSCALE %<\AcVar ViewScale \f "%sn">%
 71
     4
 62
   256
 62
   257
300
ANSI31
 40
1.0
 90
        0
290
     0
290
     0
 90
        6
 40
0.0
 40
1.570796326794896
 40
0.2617993877991494
 40
1.308996938995747
 40
-0.2617993877991494
 40
1.832595714594046
  0
TABLESTYLE
  5
26F3
102
{ACAD_XDICTIONARY
360
30BE
102
}
102
{ACAD_REACTORS
330
26F2
102
}
330
26F2
100
AcDbTableStyle
280
     0
  3
Standard
 70
     0
 71
     0
 40
0.06
 41
0.06
280
     0
281
     0
  7
STANDARD
140
0.18
170
     2
 62
     0
 63
     7
283
     0
 90
      512
 91
        0
  1

274
    -2
284
     1
 64
     0
275
    -2
285
     1
 65
     0
276
    -2
286
     1
 66
     0
277
    -2
287
     1
 67
     0
278
    -2
288
     1
 68
     0
279
    -2
289
     1
 69
     0
  7
STANDARD
140
0.25
170
     5
 62
     0
 63
     7
283
     0
 90
      512
 91
        0
  1

274
    -2
284
     1
 64
     0
275
    -2
285
     1
 65
     0
276
    -2
286
     1
 66
     0
277
    -2
287
     1
 67
     0
278
    -2
288
     1
 68
     0
279
    -2
289
     1
 69
     0
  7
STANDARD
140
0.18
170
     5
 62
     0
 63
     7
283
     0
 90
      512
 91
        0
  1

274
    -2
284
     1
 64
     0
275
    -2
285
     1
 65
     0
276
    -2
286
     1
 66
     0
277
    -2
287
     1
 67
     0
278
    -2
288
     1
 68
     0
279
    -2
289
     1
 69
     0
  0
VISUALSTYLE
  5
26BE
102
{ACAD_REACTORS
330
26B8
102
}
330
26B8
100
AcDbVisualStyle
  2
2dWireframe
 70
     4
177
     3
291
     0
 70
    58
 90
        0
176
     1
 90
        2
176
     1
 90
        0
176
     1
 90
        0
176
     1
 40
0.6
176
     1
 40
30.0
176
     1
 62
     7
420
 16777215
176
     1
 90
        1
176
     1
 90
        4
176
     1
 62
     7
176
     1
 62
   257
176
     1
 90
        1
176
     1
 90
        1
176
     1
 40
1.0
176
     1
 90
        0
176
     1
 62
   257
176
     1
 40
1.0
176
     1
 90
        1
176
     1
 90
        6
176
     1
 90
        2
176
     1
 62
     7
176
     1
 90
        5
176
     1
 90
        0
176
     1
 90
        0
176
     1
290
     0
176
     1
 90
        1
176
     1
 40
0.0
176
     1
 90
        0
176
     1
290
     1
176
     1
290
     1
176
     1
290
     0
176
     1
290
     0
176
     1
290
     0
176
     1
290
     0
176
     1
290
     0
176
     1
290
     0
176
     1
290
     0
176
     1
 90
       50
176
     1
 40
0.0
176
     1
 40
1.0
176
     1
 90
        0
176
     1
 62
    18
420
        0
176
     1
 90
       50
176
     1
 90
        3
176
     1
 62
     5
420
      255
176
     1
290
     0
176
     1
 90
       50
176
     1
 90
       50
176
     1
 90
       50
176
     1
290
     0
176
     1
 90
       50
176
     1
 62
   256
176
     0
 40
1.0
176
     0
 90
        2
176
     1
  1
strokes_ogs.tif
176
     1
290
     0
176
     1
 40
1.0
176
     1
 40
1.0
176
     1
  0
VISUALSTYLE
  5
289A
102
{ACAD_REACTORS
330
26B8
102
}
330
26B8
100
AcDbVisualStyle
  2
3dWireframe
 70
     5
177
     3
291
     0
 70
    58
 90
        0
176
     1
 90
        2
176
     1
 90
        0
176
     1
 90
        0
176
     1
 40
0.6
176
     1
 40
30.0
176
     1
 62
     7
420
 16777215
176
     1
 90
        1
176
     1
 90
        4
176
     1
 62
     7
176
     1
 62
   257
176
     1
 90
        1
176
     1
 90
        1
176
     1
 40
1.0
176
     1
 90
        0
176
     1
 62
   257
176
     1
 40
1.0
176
     1
 90
        1
176
     1
 90
        6
176
     1
 90
        2
176
     1
 62
     7
176
     1
 90
        5
176
     1
 90
        0
176
     1
 90
        0
176
     1
290
     0
176
     1
 90
        1
176
     1
 40
0.0
176
     1
 90
        0
176
     1
290
     0
176
     1
290
     1
176
     1
290
     1
176
     1
290
     0
176
     1
290
     0
176
     1
290
     0
176
     1
290
     0
176
     1
290
     0
176
     1
290
     0
176
     1
 90
       50
176
     1
 40
0.0
176
     1
 40
1.0
176
     1
 90
        0
176
     1
 62
    18
420
        0
176
     1
 90
       50
176
     1
 90
        3
176
     1
 62
     5
420
      255
176
     1
290
     0
176
     1
 90
       50
176
     1
 90
       50
176
     1
 90
       50
176
     1
290
     0
176
     1
 90
       50
176
     1
 62
   256
176
     0
 40
1.0
176
     0
 90
        2
176
     1
  1
strokes_ogs.tif
176
     1
290
     0
176
     1
 40
1.0
176
     1
 40
1.0
176
     1
  0
VISUALSTYLE
  5
26BD
102
{ACAD_REACTORS
330
26B8
102
}
330
26B8
100
AcDbVisualStyle
  2
Basic
 70
     7
177
     3
291
     1
 70
    58
 90
        1
176
     1
 90
        0
176
     1
 90
        1
176
     1
 90
        0
176
     1
 40
0.6
176
     1
 40
30.0
176
     1
 62
     7
420
 16777215
176
     1
 90
        0
176
     1
 90
        4
176
     1
 62
     7
176
     1
 62
   257
176
     1
 90
        1
176
     1
 90
        1
176
     1
 40
1.0
176
     1
 90
        8
176
     1
 62
     7
176
     1
 40
1.0
176
     1
 90
        1
176
     1
 90
        6
176
     1
 90
        2
176
     1
 62
     7
176
     1
 90
        5
176
     1
 90
        0
176
     1
 90
        0
176
     1
290
     0
176
     1
 90
        1
176
     1
 40
0.0
176
     1
 90
        0
176
     1
290
     0
176
     1
290
     1
176
     1
290
     1
176
     1
290
     0
176
     1
290
     0
176
     1
290
     0
176
     1
290
     0
176
     1
290
     0
176
     1
290
     0
176
     1
 90
       50
176
     1
 40
0.0
176
     1
 40
1.0
176
     1
 90
        0
176
     1
 62
    18
420
        0
176
     1
 90
       50
176
     1
 90
        3
176
     1
 62
     5
420
      255
176
     1
290
     0
176
     1
 90
       50
176
     1
 90
       50
176
     1
 90
       50
176
     1
290
     0
176
     1
 90
       50
176
     1
 62
   256
176
     0
 40
1.0
176
     0
 90
        2
176
     1
  1
strokes_ogs.tif
176
     1
290
     0
176
     1
 40
1.0
176
     1
 40
1.0
176
     1
  0
VISUALSTYLE
  5
26C4
102
{ACAD_REACTORS
330
26B8
102
}
330
26B8
100
AcDbVisualStyle
  2
Brighten
 70
    12
177
     3
291
     1
 70
    58
 90
        2
176
     1
 90
        2
176
     1
 90
        0
176
     1
 90
        0
176
     1
 40
0.6
176
     1
 40
30.0
176
     1
 62
     7
420
 16777215
176
     1
 90
        1
176
     1
 90
        4
176
     1
 62
     7
176
     1
 62
   257
176
     1
 90
        1
176
     1
 90
        1
176
     1
 40
1.0
176
     1
 90
        8
176
     1
 62
     7
176
     1
 40
1.0
176
     1
 90
        1
176
     1
 90
        6
176
     1
 90
        2
176
     1
 62
     7
176
     1
 90
        5
176
     1
 90
        0
176
     1
 90
        0
176
     1
290
     0
176
     1
 90
        1
176
     1
 40
50.0
176
     1
 90
        0
176
     1
290
     0
176
     1
290
     1
176
     1
290
     1
176
     1
290
     0
176
     1
290
     0
176
     1
290
     0
176
     1
290
     0
176
     1
290
     0
176
     1
290
     0
176
     1
 90
       50
176
     1
 40
0.0
176
     1
 40
1.0
176
     1
 90
        0
176
     1
 62
    18
420
        0
176
     1
 90
       50
176
     1
 90
        3
176
     1
 62
     5
420
      255
176
     1
290
     0
176
     1
 90
       50
176
     1
 90
       50
176
     1
 90
       50
176
     1
290
     0
176
     1
 90
       50
176
     1
 62
   256
176
     0
 40
1.0
176
     0
 90
        2
176
     1
  1
strokes_ogs.tif
176
     1
290
     0
176
     1
 40
1.0
176
     1
 40
1.0
176
     1
  0
VISUALSTYLE
  5
26C8
102
{ACAD_REACTORS
330
26B8
102
}
330
26B8
100
AcDbVisualStyle
  2
ColorChange
 70
    16
177
     3
291
     1
 70
    58
 90
        2
176
     1
 90
        2
176
     1
 90
        3
176
     1
 90
        0
176
     1
 40
0.6
176
     1
 40
30.0
176
     1
 62
     8
420
  8421504
176
     1
 90
        1
176
     1
 90
        4
176
     1
 62
     7
176
     1
 62
   257
176
     1
 90
        1
176
     1
 90
        1
176
     1
 40
1.0
176
     1
 90
        8
176
     1
 62
     8
420
  8421504
176
     1
 40
1.0
176
     1
 90
        1
176
     1
 90
        6
176
     1
 90
        2
176
     1
 62
     7
176
     1
 90
        5
176
     1
 90
        0
176
     1
 90
        0
176
     1
290
     0
176
     1
 90
        1
176
     1
 40
0.0
176
     1
 90
        0
176
     1
290
     0
176
     1
290
     1
176
     1
290
     1
176
     1
290
     0
176
     1
290
     0
176
     1
290
     0
176
     1
290
     0
176
     1
290
     0
176
     1
290
     0
176
     1
 90
       50
176
     1
 40
0.0
176
     1
 40
1.0
176
     1
 90
        0
176
     1
 62
    18
420
        0
176
     1
 90
       50
176
     1
 90
        3
176
     1
 62
     5
420
      255
176
     1
290
     0
176
     1
 90
       50
176
     1
 90
       50
176
     1
 90
       50
176
     1
290
     0
176
     1
 90
       50
176
     1
 62
   256
176
     0
 40
1.0
176
     0
 90
        2
176
     1
  1
strokes_ogs.tif
176
     1
290
     0
176
     1
 40
1.0
176
     1
 40
1.0
176
     1
  0
VISUALSTYLE
  5
26C1
102
{ACAD_REACTORS
330
26B8
102
}
330
26B8
100
AcDbVisualStyle
  2
Conceptual
 70
     9
177
     3
291
     0
 70
    58
 90
        3
176
     1
 90
        2
176
     1
 90
        0
176
     1
 90
        0
176
     1
 40
0.6
176
     1
 40
30.0
176
     1
 62
     7
420
 16777215
176
     1
 90
        2
176
     1
 90
        2
176
     1
 62
     7
176
     1
 62
   257
176
     1
 90
        1
176
     1
 90
        1
176
     1
 40
179.0
176
     1
 90
        8
176
     1
 62
     7
176
     1
 40
1.0
176
     1
 90
        1
176
     1
 90
        6
176
     1
 90
        2
176
     1
 62
     7
176
     1
 90
        3
176
     1
 90
        0
176
     1
 90
        0
176
     1
290
     0
176
     1
 90
        1
176
     1
 40
0.0
176
     1
 90
        0
176
     1
290
     0
176
     1
290
     1
176
     1
290
     1
176
     1
290
     0
176
     1
290
     0
176
     1
290
     0
176
     1
290
     0
176
     1
290
     0
176
     1
290
     0
176
     1
 90
       50
176
     1
 40
0.0
176
     1
 40
1.0
176
     1
 90
        0
176
     1
 62
    18
420
        0
176
     1
 90
       50
176
     1
 90
        3
176
     1
 62
     5
420
      255
176
     1
290
     0
176
     1
 90
       50
176
     1
 90
       50
176
     1
 90
       50
176
     1
290
     0
176
     1
 90
       50
176
     1
 62
   256
176
     0
 40
1.0
176
     0
 90
        2
176
     1
  1
strokes_ogs.tif
176
     1
290
     0
176
     1
 40
1.0
176
     1
 40
1.0
176
     1
  0
VISUALSTYLE
  5
26C3
102
{ACAD_REACTORS
330
26B8
102
}
330
26B8
100
AcDbVisualStyle
  2
Dim
 70
    11
177
     3
291
     1
 70
    58
 90
        2
176
     1
 90
        2
176
     1
 90
        0
176
     1
 90
        0
176
     1
 40
0.6
176
     1
 40
30.0
176
     1
 62
     7
420
 16777215
176
     1
 90
        1
176
     1
 90
        4
176
     1
 62
     7
176
     1
 62
   257
176
     1
 90
        1
176
     1
 90
        1
176
     1
 40
1.0
176
     1
 90
        8
176
     1
 62
     7
176
     1
 40
1.0
176
     1
 90
        1
176
     1
 90
        6
176
     1
 90
        2
176
     1
 62
     7
176
     1
 90
        5
176
     1
 90
        0
176
     1
 90
        0
176
     1
290
     0
176
     1
 90
        1
176
     1
 40
-50.0
176
     1
 90
        0
176
     1
290
     0
176
     1
290
     1
176
     1
290
     1
176
     1
290
     0
176
     1
290
     0
176
     1
290
     0
176
     1
290
     0
176
     1
290
     0
176
     1
290
     0
176
     1
 90
       50
176
     1
 40
0.0
176
     1
 40
1.0
176
     1
 90
        0
176
     1
 62
    18
420
        0
176
     1
 90
       50
176
     1
 90
        3
176
     1
 62
     5
420
      255
176
     1
290
     0
176
     1
 90
       50
176
     1
 90
       50
176
     1
 90
       50
176
     1
290
     0
176
     1
 90
       50
176
     1
 62
   256
176
     0
 40
1.0
176
     0
 90
        2
176
     1
  1
strokes_ogs.tif
176
     1
290
     0
176
     1
 40
1.0
176
     1
 40
1.0
176
     1
  0
VISUALSTYLE
  5
26D0
102
{ACAD_REACTORS
330
26B8
102
}
330
26B8
100
AcDbVisualStyle
  2
EdgeColorOff
 70
    22
177
     3
291
     1
 70
    58
 90
        2
176
     0
 90
        2
176
     0
 90
        0
176
     0
 90
        0
176
     0
 40
0.6
176
     0
 40
30.0
176
     0
 62
     7
420
 16777215
176
     0
 90
        1
176
     0
 90
        4
176
     0
 62
     7
176
     0
 62
   257
176
     0
 90
        1
176
     0
 90
        1
176
     0
 40
1.0
176
     0
 90
        8
176
     2
 62
     7
176
     0
 40
1.0
176
     0
 90
        1
176
     0
 90
        6
176
     0
 90
        2
176
     0
 62
     7
176
     0
 90
        5
176
     0
 90
        0
176
     0
 90
        0
176
     0
290
     0
176
     0
 90
        1
176
     0
 40
0.0
176
     0
 90
        0
176
     0
290
     0
176
     1
290
     1
176
     1
290
     1
176
     1
290
     0
176
     1
290
     0
176
     1
290
     0
176
     1
290
     0
176
     1
290
     0
176
     1
290
     0
176
     1
 90
       50
176
     0
 40
0.0
176
     0
 40
1.0
176
     0
 90
        0
176
     0
 62
    18
420
        0
176
     0
 90
       50
176
     0
 90
        3
176
     0
 62
     5
420
      255
176
     0
290
     0
176
     1
 90
       50
176
     0
 90
       50
176
     0
 90
       50
176
     0
290
     0
176
     1
 90
       50
176
     0
 62
   256
176
     0
 40
1.0
176
     0
 90
        2
176
     0
  1
strokes_ogs.tif
176
     0
290
     0
176
     1
 40
1.0
176
     0
 40
1.0
176
     0
  0
VISUALSTYLE
  5
26C7
102
{ACAD_REACTORS
330
26B8
102
}
330
26B8
100
AcDbVisualStyle
  2
Facepattern
 70
    15
177
     3
291
     1
 70
    58
 90
        2
176
     1
 90
        2
176
     1
 90
        0
176
     1
 90
        0
176
     1
 40
0.6
176
     1
 40
30.0
176
     1
 62
     7
420
 16777215
176
     1
 90
        1
176
     1
 90
        4
176
     1
 62
     7
176
     1
 62
   257
176
     1
 90
        1
176
     1
 90
        1
176
     1
 40
1.0
176
     1
 90
        8
176
     1
 62
     7
176
     1
 40
1.0
176
     1
 90
        1
176
     1
 90
        6
176
     1
 90
        2
176
     1
 62
     7
176
     1
 90
        5
176
     1
 90
        0
176
     1
 90
        0
176
     1
290
     0
176
     1
 90
        1
176
     1
 40
0.0
176
     1
 90
        0
176
     1
290
     0
176
     1
290
     1
176
     1
290
     1
176
     1
290
     0
176
     1
290
     0
176
     1
290
     0
176
     1
290
     0
176
     1
290
     0
176
     1
290
     0
176
     1
 90
       50
176
     1
 40
0.0
176
     1
 40
1.0
176
     1
 90
        0
176
     1
 62
    18
420
        0
176
     1
 90
       50
176
     1
 90
        3
176
     1
 62
     5
420
      255
176
     1
290
     0
176
     1
 90
       50
176
     1
 90
       50
176
     1
 90
       50
176
     1
290
     0
176
     1
 90
       50
176
     1
 62
   256
176
     0
 40
1.0
176
     0
 90
        2
176
     1
  1
strokes_ogs.tif
176
     1
290
     0
176
     1
 40
1.0
176
     1
 40
1.0
176
     1
  0
VISUALSTYLE
  5
26B9
102
{ACAD_REACTORS
330
26B8
102
}
330
26B8
100
AcDbVisualStyle
  2
Flat
 70
     0
177
     3
291
     1
 70
    58
 90
        2
176
     1
 90
        1
176
     1
 90
        1
176
     1
 90
        2
176
     1
 40
0.6
176
     1
 40
30.0
176
     1
 62
     7
420
 16777215
176
     1
 90
        0
176
     1
 90
        0
176
     1
 62
     7
176
     1
 62
   257
176
     1
 90
        1
176
     1
 90
        1
176
     1
 40
1.0
176
     1
 90
        8
176
     1
 62
     7
176
     1
 40
1.0
176
     1
 90
        1
176
     1
 90
        6
176
     1
 90
        2
176
     1
 62
     7
176
     1
 90
        5
176
     1
 90
        0
176
     1
 90
        0
176
     1
290
     0
176
     1
 90
       13
176
     1
 40
0.0
176
     1
 90
        0
176
     1
290
     0
176
     1
290
     1
176
     1
290
     1
176
     1
290
     0
176
     1
290
     0
176
     1
290
     0
176
     1
290
     0
176
     1
290
     0
176
     1
290
     0
176
     1
 90
       50
176
     1
 40
0.0
176
     1
 40
1.0
176
     1
 90
        0
176
     1
 62
    18
420
        0
176
     1
 90
       50
176
     1
 90
        3
176
     1
 62
     5
420
      255
176
     1
290
     0
176
     1
 90
       50
176
     1
 90
       50
176
     1
 90
       50
176
     1
290
     0
176
     1
 90
       50
176
     1
 62
   256
176
     0
 40
1.0
176
     0
 90
        2
176
     1
  1
strokes_ogs.tif
176
     1
290
     0
176
     1
 40
1.0
176
     1
 40
1.0
176
     1
  0
VISUALSTYLE
  5
26BA
102
{ACAD_REACTORS
330
26B8
102
}
330
26B8
100
AcDbVisualStyle
  2
FlatWithEdges
 70
     1
177
     3
291
     1
 70
    58
 90
        2
176
     1
 90
        1
176
     1
 90
        1
176
     1
 90
        2
176
     1
 40
0.6
176
     1
 40
30.0
176
     1
 62
     7
420
 16777215
176
     1
 90
        1
176
     1
 90
        0
176
     1
 62
     7
176
     1
 62
   257
176
     1
 90
        1
176
     1
 90
        1
176
     1
 40
1.0
176
     1
 90
        0
176
     1
 62
   257
176
     1
 40
1.0
176
     1
 90
        1
176
     1
 90
        6
176
     1
 90
        2
176
     1
 62
     7
176
     1
 90
        5
176
     1
 90
        0
176
     1
 90
        0
176
     1
290
     0
176
     1
 90
       13
176
     1
 40
0.0
176
     1
 90
        0
176
     1
290
     0
176
     1
290
     1
176
     1
290
     1
176
     1
290
     0
176
     1
290
     0
176
     1
290
     0
176
     1
290
     0
176
     1
290
     0
176
     1
290
     0
176
     1
 90
       50
176
     1
 40
0.0
176
     1
 40
1.0
176
     1
 90
        0
176
     1
 62
    18
420
        0
176
     1
 90
       50
176
     1
 90
        3
176
     1
 62
     5
420
      255
176
     1
290
     0
176
     1
 90
       50
176
     1
 90
       50
176
     1
 90
       50
176
     1
290
     0
176
     1
 90
       50
176
     1
 62
   256
176
     0
 40
1.0
176
     0
 90
        2
176
     1
  1
strokes_ogs.tif
176
     1
290
     0
176
     1
 40
1.0
176
     1
 40
1.0
176
     1
  0
VISUALSTYLE
  5
26BB
102
{ACAD_REACTORS
330
26B8
102
}
330
26B8
100
AcDbVisualStyle
  2
Gouraud
 70
     2
177
     3
291
     1
 70
    58
 90
        2
176
     1
 90
        2
176
     1
 90
        1
176
     1
 90
        2
176
     1
 40
0.6
176
     1
 40
30.0
176
     1
 62
     7
420
 16777215
176
     1
 90
        0
176
     1
 90
        0
176
     1
 62
     7
176
     1
 62
   257
176
     1
 90
        1
176
     1
 90
        1
176
     1
 40
1.0
176
     1
 90
        0
176
     1
 62
     7
176
     1
 40
1.0
176
     1
 90
        1
176
     1
 90
        6
176
     1
 90
        2
176
     1
 62
     7
176
     1
 90
        5
176
     1
 90
        0
176
     1
 90
        0
176
     1
290
     0
176
     1
 90
       13
176
     1
 40
0.0
176
     1
 90
        0
176
     1
290
     0
176
     1
290
     1
176
     1
290
     1
176
     1
290
     0
176
     1
290
     0
176
     1
290
     0
176
     1
290
     0
176
     1
290
     0
176
     1
290
     0
176
     1
 90
       50
176
     1
 40
0.0
176
     1
 40
1.0
176
     1
 90
        0
176
     1
 62
    18
420
        0
176
     1
 90
       50
176
     1
 90
        3
176
     1
 62
     5
420
      255
176
     1
290
     0
176
     1
 90
       50
176
     1
 90
       50
176
     1
 90
       50
176
     1
290
     0
176
     1
 90
       50
176
     1
 62
   256
176
     0
 40
1.0
176
     0
 90
        2
176
     1
  1
strokes_ogs.tif
176
     1
290
     0
176
     1
 40
1.0
176
     1
 40
1.0
176
     1
  0
VISUALSTYLE
  5
26BC
102
{ACAD_REACTORS
330
26B8
102
}
330
26B8
100
AcDbVisualStyle
  2
GouraudWithEdges
 70
     3
177
     3
291
     1
 70
    58
 90
        2
176
     1
 90
        2
176
     1
 90
        1
176
     1
 90
        2
176
     1
 40
0.6
176
     1
 40
30.0
176
     1
 62
     7
420
 16777215
176
     1
 90
        1
176
     1
 90
        0
176
     1
 62
     7
176
     1
 62
   257
176
     1
 90
        1
176
     1
 90
        1
176
     1
 40
1.0
176
     1
 90
        0
176
     1
 62
   257
176
     1
 40
1.0
176
     1
 90
        1
176
     1
 90
        6
176
     1
 90
        2
176
     1
 62
     7
176
     1
 90
        5
176
     1
 90
        0
176
     1
 90
        0
176
     1
290
     0
176
     1
 90
       13
176
     1
 40
0.0
176
     1
 90
        0
176
     1
290
     0
176
     1
290
     1
176
     1
290
     1
176
     1
290
     0
176
     1
290
     0
176
     1
290
     0
176
     1
290
     0
176
     1
290
     0
176
     1
290
     0
176
     1
 90
       50
176
     1
 40
0.0
176
     1
 40
1.0
176
     1
 90
        0
176
     1
 62
    18
420
        0
176
     1
 90
       50
176
     1
 90
        3
176
     1
 62
     5
420
      255
176
     1
290
     0
176
     1
 90
       50
176
     1
 90
       50
176
     1
 90
       50
176
     1
290
     0
176
     1
 90
       50
176
     1
 62
   256
176
     0
 40
1.0
176
     0
 90
        2
176
     1
  1
strokes_ogs.tif
176
     1
290
     0
176
     1
 40
1.0
176
     1
 40
1.0
176
     1
  0
VISUALSTYLE
  5
26C0
102
{ACAD_REACTORS
330
26B8
102
}
330
26B8
100
AcDbVisualStyle
  2
Hidden
 70
     6
177
     3
291
     0
 70
    58
 90
        1
176
     1
 90
        2
176
     1
 90
        2
176
     1
 90
        0
176
     1
 40
0.6
176
     1
 40
30.0
176
     1
 62
     7
420
 16777215
176
     1
 90
        2
176
     1
 90
        2
176
     1
 62
     7
176
     1
 62
   257
176
     1
 90
        2
176
     1
 90
        1
176
     1
 40
40.0
176
     1
 90
        0
176
     1
 62
   257
176
     1
 40
1.0
176
     1
 90
        1
176
     1
 90
        6
176
     1
 90
        2
176
     1
 62
     7
176
     1
 90
        3
176
     1
 90
        0
176
     1
 90
        0
176
     1
290
     0
176
     1
 90
        1
176
     1
 40
0.0
176
     1
 90
        0
176
     1
290
     0
176
     1
290
     1
176
     1
290
     1
176
     1
290
     0
176
     1
290
     0
176
     1
290
     0
176
     1
290
     0
176
     1
290
     0
176
     1
290
     0
176
     1
 90
       50
176
     1
 40
0.0
176
     1
 40
1.0
176
     1
 90
        0
176
     1
 62
    18
420
        0
176
     1
 90
       50
176
     1
 90
        3
176
     1
 62
     5
420
      255
176
     1
290
     0
176
     1
 90
       50
176
     1
 90
       50
176
     1
 90
       50
176
     1
290
     0
176
     1
 90
       50
176
     1
 62
   256
176
     0
 40
1.0
176
     0
 90
        2
176
     1
  1
strokes_ogs.tif
176
     1
290
     0
176
     1
 40
1.0
176
     1
 40
1.0
176
     1
  0
VISUALSTYLE
  5
26CE
102
{ACAD_REACTORS
330
26B8
102
}
330
26B8
100
AcDbVisualStyle
  2
JitterOff
 70
    20
177
     3
291
     1
 70
    58
 90
        2
176
     0
 90
        2
176
     0
 90
        0
176
     0
 90
        0
176
     0
 40
0.6
176
     0
 40
30.0
176
     0
 62
     7
420
 16777215
176
     0
 90
        1
176
     0
 90
        4
176
     0
 62
     7
176
     0
 62
   257
176
     0
 90
        1
176
     0
 90
        1
176
     0
 40
1.0
176
     0
 90
       10
176
     2
 62
     7
176
     0
 40
1.0
176
     0
 90
        1
176
     0
 90
        6
176
     0
 90
        2
176
     0
 62
     7
176
     0
 90
        5
176
     0
 90
        0
176
     0
 90
        0
176
     0
290
     0
176
     0
 90
        1
176
     0
 40
0.0
176
     0
 90
        0
176
     0
290
     0
176
     1
290
     1
176
     1
290
     1
176
     1
290
     0
176
     1
290
     0
176
     1
290
     0
176
     1
290
     0
176
     1
290
     0
176
     1
290
     0
176
     1
 90
       50
176
     0
 40
0.0
176
     0
 40
1.0
176
     0
 90
        0
176
     0
 62
    18
420
        0
176
     0
 90
       50
176
     0
 90
        3
176
     0
 62
     5
420
      255
176
     0
290
     0
176
     1
 90
       50
176
     0
 90
       50
176
     0
 90
       50
176
     0
290
     0
176
     1
 90
       50
176
     0
 62
   256
176
     0
 40
1.0
176
     0
 90
        2
176
     0
  1
strokes_ogs.tif
176
     0
290
     0
176
     1
 40
1.0
176
     0
 40
1.0
176
     0
  0
VISUALSTYLE
  5
26C6
102
{ACAD_REACTORS
330
26B8
102
}
330
26B8
100
AcDbVisualStyle
  2
Linepattern
 70
    14
177
     3
291
     1
 70
    58
 90
        2
176
     1
 90
        2
176
     1
 90
        0
176
     1
 90
        0
176
     1
 40
0.6
176
     1
 40
30.0
176
     1
 62
     7
420
 16777215
176
     1
 90
        1
176
     1
 90
        4
176
     1
 62
     7
176
     1
 62
   257
176
     1
 90
        7
176
     1
 90
        7
176
     1
 40
1.0
176
     1
 90
        8
176
     1
 62
     7
176
     1
 40
1.0
176
     1
 90
        1
176
     1
 90
        6
176
     1
 90
        2
176
     1
 62
     7
176
     1
 90
        5
176
     1
 90
        0
176
     1
 90
        0
176
     1
290
     0
176
     1
 90
        1
176
     1
 40
0.0
176
     1
 90
        0
176
     1
290
     0
176
     1
290
     1
176
     1
290
     1
176
     1
290
     0
176
     1
290
     0
176
     1
290
     0
176
     1
290
     0
176
     1
290
     0
176
     1
290
     0
176
     1
 90
       50
176
     1
 40
0.0
176
     1
 40
1.0
176
     1
 90
        0
176
     1
 62
    18
420
        0
176
     1
 90
       50
176
     1
 90
        3
176
     1
 62
     5
420
      255
176
     1
290
     0
176
     1
 90
       50
176
     1
 90
       50
176
     1
 90
       50
176
     1
290
     0
176
     1
 90
       50
176
     1
 62
   256
176
     0
 40
1.0
176
     0
 90
        2
176
     1
  1
strokes_ogs.tif
176
     1
290
     0
176
     1
 40
1.0
176
     1
 40
1.0
176
     1
  0
VISUALSTYLE
  5
26CF
102
{ACAD_REACTORS
330
26B8
102
}
330
26B8
100
AcDbVisualStyle
  2
OverhangOff
 70
    21
177
     3
291
     1
 70
    58
 90
        2
176
     0
 90
        2
176
     0
 90
        0
176
     0
 90
        0
176
     0
 40
0.6
176
     0
 40
30.0
176
     0
 62
     7
420
 16777215
176
     0
 90
        1
176
     0
 90
        4
176
     0
 62
     7
176
     0
 62
   257
176
     0
 90
        1
176
     0
 90
        1
176
     0
 40
1.0
176
     0
 90
        9
176
     2
 62
     7
176
     0
 40
1.0
176
     0
 90
        1
176
     0
 90
        6
176
     0
 90
        2
176
     0
 62
     7
176
     0
 90
        5
176
     0
 90
        0
176
     0
 90
        0
176
     0
290
     0
176
     0
 90
        1
176
     0
 40
0.0
176
     0
 90
        0
176
     0
290
     0
176
     1
290
     1
176
     1
290
     1
176
     1
290
     0
176
     1
290
     0
176
     1
290
     0
176
     1
290
     0
176
     1
290
     0
176
     1
290
     0
176
     1
 90
       50
176
     0
 40
0.0
176
     0
 40
1.0
176
     0
 90
        0
176
     0
 62
    18
420
        0
176
     0
 90
       50
176
     0
 90
        3
176
     0
 62
     5
420
      255
176
     0
290
     0
176
     1
 90
       50
176
     0
 90
       50
176
     0
 90
       50
176
     0
290
     0
176
     1
 90
       50
176
     0
 62
   256
176
     0
 40
1.0
176
     0
 90
        2
176
     0
  1
strokes_ogs.tif
176
     0
290
     0
176
     1
 40
1.0
176
     0
 40
1.0
176
     0
  0
VISUALSTYLE
  5
26C2
102
{ACAD_REACTORS
330
26B8
102
}
330
26B8
100
AcDbVisualStyle
  2
Realistic
 70
     8
177
     3
291
     0
 70
    58
 90
        2
176
     1
 90
        3
176
     1
 90
        0
176
     1
 90
        2
176
     1
 40
0.6
176
     1
 40
30.0
176
     1
 62
     7
420
 16777215
176
     1
 90
        0
176
     1
 90
        0
176
     1
 62
     7
176
     1
 62
   257
176
     1
 90
        1
176
     1
 90
        1
176
     1
 40
1.0
176
     1
 90
        8
176
     1
 62
   257
176
     1
 40
1.0
176
     1
 90
        1
176
     1
 90
        6
176
     1
 90
        2
176
     1
 62
     7
176
     1
 90
        3
176
     1
 90
        0
176
     1
 90
        0
176
     1
290
     0
176
     1
 90
       13
176
     1
 40
0.0
176
     1
 90
        0
176
     1
290
     0
176
     1
290
     1
176
     1
290
     1
176
     1
290
     0
176
     1
290
     0
176
     1
290
     0
176
     1
290
     0
176
     1
290
     0
176
     1
290
     0
176
     1
 90
       50
176
     1
 40
0.0
176
     1
 40
1.0
176
     1
 90
        0
176
     1
 62
    18
420
        0
176
     1
 90
       50
176
     1
 90
        3
176
     1
 62
     5
420
      255
176
     1
290
     0
176
     1
 90
       50
176
     1
 90
       50
176
     1
 90
       50
176
     1
290
     0
176
     1
 90
       50
176
     1
 62
   256
176
     0
 40
1.0
176
     0
 90
        2
176
     1
  1
strokes_ogs.tif
176
     1
290
     0
176
     1
 40
1.0
176
     1
 40
1.0
176
     1
  0
VISUALSTYLE
  5
26CD
102
{ACAD_REACTORS
330
26B8
102
}
330
26B8
100
AcDbVisualStyle
  2
Shaded
 70
    27
177
     3
291
     0
 70
    58
 90
        2
176
     1
 90
        2
176
     1
 90
        1
176
     1
 90
        2
176
     1
 40
0.6
176
     1
 40
30.0
176
     1
 62
     7
420
 16777215
176
     1
 90
        0
176
     1
 90
        4
176
     1
 62
     7
176
     1
 62
   257
176
     1
 90
        1
176
     1
 90
        1
176
     1
 40
1.0
176
     1
 90
        8
176
     1
 62
   257
176
     1
 40
1.0
176
     1
 90
        1
176
     1
 90
        6
176
     1
 90
        2
176
     1
 62
     8
420
  7895160
176
     1
 90
        3
176
     1
 90
        0
176
     1
 90
        0
176
     1
290
     0
176
     1
 90
        5
176
     1
 40
0.0
176
     1
 90
        0
176
     1
290
     0
176
     1
290
     1
176
     1
290
     1
176
     1
290
     0
176
     1
290
     0
176
     1
290
     0
176
     1
290
     0
176
     1
290
     0
176
     1
290
     0
176
     1
 90
       50
176
     1
 40
0.0
176
     1
 40
1.0
176
     1
 90
        0
176
     1
 62
    18
420
        0
176
     1
 90
       50
176
     1
 90
        3
176
     1
 62
     5
420
      255
176
     1
290
     0
176
     1
 90
       50
176
     1
 90
       50
176
     1
 90
       50
176
     1
290
     0
176
     1
 90
       50
176
     1
 62
   256
176
     0
 40
1.0
176
     0
 90
        2
176
     1
  1
strokes_ogs.tif
176
     1
290
     0
176
     1
 40
1.0
176
     1
 40
1.0
176
     1
  0
VISUALSTYLE
  5
26CC
102
{ACAD_REACTORS
330
26B8
102
}
330
26B8
100
AcDbVisualStyle
  2
Shaded with edges
 70
    26
177
     3
291
     0
 70
    58
 90
        2
176
     1
 90
        2
176
     1
 90
        1
176
     1
 90
        2
176
     1
 40
0.6
176
     1
 40
30.0
176
     1
 62
     7
420
 16777215
176
     1
 90
        1
176
     1
 90
       10
176
     1
 62
     7
176
     1
 62
   257
176
     1
 90
        2
176
     1
 90
        1
176
     1
 40
1.0
176
     1
 90
        8
176
     1
 62
   257
176
     1
 40
1.0
176
     1
 90
        1
176
     1
 90
        6
176
     1
 90
        2
176
     1
 62
     7
176
     1
 90
        3
176
     1
 90
        0
176
     1
 90
        0
176
     1
290
     0
176
     1
 90
        5
176
     1
 40
0.0
176
     1
 90
        0
176
     1
290
     0
176
     1
290
     1
176
     1
290
     1
176
     1
290
     0
176
     1
290
     0
176
     1
290
     0
176
     1
290
     0
176
     1
290
     0
176
     1
290
     0
176
     1
 90
       50
176
     1
 40
0.0
176
     1
 40
1.0
176
     1
 90
        0
176
     1
 62
    18
420
        0
176
     1
 90
       50
176
     1
 90
        3
176
     1
 62
     5
420
      255
176
     1
290
     0
176
     1
 90
       50
176
     1
 90
       50
176
     1
 90
       50
176
     1
290
     0
176
     1
 90
       50
176
     1
 62
   256
176
     0
 40
1.0
176
     0
 90
        2
176
     1
  1
strokes_ogs.tif
176
     1
290
     0
176
     1
 40
1.0
176
     1
 40
1.0
176
     1
  0
VISUALSTYLE
  5
26C9
102
{ACAD_REACTORS
330
26B8
102
}
330
26B8
100
AcDbVisualStyle
  2
Shades of Gray
 70
    23
177
     3
291
     0
 70
    58
 90
        2
176
     1
 90
        2
176
     1
 90
        3
176
     1
 90
        0
176
     1
 40
0.6
176
     1
 40
30.0
176
     1
 62
     7
420
 16777215
176
     1
 90
        2
176
     1
 90
        2
176
     1
 62
     7
176
     1
 62
     7
176
     1
 90
        1
176
     1
 90
        1
176
     1
 40
40.0
176
     1
 90
        8
176
     1
 62
     7
176
     1
 40
1.0
176
     1
 90
        1
176
     1
 90
        6
176
     1
 90
        2
176
     1
 62
     7
176
     1
 90
        3
176
     1
 90
        0
176
     1
 90
        0
176
     1
290
     0
176
     1
 90
        1
176
     1
 40
0.0
176
     1
 90
        0
176
     1
290
     0
176
     1
290
     1
176
     1
290
     1
176
     1
290
     0
176
     1
290
     0
176
     1
290
     0
176
     1
290
     0
176
     1
290
     0
176
     1
290
     0
176
     1
 90
       50
176
     1
 40
0.0
176
     1
 40
1.0
176
     1
 90
        0
176
     1
 62
    18
420
        0
176
     1
 90
       50
176
     1
 90
        3
176
     1
 62
     5
420
      255
176
     1
290
     0
176
     1
 90
       50
176
     1
 90
       50
176
     1
 90
       50
176
     1
290
     0
176
     1
 90
       50
176
     1
 62
   256
176
     0
 40
1.0
176
     0
 90
        2
176
     1
  1
strokes_ogs.tif
176
     1
290
     0
176
     1
 40
1.0
176
     1
 40
1.0
176
     1
  0
VISUALSTYLE
  5
26CA
102
{ACAD_REACTORS
330
26B8
102
}
330
26B8
100
AcDbVisualStyle
  2
Sketchy
 70
    24
177
     3
291
     0
 70
    58
 90
        1
176
     1
 90
        2
176
     1
 90
        2
176
     1
 90
        0
176
     1
 40
0.6
176
     1
 40
30.0
176
     1
 62
     7
420
 16777215
176
     1
 90
        2
176
     1
 90
        2
176
     1
 62
     7
176
     1
 62
     7
176
     1
 90
        1
176
     1
 90
        1
176
     1
 40
40.0
176
     1
 90
       11
176
     1
 62
     7
176
     1
 40
1.0
176
     1
 90
        1
176
     1
 90
        6
176
     1
 90
        2
176
     1
 62
     7
176
     1
 90
        6
176
     1
 90
        0
176
     1
 90
        0
176
     1
290
     0
176
     1
 90
        1
176
     1
 40
0.0
176
     1
 90
        0
176
     1
290
     0
176
     1
290
     1
176
     1
290
     1
176
     1
290
     0
176
     1
290
     0
176
     1
290
     0
176
     1
290
     0
176
     1
290
     0
176
     1
290
     0
176
     1
 90
       50
176
     1
 40
0.0
176
     1
 40
1.0
176
     1
 90
        0
176
     1
 62
    18
420
        0
176
     1
 90
       50
176
     1
 90
        3
176
     1
 62
     5
420
      255
176
     1
290
     0
176
     1
 90
       50
176
     1
 90
       50
176
     1
 90
       50
176
     1
290
     0
176
     1
 90
       50
176
     1
 62
   256
176
     0
 40
1.0
176
     0
 90
        2
176
     1
  1
strokes_ogs.tif
176
     1
290
     0
176
     1
 40
1.0
176
     1
 40
1.0
176
     1
  0
VISUALSTYLE
  5
26C5
102
{ACAD_REACTORS
330
26B8
102
}
330
26B8
100
AcDbVisualStyle
  2
Thicken
 70
    13
177
     3
291
     1
 70
    58
 90
        2
176
     1
 90
        2
176
     1
 90
        0
176
     1
 90
        0
176
     1
 40
0.6
176
     1
 40
30.0
176
     1
 62
     7
420
 16777215
176
     1
 90
        1
176
     1
 90
        4
176
     1
 62
     7
176
     1
 62
   257
176
     1
 90
        1
176
     1
 90
        1
176
     1
 40
1.0
176
     1
 90
       12
176
     1
 62
     7
176
     1
 40
1.0
176
     1
 90
        1
176
     1
 90
        6
176
     1
 90
        2
176
     1
 62
     7
176
     1
 90
        5
176
     1
 90
        0
176
     1
 90
        0
176
     1
290
     0
176
     1
 90
        1
176
     1
 40
0.0
176
     1
 90
        0
176
     1
290
     0
176
     1
290
     1
176
     1
290
     1
176
     1
290
     0
176
     1
290
     0
176
     1
290
     0
176
     1
290
     0
176
     1
290
     0
176
     1
290
     0
176
     1
 90
       50
176
     1
 40
0.0
176
     1
 40
1.0
176
     1
 90
        0
176
     1
 62
    18
420
        0
176
     1
 90
       50
176
     1
 90
        3
176
     1
 62
     5
420
      255
176
     1
290
     0
176
     1
 90
       50
176
     1
 90
       50
176
     1
 90
       50
176
     1
290
     0
176
     1
 90
       50
176
     1
 62
   256
176
     0
 40
1.0
176
     0
 90
        2
176
     1
  1
strokes_ogs.tif
176
     1
290
     0
176
     1
 40
1.0
176
     1
 40
1.0
176
     1
  0
VISUALSTYLE
  5
26BF
102
{ACAD_REACTORS
330
26B8
102
}
330
26B8
100
AcDbVisualStyle
  2
Wireframe
 70
     5
177
     3
291
     0
 70
    58
 90
        0
176
     1
 90
        2
176
     1
 90
        0
176
     1
 90
        0
176
     1
 40
0.6
176
     1
 40
30.0
176
     1
 62
     7
420
 16777215
176
     1
 90
        1
176
     1
 90
        4
176
     1
 62
     7
176
     1
 62
   257
176
     1
 90
        1
176
     1
 90
        1
176
     1
 40
1.0
176
     1
 90
        0
176
     1
 62
   257
176
     1
 40
1.0
176
     1
 90
        1
176
     1
 90
        6
176
     1
 90
        2
176
     1
 62
     7
176
     1
 90
        3
176
     1
 90
        0
176
     1
 90
        0
176
     1
290
     0
176
     1
 90
        1
176
     1
 40
0.0
176
     1
 90
        0
176
     1
290
     0
176
     1
290
     1
176
     1
290
     1
176
     1
290
     0
176
     1
290
     0
176
     1
290
     0
176
     1
290
     0
176
     1
290
     0
176
     1
290
     0
176
     1
 90
       50
176
     1
 40
0.0
176
     1
 40
1.0
176
     1
 90
        0
176
     1
 62
    18
420
        0
176
     1
 90
       50
176
     1
 90
        3
176
     1
 62
     5
420
      255
176
     1
290
     0
176
     1
 90
       50
176
     1
 90
       50
176
     1
 90
       50
176
     1
290
     0
176
     1
 90
       50
176
     1
 62
   256
176
     0
 40
1.0
176
     0
 90
        2
176
     1
  1
strokes_ogs.tif
176
     1
290
     0
176
     1
 40
1.0
176
     1
 40
1.0
176
     1
  0
VISUALSTYLE
  5
26CB
102
{ACAD_REACTORS
330
26B8
102
}
330
26B8
100
AcDbVisualStyle
  2
X-Ray
 70
    25
177
     3
291
     0
 70
    58
 90
        2
176
     1
 90
        2
176
     1
 90
        1
176
     1
 90
        1
176
     1
 40
0.5
176
     1
 40
30.0
176
     1
 62
     7
420
 16777215
176
     1
 90
        1
176
     1
 90
        0
176
     1
 62
     7
176
     1
 62
   257
176
     1
 90
        1
176
     1
 90
        1
176
     1
 40
1.0
176
     1
 90
        8
176
     1
 62
     7
176
     1
 40
1.0
176
     1
 90
        1
176
     1
 90
        6
176
     1
 90
        2
176
     1
 62
     7
176
     1
 90
        3
176
     1
 90
        0
176
     1
 90
        0
176
     1
290
     0
176
     1
 90
       13
176
     1
 40
0.0
176
     1
 90
        0
176
     1
290
     0
176
     1
290
     1
176
     1
290
     1
176
     1
290
     0
176
     1
290
     0
176
     1
290
     0
176
     1
290
     0
176
     1
290
     0
176
     1
290
     0
176
     1
 90
       50
176
     1
 40
0.0
176
     1
 40
1.0
176
     1
 90
        0
176
     1
 62
    18
420
        0
176
     1
 90
       50
176
     1
 90
        3
176
     1
 62
     5
420
      255
176
     1
290
     0
176
     1
 90
       50
176
     1
 90
       50
176
     1
 90
       50
176
     1
290
     0
176
     1
 90
       50
176
     1
 62
   256
176
     0
 40
1.0
176
     0
 90
        2
176
     1
  1
strokes_ogs.tif
176
     1
290
     0
176
     1
 40
1.0
176
     1
 40
1.0
176
     1
  0
DICTIONARYVAR
  5
27D5
102
{ACAD_REACTORS
330
27CF
102
}
330
27CF
100
DictionaryVariables
280
     0
  1
1:1
  0
DICTIONARYVAR
  5
27D1
102
{ACAD_REACTORS
330
27CF
102
}
330
27CF
100
DictionaryVariables
280
     0
  1
STANDARD
  0
DICTIONARYVAR
  5
27D0
102
{ACAD_REACTORS
330
27CF
102
}
330
27CF
100
DictionaryVariables
280
     0
  1
STANDARD
  0
DICTIONARYVAR
  5
27D2
102
{ACAD_REACTORS
330
27CF
102
}
330
27CF
100
DictionaryVariables
280
     0
  1
Imperial24
  0
DICTIONARYVAR
  5
27D3
102
{ACAD_REACTORS
330
27CF
102
}
330
27CF
100
DictionaryVariables
280
     0
  1
Imperial24
  0
DICTIONARYVAR
  5
27D7
102
{ACAD_REACTORS
330
27CF
102
}
330
27CF
100
DictionaryVariables
280
     0
  1
1
  0
DICTIONARYVAR
  5
27D8
102
{ACAD_REACTORS
330
27CF
102
}
330
27CF
100
DictionaryVariables
280
     0
  1
15
  0
DICTIONARYVAR
  5
27D6
102
{ACAD_REACTORS
330
27CF
102
}
330
27CF
100
DictionaryVariables
280
     0
  1
0
  0
DICTIONARYVAR
  5
27D4
102
{ACAD_REACTORS
330
27CF
102
}
330
27CF
100
DictionaryVariables
280
     0
  1
0
  0
DICTIONARY
  5
275A
102
{ACAD_REACTORS
330
2751
102
}
330
2751
100
AcDbDictionary
281
     1
  0
DICTIONARY
  5
30C4
330
2F21
100
AcDbDictionary
280
     1
281
     1
  3
ACAD_XREC_ROUNDTRIP
360
30C5
  0
DICTIONARY
  5
30C2
330
26F9
100
AcDbDictionary
280
     1
281
     1
  3
ACAD_XREC_ROUNDTRIP
360
30C3
  0
DICTIONARY
  5
2F02
330
26FD
100
AcDbDictionary
280
     1
281
     1
  0
DICTIONARY
  5
2F04
330
2701
100
AcDbDictionary
280
     1
281
     1
  0
DICTIONARY
  5
26A9
330
26A8
100
AcDbDictionary
280
     1
281
     1
  3
BUMPTILE
360
26AB
  3
DIFFUSETILE
360
26AA
  3
OPACITYTILE
360
26AE
  3
REFLECTIONTILE
360
26AD
  3
REFRACTIONTILE
360
26AF
  3
SPECULARTILE
360
26AC
  0
DICTIONARY
  5
26A1
330
26A0
100
AcDbDictionary
280
     1
281
     1
  3
BUMPTILE
360
26A3
  3
DIFFUSETILE
360
26A2
  3
OPACITYTILE
360
26A6
  3
REFLECTIONTILE
360
26A5
  3
REFRACTIONTILE
360
26A7
  3
SPECULARTILE
360
26A4
  0
DICTIONARY
  5
26B1
330
26B0
100
AcDbDictionary
280
     1
281
     1
  3
BUMPTILE
360
26B3
  3
DIFFUSETILE
360
26B2
  3
OPACITYTILE
360
26B6
  3
REFLECTIONTILE
360
26B5
  3
REFRACTIONTILE
360
26B7
  3
SPECULARTILE
360
26B4
  0
DICTIONARY
  5
2F23
330
2F22
100
AcDbDictionary
280
     1
281
     1
  3
ACAD_FIELD
360
2F24
  3
ACAD_XREC_ROUNDTRIP
360
30C6
  0
DICTIONARY
  5
30C0
330
26F7
100
AcDbDictionary
280
     1
281
     1
  3
ACAD_XREC_ROUNDTRIP
360
30C1
  0
DICTIONARY
  5
30BE
330
26F3
100
AcDbDictionary
280
     1
281
     1
  3
ACAD_ROUNDTRIP_2008_TABLESTYLE_CELLSTYLEMAP
360
30BF
  0
XRECORD
  5
30C5
102
{ACAD_REACTORS
330
30C4
102
}
330
30C4
100
AcDbXrecord
280
     1
102
DISPLAYNAME
  1
ASME Y14.35 - 1987(1)
102
FLAGS
 90
        0
  0
XRECORD
  5
30C3
102
{ACAD_REACTORS
330
30C2
102
}
330
30C2
100
AcDbXrecord
280
     1
102
DISPLAYNAME
  1
Imperial24
102
FLAGS
 90
        0
  0
XRECORD
  5
26AB
102
{ACAD_REACTORS
330
26A9
102
}
330
26A9
100
AcDbXrecord
280
     1
270
     1
271
     1
  0
XRECORD
  5
26AA
102
{ACAD_REACTORS
330
26A9
102
}
330
26A9
100
AcDbXrecord
280
     1
270
     1
271
     1
  0
XRECORD
  5
26AE
102
{ACAD_REACTORS
330
26A9
102
}
330
26A9
100
AcDbXrecord
280
     1
270
     1
271
     1
  0
XRECORD
  5
26AD
102
{ACAD_REACTORS
330
26A9
102
}
330
26A9
100
AcDbXrecord
280
     1
270
     1
271
     1
  0
XRECORD
  5
26AF
102
{ACAD_REACTORS
330
26A9
102
}
330
26A9
100
AcDbXrecord
280
     1
270
     1
271
     1
  0
XRECORD
  5
26AC
102
{ACAD_REACTORS
330
26A9
102
}
330
26A9
100
AcDbXrecord
280
     1
270
     1
271
     1
  0
XRECORD
  5
26A3
102
{ACAD_REACTORS
330
26A1
102
}
330
26A1
100
AcDbXrecord
280
     1
270
     1
271
     1
  0
XRECORD
  5
26A2
102
{ACAD_REACTORS
330
26A1
102
}
330
26A1
100
AcDbXrecord
280
     1
270
     1
271
     1
  0
XRECORD
  5
26A6
102
{ACAD_REACTORS
330
26A1
102
}
330
26A1
100
AcDbXrecord
280
     1
270
     1
271
     1
  0
XRECORD
  5
26A5
102
{ACAD_REACTORS
330
26A1
102
}
330
26A1
100
AcDbXrecord
280
     1
270
     1
271
     1
  0
XRECORD
  5
26A7
102
{ACAD_REACTORS
330
26A1
102
}
330
26A1
100
AcDbXrecord
280
     1
270
     1
271
     1
  0
XRECORD
  5
26A4
102
{ACAD_REACTORS
330
26A1
102
}
330
26A1
100
AcDbXrecord
280
     1
270
     1
271
     1
  0
XRECORD
  5
26B3
102
{ACAD_REACTORS
330
26B1
102
}
330
26B1
100
AcDbXrecord
280
     1
270
     1
271
     1
  0
XRECORD
  5
26B2
102
{ACAD_REACTORS
330
26B1
102
}
330
26B1
100
AcDbXrecord
280
     1
270
     1
271
     1
  0
XRECORD
  5
26B6
102
{ACAD_REACTORS
330
26B1
102
}
330
26B1
100
AcDbXrecord
280
     1
270
     1
271
     1
  0
XRECORD
  5
26B5
102
{ACAD_REACTORS
330
26B1
102
}
330
26B1
100
AcDbXrecord
280
     1
270
     1
271
     1
  0
XRECORD
  5
26B7
102
{ACAD_REACTORS
330
26B1
102
}
330
26B1
100
AcDbXrecord
280
     1
270
     1
271
     1
  0
XRECORD
  5
26B4
102
{ACAD_REACTORS
330
26B1
102
}
330
26B1
100
AcDbXrecord
280
     1
270
     1
271
     1
  0
DICTIONARY
  5
2F24
102
{ACAD_REACTORS
330
2F23
102
}
330
2F23
100
AcDbDictionary
280
     1
281
     1
  3
TEXT
360
2F25
  0
XRECORD
  5
30C6
102
{ACAD_REACTORS
330
2F23
102
}
330
2F23
100
AcDbXrecord
280
     1
102
DISPLAYNAME
  1
ASME Y14.3 - 2003(1)
102
FLAGS
 90
        0
  0
XRECORD
  5
30C1
102
{ACAD_REACTORS
330
30C0
102
}
330
30C0
100
AcDbXrecord
280
     1
102
DISPLAYNAME
  1
Imperial24
102
FLAGS
 90
        0
  0
CELLSTYLEMAP
  5
30BF
102
{ACAD_REACTORS
330
30BE
102
}
330
30BE
100
AcDbCellStyleMap
 90
        3
300
CELLSTYLE
  1
TABLEFORMAT_BEGIN
 90
        5
170
     1
 91
        0
 92
    32768
 62
   257
 93
        1
300
CONTENTFORMAT
  1
CONTENTFORMAT_BEGIN
 90
        0
 91
        0
 92
      512
 93
        0
300

 40
0.0
140
1.0
 94
        5
 62
     0
340
26E4
144
0.25
309
CONTENTFORMAT_END
171
     0
 94
        0
309
TABLEFORMAT_END
  1
CELLSTYLE_BEGIN
 90
        1
 91
        1
300
_TITLE
309
CELLSTYLE_END
300
CELLSTYLE
  1
TABLEFORMAT_BEGIN
 90
        5
170
     1
 91
        0
 92
        0
 62
   257
 93
        1
300
CONTENTFORMAT
  1
CONTENTFORMAT_BEGIN
 90
        0
 91
        0
 92
      512
 93
        0
300

 40
0.0
140
1.0
 94
        5
 62
     0
340
26E4
144
0.18
309
CONTENTFORMAT_END
171
     0
 94
        0
309
TABLEFORMAT_END
  1
CELLSTYLE_BEGIN
 90
        2
 91
        1
300
_HEADER
309
CELLSTYLE_END
300
CELLSTYLE
  1
TABLEFORMAT_BEGIN
 90
        5
170
     1
 91
        0
 92
        0
 62
   257
 93
        1
300
CONTENTFORMAT
  1
CONTENTFORMAT_BEGIN
 90
        0
 91
        0
 92
      512
 93
        0
300

 40
0.0
140
1.0
 94
        2
 62
     0
340
26E4
144
0.18
309
CONTENTFORMAT_END
171
     0
 94
        0
309
TABLEFORMAT_END
  1
CELLSTYLE_BEGIN
 90
        3
 91
        2
300
_DATA
309
CELLSTYLE_END
  0
FIELD
  5
2F25
102
{ACAD_REACTORS
330
2F24
102
}
330
2F24
100
AcDbField
  1
_text
  2
%<\_FldIdx 0>% %<\_FldIdx 1>%-%<\_FldIdx 2>%
 90
        3
360
2F26
360
2F27
360
2F28
 97
        0
 91
       63
 92
        0
 94
        9
 95
        2
 96
        0
300

 93
        0
  7
ACFD_FIELD_VALUE
 93
        3
 90
        0
 94
        0
300

302

304
ACVALUE_END
301

 98
        0
  0
FIELD
  5
2F26
330
2F25
100
AcDbField
  1
AcVar
  2
\AcVar ViewType \f "%tc1"
 90
        0
 97
        0
 91
       63
 92
        0
 94
       43
 95
        2
 96
        0
300

 93
        1
  6
Variable
 93
        2
 90
        4
  1
ViewType
 94
        0
300

302

304
ACVALUE_END
  7
ACFD_FIELD_VALUE
 93
        1
 90
        0
 94
        0
300
%tc1
302

304
ACVALUE_END
301
----
 98
        4
  0
FIELD
  5
2F27
330
2F25
100
AcDbField
  1
AcVar
  2
\AcVar ViewSectionStartId
 90
        0
 97
        0
 91
       63
 92
        0
 94
       43
 95
        2
 96
        0
300

 93
        1
  6
Variable
 93
        2
 90
        4
  1
ViewSectionStartId
 94
        0
300

302

304
ACVALUE_END
  7
ACFD_FIELD_VALUE
 93
        1
 90
        0
 94
        0
300

302

304
ACVALUE_END
301
----
 98
        4
  0
FIELD
  5
2F28
330
2F25
100
AcDbField
  1
AcVar
  2
\AcVar ViewSectionEndId
 90
        0
 97
        0
 91
       63
 92
        0
 94
       43
 95
        2
 96
        0
300

 93
        1
  6
Variable
 93
        2
 90
        4
  1
ViewSectionEndId
 94
        0
300

302

304
ACVALUE_END
  7
ACFD_FIELD_VALUE
 93
        1
 90
        0
 94
        0
300

302

304
ACVALUE_END
301
----
 98
        4
  0
ENDSEC
  0
SECTION
  2
ACDSDATA
 70
     2
 71
     6
  0
ACDSSCHEMA
 90
        0
  1
AcDb_Thumbnail_Schema
  2
AcDbDs::ID
280
    10
 91
        8
  2
Thumbnail_Data
280
    15
 91
        0
101
ACDSRECORD
 95
        0
 90
        1
  2
AcDbDs::TreatedAsObjectData
280
     1
291
     1
101
ACDSRECORD
 95
        0
 90
        2
  2
AcDbDs::Legacy
280
     1
291
     1
101
ACDSRECORD
  1
AcDbDs::ID
 90
        3
  2
AcDs:Indexable
280
     1
291
     1
101
ACDSRECORD
  1
AcDbDs::ID
 90
        4
  2
AcDbDs::HandleAttribute
280
     7
282
     1
  0
ACDSSCHEMA
 90
        1
  1
AcDbDs::TreatedAsObjectDataSchema
  2
AcDbDs::TreatedAsObjectData
280
     1
 91
        0
  0
ACDSSCHEMA
 90
        2
  1
AcDbDs::LegacySchema
  2
AcDbDs::Legacy
280
     1
 91
        0
  0
ACDSSCHEMA
 90
        3
  1
AcDbDs::IndexedPropertySchema
  2
AcDs:Indexable
280
     1
 91
        0
  0
ACDSSCHEMA
 90
        4
  1
AcDbDs::HandleAttributeSchema
  2
AcDbDs::HandleAttribute
280
     7
 91
        1
284
     1
  0
ACDSRECORD
 90
        0
  2
AcDbDs::ID
280
    10
320
26FD
  2
Thumbnail_Data
280
    15
 94
     1989
310
89504E470D0A1A0A0000000D4948445200000100000000A50803000000840AD3BD00000300504C5445FFFFFF000000C8C8C80000000000000000000000000000000000000000000000000000330000660000990000CC0000FF0033000033330033660033990033CC0033FF0066000066330066660066990066CC0066FF0099
310
000099330099660099990099CC0099FF00CC0000CC3300CC6600CC9900CCCC00CCFF00FF0000FF3300FF6600FF9900FFCC00FFFF3300003300333300663300993300CC3300FF3333003333333333663333993333CC3333FF3366003366333366663366993366CC3366FF3399003399333399663399993399CC3399FF33CC00
310
33CC3333CC6633CC9933CCCC33CCFF33FF0033FF3333FF6633FF9933FFCC33FFFF6600006600336600666600996600CC6600FF6633006633336633666633996633CC6633FF6666006666336666666666996666CC6666FF6699006699336699666699996699CC6699FF66CC0066CC3366CC6666CC9966CCCC66CCFF66FF0066
310
FF3366FF6666FF9966FFCC66FFFF9900009900339900669900999900CC9900FF9933009933339933669933999933CC9933FF9966009966339966669966999966CC9966FF9999009999339999669999999999CC9999FF99CC0099CC3399CC6699CC9999CCCC99CCFF99FF0099FF3399FF6699FF9999FFCC99FFFFCC0000CC00
310
33CC0066CC0099CC00CCCC00FFCC3300CC3333CC3366CC3399CC33CCCC33FFCC6600CC6633CC6666CC6699CC66CCCC66FFCC9900CC9933CC9966CC9999CC99CCCC99FFCCCC00CCCC33CCCC66CCCC99CCCCCCCCCCFFCCFF00CCFF33CCFF66CCFF99CCFFCCCCFFFFFF0000FF0033FF0066FF0099FF00CCFF00FFFF3300FF3333
310
FF3366FF3399FF33CCFF33FFFF6600FF6633FF6666FF6699FF66CCFF66FFFF9900FF9933FF9966FF9999FF99CCFF99FFFFCC00FFCC33FFCC66FFCC99FFCCCCFFCCFFFFFF00FFFF33FFFF66FFFF99FFFFCCFFFFFF0000000D0D0D1A1A1A2828283535354343435050505D5D5D6B6B6B787878868686939393A1A1A1AEAEAEBB
310
BBBBC9C9C9D6D6D6E4E4E4F1F1F1FFFFFF000000000000000000000000000000000000000000000000000000000000B0E2D235000004804944415478DAED9D0D8EE3200C857DFFB3CD29DE4956ABB60183097F6971C28B569AD969D2E20F6C6C63A808AFED2F6C7B7D006CDBF3044000044000044000044000044000044000
310
0440000440000440000440000440000440000440004F1130ACFFED09E0B500AA574237045094722F1B40000440000440000440000440006D00500E23FEBF8293D765A456D111804A0BA300A3EFD3ECBBDC0150C2BD45CDFBFEFFCFD3B6B7F52C5697E9E600B208FA256B7C1F0429981900ABB21EB05E2A44CDEFBFF6B4D53D
310
80571F66B7A09859E96CAA231BD00EA062D7E551000C153817F1F9006A360D783680D359AD7AC31300A0F6161803807B0038EB5F0C9881FB01A8CBDFA504770370221B866682DB01801DCF69E7A0630840391CC590D12B000402805C040049ACF9E311808A0A588E9F05A65F05B4B79136C007804C4E7947BCC96343004403
310
38426D4F36208D8003004DA017C05914FE3B007676A70C0087DCB9833491C14AB57E3580B287F3066066011A011C09A328BD84E87D7F6B04ED14509CFAB17A590DD5DE3C07F089B7E3310F4B075701D0FF3585840C03788F81D73462925C0D40A7754D1BF019A56323203C8D28939AB6652500AD023900650D67A6C192F3EB
310
771690A0BDA9C87B4C8361805CEB08C96247288DEC4E63816007AE738565AD2BDC0BC0721CC683A1A54670008088BD2C381F0D625D387C0EA0A921530991A3CF5DAA40936C732931EF001A5A329914856723D8221D26D705BC03A835657A61C439806A074F2F8D7907F0F5C551F7002ACBE3F27C00525A0206BADBE91E8059
310
2162AF82772F8D1734E60E0024CEE04C887F03007691541C08C9C966A32B01B83C5172BE8ED3BF1114A9D40ACF48DF7CFDFDF905F09D86C0D44102782A00654AB60420A9C9DD7904C8EE368000088000760480D226FE4D001C9508F97CF0AB5D63EB01C85124938C006CA1025089261A4102D81C80100001EC9B10C9E783DE
310
D51640E696288E353020DF13FC0B00894BD499C24D7CAAE15470F8F763008727F4F905BD4507AADFDAA08761773C9AED7FFF2180A969F03215480B9468040960D38B0008800008800008800008800008800008800008800008800008800008800008800008800008E0DB1FECE55A092029156DDA4096EE3B50DBEEEC4D784E
310
4780644DBC04404B7589440746F85101C120005534138F2D392DAF11072AF01D8D6E04801545522515080ADC3F02B252FCF8FB05AD42ACE84B32FCA8C0840D4801E09600062AE6EC83AEEE350DE61B0A078DA0A4FD7947476846051E0100A3D3A0695A45CD09EA88CCE47488C500E6A743D15A949B56C3C6B8F304676C80F2
310
68D489E8EAFB76C349D1F0AA0273D3607414BA1E5815013D00B8D22B8C01484B5DF1FDA7C1249E52DF84D670FCCDFD6D40D8859087460D95F5AE000CCF0232F1169E54A06014C46E6808A0E39DA971CC9FBAFE2A4AF43502C406200680F3F4C731338A62937F069C19C1F8207A880ADE250520B613748811FBC548DC3F64A7
310
CA7B0230180DC6F2D594DDE10848F2A4FA16B1CE038F074C88064B58253BDA3F728D97DA003B515CF09532DB1100C40F6A4BF8791B0B005200DB5EC28B97FC03F8824A3882A821EE0000000049454E44AE426082
  0
ACDSRECORD
 90
        0
  2
AcDbDs::ID
280
    10
320
2701
  2
Thumbnail_Data
280
    15
 94
     1555
310
89504E470D0A1A0A0000000D49484452000001000000007C0803000000B13B9E5A00000300504C5445FFFFFF000000C8C8C80000000000000000000000000000000000000000000000000000330000660000990000CC0000FF0033000033330033660033990033CC0033FF0066000066330066660066990066CC0066FF0099
310
000099330099660099990099CC0099FF00CC0000CC3300CC6600CC9900CCCC00CCFF00FF0000FF3300FF6600FF9900FFCC00FFFF3300003300333300663300993300CC3300FF3333003333333333663333993333CC3333FF3366003366333366663366993366CC3366FF3399003399333399663399993399CC3399FF33CC00
310
33CC3333CC6633CC9933CCCC33CCFF33FF0033FF3333FF6633FF9933FFCC33FFFF6600006600336600666600996600CC6600FF6633006633336633666633996633CC6633FF6666006666336666666666996666CC6666FF6699006699336699666699996699CC6699FF66CC0066CC3366CC6666CC9966CCCC66CCFF66FF0066
310
FF3366FF6666FF9966FFCC66FFFF9900009900339900669900999900CC9900FF9933009933339933669933999933CC9933FF9966009966339966669966999966CC9966FF9999009999339999669999999999CC9999FF99CC0099CC3399CC6699CC9999CCCC99CCFF99FF0099FF3399FF6699FF9999FFCC99FFFFCC0000CC00
310
33CC0066CC0099CC00CCCC00FFCC3300CC3333CC3366CC3399CC33CCCC33FFCC6600CC6633CC6666CC6699CC66CCCC66FFCC9900CC9933CC9966CC9999CC99CCCC99FFCCCC00CCCC33CCCC66CCCC99CCCCCCCCCCFFCCFF00CCFF33CCFF66CCFF99CCFFCCCCFFFFFF0000FF0033FF0066FF0099FF00CCFF00FFFF3300FF3333
310
FF3366FF3399FF33CCFF33FFFF6600FF6633FF6666FF6699FF66CCFF66FFFF9900FF9933FF9966FF9999FF99CCFF99FFFFCC00FFCC33FFCC66FFCC99FFCCCCFFCCFFFFFF00FFFF33FFFF66FFFF99FFFFCCFFFFFF0000000D0D0D1A1A1A2828283535354343435050505D5D5D6B6B6B787878868686939393A1A1A1AEAEAEBB
310
BBBBC9C9C9D6D6D6E4E4E4F1F1F1FFFFFF000000000000000000000000000000000000000000000000000000000000B0E2D235000002CE4944415478DAED9CD97104210C44957F6C1B4547E27279990310B70731747FD85E1FB5E2218424188B50144551144551144551144551144551AF117E45007F9FB0BB0760FBE54000
310
0440000440000440000440004509A4FEA34C85812A5903701A1635CFD51692B61CC516190370197738439759CB02403180D90A86AFAE057C3FBAFA72108007671E698F407C5A1D822A4B5704A07B35EA0DB51503A0CE78E1A4D507EB05010C59D36B01B8BDCEED6AC0BB0120690872BFB03C80ECF86B092C0700F93F471B00
310
AC002039BB28F292C501A024FCE3B50020881644DFD24F1A5CA000DB515619008070D33B2AC2B664007ABA75AD429E0680A2EF1FC9BF3FE57D0010591B360004E3BC6C7C086A82E618002FA532042018FF9F99A82917A26F992CC16126084601B82FD00320426F8E07281D902800DC0AE05600A203981103924DC860A1CBE5
310
3A4113806F43F1DE617300A6EC021100A7698854859ED52D002400105925333D400130C803FCC6AA120AA77AC091E728310083638088D118A06D8331EFE8D90564621EA08C5FD906A1F6BE57CF03C2369046E00860035261ADFEB30B40B4D5D2510B4C0E829500B4EB95838BA1E7CB610D40E1C81AFB015A2628763CA01440
310
5F4768662A9C055074702CEF055034B9BD5D61030D111D40C1E8D07B30621B40767CFD4763D601E4FAD76F07901C226AC7BF22800401D497814B00881D078C70FF6501C42F09B55DE58B25D2D697C0AD13147DB90100AF6E93E68B9C154BC0D23DC180C1880E54529FCF4C0F785648774AF6040002783980F0606447006793
310
794700CA81EC8E31800008800036041044C1ED00887F4120B143BC15C05153DE4FC230E4BE81F918E03F7EC82048009B03100220806D01C07FFEA2DE98F30A662780FCFF00F8BFE6C8ED8E506503D73DB9DEDB4B761D8A87019CCF20BB9408D5D70EAA5DE0FB56B8BDAF4BD06674476C2C01E78F0C82044051144551144551
310
14455114455114B5977E00544B200F72D9E7E90000000049454E44AE426082
  0
ENDSEC
  0
EOF
